<?xml version="1.0" standalone="no"?>
<!DOCTYPE svg PUBLIC "-//W3C//DTD SVG 1.1//EN" "http://www.w3.org/Graphics/SVG/1.1/DTD/svg11.dtd">
<svg xmlns="http://www.w3.org/2000/svg">
<metadata>Generated by Fontastic.me</metadata>
<defs>
<font id="social-warfare-icons" horiz-adv-x="512">
<font-face font-family="social-warfare-icons" units-per-em="512" ascent="480" descent="-32"/>
<missing-glyph horiz-adv-x="512" />

<glyph glyph-name="reddit" unicode="&#97;" d="M448 338c-19 0-38-10-51-26l-3-3c-31 21-72 33-117 37l21 64 56-13c3-27 25-48 54-48 30 0 54 24 54 54 0 31-24 55-54 55-21 0-38-12-48-29l-69 16c-8 1-16-3-19-11l-27-87c-50-1-95-16-128-37l-3 5c-13 15-31 24-50 24-35 0-64-29-64-64 0-27 18-51 43-61l11-4 0 3c0 0 0-2 0-2 0-75 90-136 202-136 110 0 200 61 202 136l11 3c27 8 45 34 45 61-2 34-31 63-66 63z m-40 86c11 0 19-10 19-19 0-11-9-21-19-21-11 0-19 10-19 21 0 9 8 19 19 19z m-355-178c-11 5-18 16-18 28 0 17 13 30 29 30 8 0 16-3 22-10l4-4c-15-13-24-29-31-45z m201-139c-92 0-168 47-168 104 0 58 76 104 168 104 93 0 168-46 168-104 0-57-75-104-168-104z m204 139l-8-3c-7 16-16 32-29 45l5 6c6 7 14 10 22 10 16 0 30-13 30-30-1-12-9-23-20-28z m-237-4c0 16-13 30-31 30-17 0-30-14-30-30 0-16 14-31 30-31 16 0 31 15 31 31z m101 30c-16 0-31-14-31-30 0-16 15-31 31-31 16 0 30 13 30 31-2 17-14 30-30 30z m-2-93c-5 0-8-1-11-5-10-9-27-14-53-14-26 0-42 5-53 14-6 7-17 7-22 0-3-3-5-6-5-11 0-5 2-8 5-11 16-16 40-24 75-24 34 0 59 8 75 24 3 3 5 6 5 11 0 5-2 8-5 11-3 4-6 5-11 5z"/>
<glyph glyph-name="pinterest" unicode="&#98;" d="M256 450c-107 0-194-87-194-194 0-78 48-147 116-178 0 13 0 31 3 45 3 16 25 106 25 106 0 0-6 13-6 30 0 29 16 50 37 50 17 0 25-13 25-29 0-18-11-45-17-69-5-21 9-37 30-37 37 0 61 47 61 103 0 41-29 73-80 73-59 0-94-43-94-92 0-18 4-29 12-39 4-5 5-6 4-11-2-3-4-13-4-16-1-5-4-6-9-5-27 11-40 40-40 74 0 54 46 120 137 120 74 0 122-53 122-111 0-75-42-132-104-132-21 0-40 11-46 24 0 0-12-45-15-53-5-15-13-31-19-42 18-5 35-8 54-8 108 0 194 87 194 194 2 110-85 197-192 197z"/>
<glyph glyph-name="periscope" unicode="&#99;" d="M258 464c-93 0-167-77-167-171 0-98 130-245 167-245 32 0 161 147 161 245 2 94-72 171-161 171z m1-261c-57 0-102 45-102 96 0 24 8 47 21 63 0-21 17-39 40-39 22 0 38 18 38 39 0 16-10 28-24 35 8 1 18 3 26 3 52 0 97-45 97-102 0-50-45-95-96-95z"/>
<glyph glyph-name="medium" unicode="&#101;" d="M493 389l-19 0c-7 0-16-10-16-16l0-232c0-7 9-15 16-15l19 0 0-54-170 0 0 54 35 0 0 242-1 0-83-299-64 0-82 299-2 0 0-245 36 0 0-54-143 0 0 54 18 0c8 0 17 8 17 15l0 233c0 7-9 16-17 16l-18 0 0 56 178 0 57-217 2 0 59 217 178 0z"/>
<glyph glyph-name="linkedin" unicode="&#102;" d="M115 443c-25 0-46-21-46-46 0-26 21-47 46-47 26 2 45 23 45 47 0 25-19 46-45 46z m-40-374l79 0 0 249-79 0z m282 257c0 0-63 5-77-41l0 33-78 0 0-249 78 0 0 133c0 4 2 54 48 54 43 0 40-58 40-58l0-128 77 0 0 144c-2-1 8 112-88 112z"/>
<glyph glyph-name="instagram" unicode="&#103;" d="M400 285l-32 0c2-10 3-19 3-29 0-64-51-115-115-115-64 0-115 51-115 115 0 10 1 19 3 29l-32 0 0-159c0-8 6-14 14-14l260 0c8 0 14 6 14 14z m0 101c0 8-6 14-14 14l-44 0c-8 0-14-6-14-14l0-44c0-8 6-14 14-14l44 0c8 0 14 6 14 14z m-144-58c-40 0-72-32-72-72 0-40 32-72 72-72 40 0 72 32 72 72 0 40-32 72-72 72m144-259l-288 0c-24 0-43 19-43 43l0 288c0 24 19 43 43 43l288 0c24 0 43-19 43-43l0-288c0-24-19-43-43-43"/>
<glyph glyph-name="google-plus" unicode="&#104;" d="M168 280l0-58 96 0c-5-24-29-72-96-72-58 0-102 48-102 106 0 58 44 106 102 106 34 0 54-15 67-26l45 43c-29 29-67 45-112 45-94 0-168-75-168-168 0-93 74-168 168-168 96 0 160 67 160 163 0 11 0 19-2 29z m344 0l-48 0 0 48-48 0 0-48-48 0 0-48 48 0 0-48 48 0 0 48 48 0"/>
<glyph glyph-name="flickr" unicode="&#105;" d="M510 256c0-66-52-118-118-118-66 0-118 52-118 118 0 66 52 118 118 118 66 0 118-52 118-118z m-270 0c0-66-53-118-118-118-66 0-120 52-120 118 0 66 52 118 118 118 66 0 120-52 120-118z"/>
<glyph glyph-name="facebook" unicode="&#106;" d="M288 48l0 190 64 0 10 74-74 0 0 48c0 21 6 37 37 37l40 0 0 64c-8 1-31 3-58 3-56 0-96-35-96-98l0-54-64 0 0-74 64 0 0-190z"/>
<glyph glyph-name="email" unicode="&#107;" d="M166 277l-152 120 0-275z m330 147l-480 0 240-184z m-173-162l-67-51-67 51-175-174 482 0z m21 13l154-153 0 273z"/>
<glyph glyph-name="ello" unicode="&#108;" d="M256 454c-109 0-198-89-198-198 0-109 89-198 198-198 109 0 198 89 198 198 0 109-89 198-198 198z m-3-321c-82 0-114 67-119 102-1 8 5 16 13 18 8 1 16-5 18-13 0-3 13-75 88-75 75 0 91 73 93 77 1 8 9 14 17 12 8-1 15-9 13-17-6-39-42-104-123-104z"/>
<glyph glyph-name="blogger" unicode="&#109;" d="M442 288l-4 6-4 5c-7 5-42 0-52 8-6 7-8 18-9 32-5 29-7 31-11 40-16 35-61 61-92 64l-83 0c-65 0-118-53-118-118l0-138c0-65 53-118 118-118l136 0c66 0 119 53 119 118z m-253 59l65 0c13 0 23-9 23-22 0-13-10-23-23-23l-65 0c-13 0-23 10-23 23 0 11 10 22 23 22z m134-181l-133 0c-12 0-22 10-22 23 0 13 10 22 22 22l133 0c13 0 23-9 23-22 0-13-12-23-23-23z"/>
<glyph glyph-name="rss" unicode="&#110;" d="M166 114c0-29-24-53-52-53-29 0-53 24-53 53 0 28 24 52 53 52 30 0 52-22 52-52z m-104 204l0-78c98-2 178-80 178-178l78 0c-1 141-115 255-256 256z m0 55c84 0 160-32 220-91 59-60 91-136 91-220l78 0c0 215-174 388-387 389l0-78z"/>
<glyph glyph-name="share" unicode="&#111;" d="M382 170c-16 0-30-7-41-16l-149 86c2 5 2 10 2 14 0 5 0 10-2 15l147 86c11-11 26-17 43-17 36 0 63 28 63 62 0 34-29 64-63 64-33 0-62-29-62-62 0-5 0-10 2-15l-148-86c-11 11-25 17-43 17-35 0-62-28-62-62 0-34 27-64 61-64 16 0 32 6 43 18l149-87c-2-5-2-9-2-14 0-34 27-61 61-61 33 0 61 27 61 61 0 33-26 61-60 61z"/>
<glyph glyph-name="social-warfare" unicode="&#112;" d="M138 354c3 12 28 67 88 100-96-14-170-97-170-196 0-26 5-52 14-74 4 3 8 5 13 5l74 14c13 3 17-3 14-16-8-29 8-46 37-46 29 0 58 17 59 33 7 53-179 42-129 180z m297-8c-5-5-9-10-17-12l-76-14c-12-3-17 3-14 14 5 24-10 40-38 40-24 0-44-14-45-27-8-46 182-46 134-184-5-13-37-73-109-105 104 6 188 92 188 198-2 32-10 62-23 90z"/>
<glyph glyph-name="stumble-upon" unicode="&#113;" d="M282 302l33-16 50 15 0 35c-2 59-50 106-109 106-59 0-107-47-109-106l0-158c0-15-11-26-25-26-15 0-26 11-26 26l0 67-85 0c0 0 0-67 0-69 0-61 50-110 111-110 60 0 108 48 108 108l0 157c0 15 12 26 26 26 14 0 26-11 26-26z m136-56l0-70c0-14-12-26-26-26-14 0-26 12-26 26l0 69-49-15-34 16 0-68c0-61 50-109 111-109 60 0 110 49 110 110 0 0 0 69 0 69l-86 0z"/>
<glyph glyph-name="tumblr" unicode="&#114;" d="M355 133c-65-29-73 24-73 24l0 131 78 0 0 70-78 0 0 106-64 0c0 0-8-94-82-115l0-61 46 0 0-136c0-67 56-104 116-104 59 0 78 26 78 26z"/>
<glyph glyph-name="twitter" unicode="&#115;" d="M491 402c-17-8-35-13-56-15 19 11 35 31 43 53-19-11-40-19-60-24-18 19-44 30-71 30-62 0-109-57-94-118-80 5-152 43-199 101-25-43-12-101 31-130-16 0-31 5-43 13-2-45 30-86 76-96-12-3-28-5-43-2 13-38 48-65 90-67-40-32-91-46-143-40 44-27 93-43 148-43 179 0 280 152 273 286 19 15 35 32 48 52z"/>
<glyph glyph-name="vimeo" unicode="&#116;" d="M11 354l19-26c0 0 42 32 55 16 14-16 65-211 83-248 16-32 58-74 104-43 46 30 198 160 227 315 27 154-184 122-206-13 56 34 86-14 57-67-28-53-54-88-68-88-15 0-24 35-40 98-16 64-16 180-84 168-64-13-147-112-147-112z"/>
<glyph glyph-name="vine" unicode="&#117;" d="M438 258c-11-4-20-4-30-4-53 0-93 37-93 101 0 32 13 48 29 48 16 0 27-14 27-45 0-17-5-35-8-46 0 0 16-29 61-19 10 21 14 48 14 72 0 64-32 101-92 101-61 0-98-48-98-109 0-63 29-115 77-139-21-40-45-76-72-103-48 58-91 136-109 288l-70 0c33-253 131-333 156-349 15-8 28-8 40-1 21 11 85 75 119 149 14 0 32 1 49 6z"/>
<glyph glyph-name="warfare-plugins" unicode="&#118;" d="M424 365l-32-163c-2-7 3-7 6 0l52 104c-4 20-13 41-26 59z m-155 86l-55-249c-1-7 4-7 7 0l120 233c-23 10-47 16-74 18 2 0 2 0 2-2z m38-240l-85-147c0 0-1-2-1-2 13-1 25-3 38-3 13 0 24 2 37 3 0 0 0 2 0 2l19 147c0 5-5 5-8 0z m-246 45c0-50 17-94 48-130l48 300c-58-34-96-98-96-170z"/>
<glyph glyph-name="youtube" unicode="&#119;" d="M365 437l-218 0c-123 0-142-7-142-127l0-108c0-120 19-127 142-127l216 0c123 0 143 7 143 127l0 108c1 120-18 127-141 127z m-160-271l0 188 142-95z"/>
<glyph glyph-name="yummly" unicode="&#120;" d="M91 430c2 7 8 12 13 15 19 13 42 21 64 19 19-2 34-11 37-34 3-14 0-28-3-43-8-30-16-61-24-91-2-6-2-11-2-18 0-8 5-12 13-12 9-2 17 0 25 3 15 3 28 9 40 16 2 1 4 3 4 5 3 19 6 36 9 56 3 19 7 36 10 56 1 12 5 24 6 36 0 4 0 8-1 13-2 5 0 7 3 8 9 5 21 7 32 3 9-1 14-8 14-17 0-10-1-19-3-31-3-20-6-40-11-60-3-21-8-44-11-64-4-21-8-44-12-64-1-8-3-18-4-26 0-2 0-3 1-3 35-5 71-15 103-29 4-3 11-3 17-5 5-1 7-3 7-6 0-8-2-15-7-23-8-11-21-16-35-11-10 3-18 8-26 13-19 11-38 18-60 21-2 0-5 0-7 0-1 0-3 0-3-3-3-20-10-37-18-53-6-13-16-26-27-35-11-10-24-15-38-16-3 0-7-2-10-2-3 0-6 0-9 0-2 0-4 0-4 0-14 2-28 8-38 19-11 15-13 31-10 47 5 27 21 48 45 62 21 11 43 18 66 21 1 0 3 0 3 3 2 5 2 10 3 14 2 7 2 12 3 18-3-2-4-3-6-3-26-15-53-21-83-18-15 2-26 8-32 21-7 13-8 26-5 38 6 28 14 56 22 84 8 16 12 30 15 44 1 12-2 20-16 15-10-2-18-8-24-15-2-3-5-3-8 0-7 5-10 10-13 16-2 4-3 7-5 12 0 1 0 3 0 4z m144-273c-17-3-32-8-45-21-6-6-9-14-9-24 0-10 8-16 17-13 8 2 15 7 20 13 6 10 9 19 12 30 4 4 4 10 5 15z"/>
<glyph glyph-name="whatsapp" unicode="&#121;" d="M400 402c-38 38-90 59-144 59-112 0-203-91-203-203 0-36 9-71 27-101l-29-106 109 29c29-16 62-24 98-24 112 0 203 91 203 203-2 53-23 104-61 143z m-142-312c-31 0-60 8-87 24l-6 3-64-16 17 62-4 7c-18 27-26 57-26 89 0 93 75 168 168 168 45 0 88-17 118-49 32-32 50-74 50-119 2-94-74-169-166-169z m91 126c-5 3-31 14-35 16-5 2-8 3-12-3-3-5-12-16-16-19-3-4-6-4-11-2-5 3-21 8-40 26-14 12-25 30-29 35-3 5 0 8 2 9 2 2 5 7 8 10 3 3 3 5 5 8 1 3 1 6 0 10-2 3-11 27-16 36-3 8-8 8-11 8-4 0-7 0-10 0-3 0-10-1-13-6-5-5-17-18-17-42 0-25 17-49 20-52 4-4 36-56 87-77 43-18 51-13 61-13 9 2 30 13 33 24 5 11 5 22 3 24 0 3-4 5-9 8z"/>
<glyph glyph-name="buffer" unicode="&#122;" d="M72 357l170-80c9-5 20-5 28 0l170 80c3 1 3 6 0 8l-168 80c-10 5-22 5-32 0l-170-80c-1-3-1-7 2-8z m368-98l-35 16c-7 3-15 3-23 0l-112-53c-9-4-20-4-28 0l-112 53c-7 3-15 3-21 0l-37-17c-3-2-3-7 0-8l170-80c9-5 20-5 28 0l170 80c3 3 3 8 0 9z m0-102l-35 16c-7 3-15 3-23 0l-112-53c-9-5-20-5-28 0l-112 53c-7 3-15 3-21 0l-37-18c-3-1-3-6 0-8l170-80c9-5 20-5 28 0l170 80c3 2 3 8 0 10z"/>
<glyph glyph-name="print" unicode="&#65;" d="M378 326l0 106-244 0 0-106-44 0 0-180 40 0 0-66 252 0 0 66 40 0 0 180z m-26-216l-192 0 0 36 192 0z m5 133l-202 0 0 168 202 0z m25-77c-3 0-4 0-8 2-1 0-3 2-3 2-1 0-1 1-3 1-2 2-2 2-3 3 0 0 0 2-2 2-1 2-1 3-3 5 0 1-2 5-2 6 0 13 10 23 23 23 13 0 22-10 22-23 0-13-8-21-21-21z m-44 204l-164 0 0-21 164 0z m0-37l-164 0 0-21 164 0z m0-39l-164 0 0-20 164 0z"/>
<glyph glyph-name="meerkat" unicode="&#100;" d="M205 384c-11 10-24 13-39 8-9-2-17-8-24-14-9-10-14-21-14-34 0-3 0-5 0-8 2-5 3-10 5-14 3-8 8-13 14-18 3-3 7-5 10-6 1-2 5-2 6 0 3 1 3 6 0 8-3 1-6 4-8 8-3 3-5 6-8 11-1 3-3 9-3 16 0 3 0 5 2 8 0 3 1 8 4 11 5 5 10 11 16 14 4 2 7 4 10 4 5 1 11 0 16-4 8-3 14-8 19-16 2-3 3-4 7-8 0 0 0-1 0-1 0-2 1-3 3-5 1-2 3 0 5 2 1 1 1 3 1 4 0 4-1 7-1 10-7 10-13 18-21 24z m219-26c-8 5-16 8-24 10-6 2-14 3-19 6-5 4-10 7-15 10-8 6-16 14-24 22-11 12-24 23-36 34-15 13-32 19-52 22-16 2-30 0-46-3-21-5-40-11-58-19-16-5-28-11-41-21-23-17-35-41-35-70 0-11 1-24 4-35 4-18 8-36 10-55 3-22 3-43 3-65 0-21 0-40-1-61 0-18-2-37-4-55 0-11-1-20-3-32l226 0c-2 4-3 7-5 10-10 19-19 40-29 59-6 13-11 27-13 42-1 11-1 22-1 32 0 14 1 29 5 43 1 6 4 10 9 10 5 0 10 1 15 1 11 2 22 2 33 2 24 1 48 9 69 24 6 5 13 9 19 14 5 3 10 8 13 13 6 11 10 22 10 35 4 13 0 23-10 27z m-24-52c-10-7-19-13-30-18-2 0-2 0-4 0-16 5-30 11-44 21-2 0-4 1-5 1-2 0-3-1-3-3 0-1 0-5 1-5 3-3 8-4 11-8 8-3 16-8 24-11 0 0 2 0 2 0-6-1-13-3-19-5-10-1-21-1-31-3-11-1-22-1-32-5-12-3-20-11-24-24-3-11-4-22-6-35 0-16 0-33 2-49 1-18 6-34 12-52 7-14 13-28 21-43l-163 0c0 2 0 2 0 3 2 26 3 53 5 79 0 13 0 25 1 37 0 19 0 38-1 56-2 16-3 32-7 48-1 12-4 24-6 36-3 10-5 20-5 29 0 18 8 32 21 43 10 8 22 15 34 20 16 8 33 14 51 19 11 3 21 5 32 5 19 0 37-7 53-20 14-11 27-24 41-38 11-11 23-21 35-29 5-3 12-6 18-8 0 0 2-1 2-1 4-13 11-26 17-37 0-2-1-2-3-3z m-94 80c-12 0-21-10-21-21 0-2 0-5 0-8-3 0-7 1-10 1-1 0-5 0-5-1 0-2 0-5 2-5 2-2 5-2 6-3 8-3 18-5 26-5 11 0 21 10 21 21 1 11-8 21-19 21z"/>
<glyph glyph-name="pocket" unicode="&#66;" d="M462 418c-4 14-19 25-35 25l-342 0c-16 0-31-9-35-24-2-5-4-9-4-14l0-127 2-25c6-58 35-107 82-141 1 0 1-2 3-2 24-17 53-30 81-36 15-4 28-5 42-5 13 0 26 1 38 3 2 0 4 0 5 2 0 0 2 0 2 0 29 6 54 17 78 35 2 0 2 1 3 1 47 36 76 85 82 141l2 26 0 128c0 5-2 8-4 13z m-88-132l-97-94c-5-5-13-8-19-8-7 0-15 3-20 8l-97 94c-11 12-11 29-2 40 11 12 29 12 40 2l79-75 78 75c11 11 29 11 40-2 10-11 10-28-2-40z"/>
<glyph glyph-name="flipboard" unicode="&#67;" d="M69 443l0-374 125 0 0 125 124 0 0 124 125 0 0 125z"/>
<glyph glyph-name="hacker-news" unicode="&#68;" d="M96 464l61 0 78-160c11-24 21-46 21-46 0 0 10 22 22 46l80 160 58 0-136-254 0-162-51 0 0 165z"/>
<glyph glyph-name="upgrade" unicode="&#69;" d="M376 298l0 40c0 62-46 118-109 123-64 5-118-40-128-99 5 0 45 0 48 0 10 35 47 60 87 49 32-8 52-38 52-72l0-40c0-1 0-1 0-1l-190 0c-26-2-45-23-45-48l0-152c0-28 23-48 48-48l231 0c27 0 48 22 48 48l0 152c1 25-18 46-42 48z m-35-159c-7-6-18-6-26 0l-59 59-61-60c-3-4-8-5-13-5-4 0-9 1-12 5-7 6-7 17 0 25l73 74c7 6 18 6 26 0l72-72c8-8 8-19 0-26z"/>
<glyph glyph-name="pin" unicode="&#70;" d="M366 222c-1 39-20 71-49 90l0 112c24 18 37 40 37 40l-196 0c0 0 13-24 39-42l0-110c-31-19-50-53-50-90l90 0 0-112c0-11 9-62 21-62 11 0 20 51 20 62l0 112z"/>
</font>
</defs>
</svg>
