<?xml version="1.0" standalone="no"?>
<!DOCTYPE svg PUBLIC "-//W3C//DTD SVG 1.1//EN" "http://www.w3.org/Graphics/SVG/1.1/DTD/svg11.dtd" >
<svg>
<metadata>
Created by FontForge 20090622 at Mon Oct 23 05:38:50 2017
 By deploy user
Copyright &#194;&#169; 2011 Rod McDonald. Published by Canada Type. All rights reserved.
</metadata>
<defs>
<font id="Gibson-SemiBold" horiz-adv-x="626" >
  <font-face 
    font-family="Gibson Light"
    font-weight="600"
    font-stretch="normal"
    units-per-em="1000"
    panose-1="2 0 0 0 0 0 0 0 0 0"
    ascent="800"
    descent="-200"
    x-height="492"
    cap-height="690"
    bbox="-118 -207 1420 943"
    underline-thickness="50"
    underline-position="-50"
    unicode-range="U+0020-U+FB04"
  />
<missing-glyph horiz-adv-x="200" 
 />
    <glyph glyph-name="ff" unicode="ff" horiz-adv-x="648" 
d="M685 690l-8 -111q-31 9 -59 9q-59 0 -59 -64v-32h106v-121h-106v-371h-161v371h-163v-371h-161v371h-63v121h63v27q0 92 40 133q48 51 138 51q28 0 55 -3.5t41 -6.5l13 -3l-8 -111q-31 9 -59 9q-59 0 -59 -64v-32h163v27q0 92 40 133q48 51 138 51q28 0 55 -3.5t41 -6.5z
" />
    <glyph glyph-name="fi" unicode="fi" horiz-adv-x="607" 
d="M563 633q0 -37 -25 -60t-66 -23t-66 23t-25 60t25.5 60t65.5 23t65.5 -23t25.5 -60zM552 493v-493h-160v493h160zM359 690l-8 -111q-29 9 -57 9q-36 0 -47.5 -20.5t-11.5 -55.5v-20h106v-121h-106v-371h-161v371h-63v121h63v27q0 93 40 133q49 51 140 51q24 0 50.5 -3.5
t40.5 -6.5z" />
    <glyph glyph-name="fl" unicode="fl" horiz-adv-x="612" 
d="M555 690v-690h-160v690h160zM359 690l-8 -111q-27 9 -57 9q-59 0 -59 -64v-32h106v-121h-106v-371h-161v371h-63v121h63v29q0 86 39 129q48 53 141 53q26 0 52.5 -3.5t39.5 -6.5z" />
    <glyph glyph-name="ffi" unicode="ffi" horiz-adv-x="918" 
d="M685 690l-8 -111q-31 9 -59 9q-59 0 -59 -64v-32h106v-121h-106v-371h-161v371h-163v-371h-161v371h-63v121h63v27q0 92 40 133q48 51 138 51q28 0 55 -3.5t41 -6.5l13 -3l-8 -111q-31 9 -59 9q-59 0 -59 -64v-32h163v27q0 92 40 133q48 51 138 51q28 0 55 -3.5t41 -6.5z
M863 493v-493h-160v493h160zM874 633q0 -37 -25 -60t-66 -23t-66 23t-25 60t25.5 60t65.5 23t65.5 -23t25.5 -60z" />
    <glyph glyph-name="ffl" unicode="ffl" horiz-adv-x="921" 
d="M685 690l-8 -111q-31 9 -59 9q-59 0 -59 -64v-32h106v-121h-106v-371h-161v371h-163v-371h-161v371h-63v121h63v27q0 92 40 133q48 51 138 51q28 0 55 -3.5t41 -6.5l13 -3l-8 -111q-31 9 -59 9q-59 0 -59 -64v-32h163v27q0 92 40 133q48 51 138 51q28 0 55 -3.5t41 -6.5z
M865 690v-690h-160v690h160z" />
    <glyph glyph-name="f_j" unicode="fj" horiz-adv-x="594" 
d="M361 690l-8 -111q-31 9 -59 9q-59 0 -59 -64v-32h106v-121h-106v-371h-161v371h-63v121h63v27q0 92 40 133q48 51 138 51q28 0 55 -3.5t41 -6.5zM550 633q0 -37 -25 -60t-66 -23t-66 23t-25 60t25.5 60t65.5 23t65.5 -23t25.5 -60zM539 493v-481q0 -103 -41 -148
q-50 -55 -137 -55q-24 0 -45 2.5t-30 4.5l-9 2l3 124q20 -6 45 -6q31 0 42.5 20.5t11.5 63.5v473h160z" />
    <glyph glyph-name="f_t" unicode="ft" horiz-adv-x="682" 
d="M671 492v-121h-109v-177q0 -45 14 -61q10 -12 38 -12q11 0 23 2.5t19 4.5l6 2l8 -125q-64 -16 -114 -16q-80 0 -120 46q-35 41 -35 145v191h-166v-371h-161v371h-63v121h63v27q0 92 40 133q48 51 138 51q28 0 55 -3.5t41 -6.5l13 -3l-8 -111q-31 9 -59 9q-59 0 -59 -64
v-32h166v134h161v-134h109z" />
    <glyph glyph-name=".notdef" horiz-adv-x="200" 
 />
    <glyph glyph-name=".null" horiz-adv-x="0" 
 />
    <glyph glyph-name="nonmarkingreturn" horiz-adv-x="333" 
 />
    <glyph glyph-name="space" unicode=" " horiz-adv-x="197" 
 />
    <glyph glyph-name="exclam" unicode="!" horiz-adv-x="326" 
d="M79 690h168l-15 -478h-139zM257 75q0 -40 -26 -63t-68 -23q-43 0 -69 23t-26 63t26 63t69 23q42 0 68 -23t26 -63z" />
    <glyph glyph-name="quotedbl" unicode="&#x22;" horiz-adv-x="516" 
d="M292 690h148l-18 -249h-113zM76 690h148l-18 -249h-113z" />
    <glyph glyph-name="numbersign" unicode="#" horiz-adv-x="654" 
d="M612 523v-85h-120l-24 -141h110v-85h-125l-36 -206h-92l36 206h-124l-36 -206h-92l36 206h-104v85h119l24 141h-108v85h123l36 207h92l-36 -207h124l37 207h91l-36 -207h105zM376 297l24 141h-124l-24 -141h124z" />
    <glyph glyph-name="dollar" unicode="$" 
d="M556 205q0 -93 -77 -154q-25 -20 -62.5 -34t-67.5 -16l-2 -55h-72l2 53q-58 2 -114.5 29t-92.5 73l74 100q21 -33 65.5 -57t78.5 -25l3 167l-34 14q-62 26 -90 49q-70 54 -70 143q0 88 66 145q49 44 140 52l2 54h72l-1 -56q47 -4 93 -25t75 -56l-62 -99q-52 58 -117 67
l-4 -160l63 -27q132 -59 132 -182zM299 436l3 139q-29 -2 -47 -20t-18 -47q0 -43 51 -67zM418 186q0 48 -48 72l-16 8l-3 -149q25 2 46 21.5t21 47.5z" />
    <glyph glyph-name="percent" unicode="%" horiz-adv-x="864" 
d="M823 166q0 -80 -50 -129.5t-129 -49.5t-129 49.5t-50 129.5t50 129.5t129 49.5t129 -49.5t50 -129.5zM613 708l68 -41l-429 -691l-69 41zM399 518q0 -81 -50 -130.5t-129 -49.5t-129 50t-50 130t50 129.5t129 49.5t129 -49.5t50 -129.5zM719 168q0 39 -19.5 62.5
t-55.5 23.5q-35 0 -54.5 -23.5t-19.5 -62.5t19.5 -63t54.5 -24q36 0 55.5 24t19.5 63zM296 519q0 39 -20 63t-56 24q-35 0 -54 -24t-19 -63t19 -63t54 -24q36 0 56 24t20 63z" />
    <glyph glyph-name="ampersand" unicode="&#x26;" horiz-adv-x="753" 
d="M749 8v-8h-184l-68 74q-55 -45 -105.5 -65.5t-115.5 -20.5q-103 0 -172.5 52.5t-69.5 150.5q0 127 166 198q-22 24 -34.5 41t-24.5 47t-12 61q0 79 61.5 122t150.5 43q87 0 145.5 -42t58.5 -119q0 -56 -37 -101.5t-93 -75.5l91 -103q17 17 46 58.5t42 66.5l113 -62
q-64 -103 -115 -154zM409 537q0 28 -17.5 43.5t-47.5 15.5t-48.5 -16.5t-18.5 -44.5q0 -26 33 -65l23 -25q22 14 34.5 23.5t27 29t14.5 39.5zM411 165l-128 141l-20 -11q-73 -41 -73 -99q0 -39 28.5 -64t68.5 -25q72 0 124 58z" />
    <glyph glyph-name="quotesingle" unicode="'" horiz-adv-x="350" 
d="M101 690h148l-18 -249h-113z" />
    <glyph glyph-name="parenleft" unicode="(" horiz-adv-x="334" 
d="M306 -123l-100 -51q-70 103 -114.5 217.5t-44.5 262.5t44.5 262.5t114.5 216.5l100 -51q-45 -68 -84 -187.5t-39 -240.5q0 -122 39 -241.5t84 -187.5z" />
    <glyph glyph-name="parenright" unicode=")" horiz-adv-x="334" 
d="M287 306q0 -148 -44 -262t-114 -218l-101 51q45 68 84 187.5t39 241.5q0 121 -39 240.5t-84 187.5l101 51q69 -103 113.5 -217t44.5 -262z" />
    <glyph glyph-name="asterisk" unicode="*" horiz-adv-x="525" 
d="M433 634l29 -83l-147 -39l99 -127l-71 -50l-81 135l-80 -135l-71 50l99 127l-147 39l29 83l136 -56l-11 139h91l-11 -139z" />
    <glyph glyph-name="plus" unicode="+" horiz-adv-x="701" 
d="M625 403v-116h-216v-215h-117v215h-216v116h216v215h117v-215h216z" />
    <glyph glyph-name="comma" unicode="," horiz-adv-x="326" 
d="M118 146h154l-108 -286h-131z" />
    <glyph glyph-name="hyphen" unicode="-" horiz-adv-x="339" 
d="M309 331v-125h-279v125h279z" />
    <glyph glyph-name="period" unicode="." horiz-adv-x="326" 
d="M257 75q0 -40 -26 -63t-68 -23q-43 0 -69 23t-26 63t26 63t69 23q42 0 68 -23t26 -63z" />
    <glyph glyph-name="slash" unicode="/" horiz-adv-x="542" 
d="M431 796l94 -42l-413 -852l-93 43z" />
    <glyph glyph-name="zero" unicode="0" 
d="M599 344q0 -96 -28.5 -174t-95 -130t-162.5 -52q-73 0 -129.5 29.5t-90 80.5t-50 113t-16.5 133q0 96 28.5 174t95 130t162.5 52t162.5 -52t95 -130t28.5 -174zM440 347q0 99 -31.5 158.5t-95.5 59.5t-95.5 -59.5t-31.5 -158.5t31.5 -159.5t95.5 -60.5t95.5 60.5
t31.5 159.5z" />
    <glyph glyph-name="one" unicode="1" horiz-adv-x="468" 
d="M346 690v-690h-156v579h-125v111h281z" />
    <glyph glyph-name="two" unicode="2" 
d="M584 125v-125h-506l-19 102l234 211q54 49 79 85.5t25 77.5q0 44 -30 70.5t-81 26.5q-93 0 -167 -93l-68 106q7 15 33 39t86 49.5t131 25.5q116 0 183.5 -56t67.5 -148q0 -40 -11.5 -75.5t-36.5 -67.5t-41 -47.5l-46 -42.5q-7 -6 -10 -9l-143 -129h320z" />
    <glyph glyph-name="three" unicode="3" 
d="M570 202q0 -99 -78.5 -156t-190.5 -57q-94 0 -159.5 38t-92.5 77l74 96q25 -30 74 -58t95 -28q53 0 87 26t34 71q0 44 -31 68.5t-79 24.5h-61v113h61q42 0 67 21t25 60t-28.5 60t-71.5 21q-82 0 -165 -67l-60 102q45 40 99 63t139 23q99 0 169.5 -50t70.5 -134
q0 -110 -99 -151v-3q49 -13 85 -55t36 -105z" />
    <glyph glyph-name="four" unicode="4" 
d="M606 263v-125h-92v-138h-156v138h-336v118l313 436h179v-429h92zM169 260h193v267z" />
    <glyph glyph-name="five" unicode="5" 
d="M575 231q0 -114 -82.5 -178t-193.5 -64q-94 0 -159.5 34t-94.5 79l74 95q27 -38 75 -60.5t94 -22.5q51 0 90.5 30t39.5 87t-39 86.5t-91 29.5q-75 0 -126 -36l-70 42l53 337h404v-124h-287l-20 -124q35 15 92 15q41 0 82 -13.5t77.5 -39t59 -71t22.5 -102.5z" />
    <glyph glyph-name="six" unicode="6" 
d="M588 235q0 -105 -70 -175.5t-188 -70.5q-142 0 -222 115q-59 83 -59 232q0 184 92 279q80 85 211 85q118 0 214 -67l-59 -106q-27 21 -67.5 36t-80.5 15q-59 0 -102 -41q-55 -55 -55 -162q64 71 174 71q86 0 149 -57t63 -154zM435 224q0 47 -30 80.5t-80 33.5
q-51 0 -81.5 -33.5t-30.5 -80.5q0 -48 30.5 -81t81.5 -33t80.5 33t29.5 81z" />
    <glyph glyph-name="seven" unicode="7" 
d="M552 690l44 -96l-307 -594h-170l303 566h-362v124h492z" />
    <glyph glyph-name="eight" unicode="8" 
d="M577 195q0 -99 -75 -152.5t-189 -53.5t-189 53.5t-75 152.5q0 62 33 104.5t91 60.5v2q-105 38 -105 148q0 90 70.5 140t174.5 50t174 -50t70 -140q0 -113 -104 -148v-3q58 -18 91 -60t33 -104zM404 498q0 40 -25 62t-66 22t-66 -22t-25 -62q0 -39 25 -61t66 -22t66 22
t25 61zM420 210q0 45 -30.5 71.5t-76.5 26.5q-47 0 -77 -26.5t-30 -71.5t30.5 -71.5t76.5 -26.5t76.5 26.5t30.5 71.5z" />
    <glyph glyph-name="nine" unicode="9" 
d="M577 352q0 -181 -93 -279q-79 -84 -210 -84q-129 0 -215 68l58 105q15 -15 59 -32.5t92 -17.5q62 0 102 42q53 55 53 165q-16 -29 -59 -53t-114 -24q-86 0 -149.5 57t-63.5 155q0 105 70 175.5t188 70.5q141 0 222 -115q60 -85 60 -233zM412 468q0 48 -30 81t-81 33
t-80.5 -33t-29.5 -81q0 -47 30 -80.5t80 -33.5q51 0 81 33.5t30 80.5z" />
    <glyph glyph-name="colon" unicode=":" horiz-adv-x="326" 
d="M257 416q0 -40 -26 -62.5t-68 -22.5q-43 0 -69 22.5t-26 62.5t26 63t69 23q42 0 68 -23t26 -63zM257 75q0 -40 -26 -63t-68 -23q-43 0 -69 23t-26 63t26 63t69 23q42 0 68 -23t26 -63z" />
    <glyph glyph-name="semicolon" unicode=";" horiz-adv-x="326" 
d="M257 416q0 -40 -26 -62.5t-68 -22.5q-43 0 -69 22.5t-26 62.5t26 63t69 23q42 0 68 -23t26 -63zM118 146h154l-108 -286h-131z" />
    <glyph glyph-name="less" unicode="&#x3c;" horiz-adv-x="701" 
d="M625 201v-129l-549 207v132l549 206v-128l-393 -144z" />
    <glyph glyph-name="equal" unicode="=" horiz-adv-x="701" 
d="M625 514v-117h-549v117h549zM625 293v-117h-549v117h549z" />
    <glyph glyph-name="greater" unicode="&#x3e;" horiz-adv-x="701" 
d="M625 411v-132l-549 -207v129l393 144l-393 144v128z" />
    <glyph glyph-name="question" unicode="?" horiz-adv-x="534" 
d="M478 523q0 -56 -18.5 -89.5t-54.5 -66.5q-17 -15 -50 -38.5t-41 -32.5q-11 -13 -11 -37l-1 -47h-136l-1 65q-1 44 14 71.5t49 51.5l61 44q44 32 44 62q0 31 -25.5 48t-70.5 17q-79 0 -141 -60l-46 112q15 16 36 31t70 30.5t108 15.5q94 0 154 -51.5t60 -125.5zM328 75
q0 -40 -25.5 -63t-68.5 -23t-68.5 23t-25.5 63t25.5 63t68.5 23t68.5 -23t25.5 -63z" />
    <glyph glyph-name="at" unicode="@" horiz-adv-x="800" 
d="M762 271q0 -127 -74 -203q-65 -68 -147 -68q-77 0 -90 60q-60 -60 -119 -60q-52 0 -92.5 38.5t-40.5 120.5q0 96 59 171t150 75q36 0 63.5 -10.5t36.5 -21.5l10 -11l8 26h82l-65 -244q-10 -28 -6 -50t31 -22q42 0 81 54.5t39 138.5q0 107 -73 173t-198 66
q-128 0 -214.5 -85t-86.5 -218q0 -134 79.5 -214.5t210.5 -80.5q26 0 50 2t46.5 7l38 8.5t35 11.5l27 11t25.5 12t19 9l26 -52q-2 -1 -13 -7.5t-17.5 -10t-20.5 -10.5t-25.5 -11.5t-29 -10.5t-35.5 -10t-40 -7.5t-47 -5.5t-52 -2q-152 0 -253.5 100t-101.5 261
q0 159 111.5 264t264.5 105q159 0 256 -90q92 -85 92 -209zM470 179l32 118q-3 4 -9 10.5t-27.5 17t-46.5 10.5q-55 0 -93 -49q-39 -51 -39 -119q0 -44 20 -67.5t54 -23.5q36 0 66 26.5t43 76.5z" />
    <glyph glyph-name="A" unicode="A" horiz-adv-x="680" 
d="M424 691l260 -691h-176l-49 139h-246l-49 -139h-168l260 691h168zM250 265h172l-86 248z" />
    <glyph glyph-name="B" unicode="B" horiz-adv-x="623" 
d="M598 198q0 -98 -76 -153q-62 -45 -177 -45h-282v690h235q114 0 170 -29q88 -46 88 -145q0 -54 -29.5 -96t-71.5 -56v-2q66 -16 104.5 -59t38.5 -105zM397 492q0 44 -34 64q-22 14 -72 14h-67v-159h63q54 0 76 15q34 24 34 66zM434 211q0 44 -35 69q-27 19 -86 19h-89
v-176h89q59 0 86 19q35 23 35 69z" />
    <glyph glyph-name="C" unicode="C" horiz-adv-x="650" 
d="M585 208l54 -126q-91 -94 -249 -94q-156 0 -259 96.5t-103 259.5t103.5 259.5t258.5 96.5q64 0 120 -16.5t80 -32t37 -29.5l-50 -134q-15 20 -67 46t-111 26q-90 0 -148.5 -57t-58.5 -156q0 -98 59.5 -155t147.5 -57q115 0 186 73z" />
    <glyph glyph-name="D" unicode="D" horiz-adv-x="703" 
d="M675 345q0 -168 -112 -263q-97 -82 -266 -82h-234v690h234q169 0 266 -83q112 -93 112 -262zM511 345q0 103 -61 162q-53 49 -144 49h-82v-419h82q92 0 144 50q61 57 61 158z" />
    <glyph glyph-name="E" unicode="E" horiz-adv-x="556" 
d="M519 131v-131h-456v690h447v-129h-286v-141h270v-129h-270v-160h295z" />
    <glyph glyph-name="F" unicode="F" horiz-adv-x="522" 
d="M494 690v-129h-270v-169h254v-129h-254v-263h-161v690h431z" />
    <glyph glyph-name="G" unicode="G" horiz-adv-x="744" 
d="M694 393v-286l-12 -11q-11 -10 -15.5 -13.5l-18.5 -14.5t-23 -16l-26.5 -15t-32 -15.5t-36 -12.5t-42.5 -11t-47 -6.5t-54 -2.5q-97 0 -177.5 40t-131 122.5t-50.5 193.5q0 166 104.5 260.5t256.5 94.5q52 0 98.5 -11t73.5 -23t56 -34.5t35 -29l21 -22.5l-107 -93
q-72 79 -177 79q-86 0 -141.5 -59.5t-55.5 -161.5t56.5 -161.5t143.5 -59.5q50 0 86 11t47 22l11 11v102h-145v123h303z" />
    <glyph glyph-name="H" unicode="H" horiz-adv-x="727" 
d="M664 690v-690h-162v289h-277v-289h-162v690h162v-267h277v267h162z" />
    <glyph glyph-name="I" unicode="I" horiz-adv-x="288" 
d="M225 690v-690h-162v690h162z" />
    <glyph glyph-name="J" unicode="J" horiz-adv-x="287" 
d="M224 690v-676q0 -107 -43 -156q-44 -51 -125 -51q-33 0 -64 5t-39 10l6 119q23 -9 54 -9q28 0 39 20t11 60v678h161z" />
    <glyph glyph-name="K" unicode="K" horiz-adv-x="629" 
d="M386 415l260 -415h-194l-173 288l-55 -61v-227h-161v690h161v-252l213 252h192z" />
    <glyph glyph-name="L" unicode="L" horiz-adv-x="473" 
d="M463 134v-134h-400v690h161v-556h239z" />
    <glyph glyph-name="M" unicode="M" horiz-adv-x="874" 
d="M786 690l51 -690h-159l-27 470h-2l-148 -470h-128l-149 470h-3l-25 -470h-159l52 690h204l144 -454h2l142 454h205z" />
    <glyph glyph-name="N" unicode="N" horiz-adv-x="750" 
d="M687 690v-690h-166l-303 468q3 -83 3 -156v-312h-158v690h173l296 -464q-3 78 -3 151v313h158z" />
    <glyph glyph-name="O" unicode="O" horiz-adv-x="788" 
d="M760 344q0 -163 -104 -259.5t-262 -96.5t-262 96.5t-104 259.5t104 260t262 97t262 -97t104 -260zM596 348q0 97 -57 156t-145 59t-145 -59t-57 -156t57 -156.5t145 -59.5t145 59.5t57 156.5z" />
    <glyph glyph-name="P" unicode="P" horiz-adv-x="578" 
d="M562 473q0 -105 -72 -166q-63 -52 -180 -52h-85v-255h-162v690h247q117 0 180 -52q72 -59 72 -165zM398 473q0 49 -33 73q-27 19 -78 19h-63v-185h63q51 0 78 19q33 24 33 74z" />
    <glyph glyph-name="Q" unicode="Q" horiz-adv-x="788" 
d="M760 344q0 -140 -81 -235l75 -85l-99 -87l-80 91q-82 -40 -181 -40q-158 0 -262 96.5t-104 259.5t104 260t262 97t262 -97t104 -260zM596 348q0 97 -57 156t-145 59t-145 -59t-57 -156t57 -156.5t145 -59.5q42 0 76 14l-41 47l99 88l42 -48q26 49 26 115z" />
    <glyph glyph-name="R" unicode="R" horiz-adv-x="600" 
d="M434 285l175 -285h-188l-145 264h-51v-264h-162v690h248q115 0 182 -49q76 -56 76 -158q0 -61 -24.5 -105.5t-52 -63.5t-58.5 -29zM406 477q0 45 -35 70q-24 18 -83 18h-64v-177h64q58 0 83 19q35 25 35 70z" />
    <glyph glyph-name="S" unicode="S" horiz-adv-x="552" 
d="M529 210q0 -102 -81 -165q-72 -57 -187 -57q-133 0 -245 104l80 118q37 -38 88 -62.5t92 -24.5q40 0 66 19t26 52q0 17 -7.5 30t-22.5 22t-24.5 13.5t-26.5 10.5q-98 36 -105 39q-59 28 -82 50q-54 50 -54 133q0 92 72 151q65 55 182 55q59 0 121 -24.5t98 -60.5
l-69 -113q-31 31 -73.5 50.5t-80.5 19.5q-41 0 -65.5 -16t-24.5 -46q0 -15 6 -26.5t18 -20t21.5 -13t24.5 -10.5l53.5 -20.5l49.5 -18.5q63 -23 96 -56q54 -54 54 -133z" />
    <glyph glyph-name="T" unicode="T" horiz-adv-x="526" 
d="M522 690v-128h-178v-562h-162v562h-178v128h518z" />
    <glyph glyph-name="U" unicode="U" horiz-adv-x="694" 
d="M636 690v-402q0 -146 -66 -217q-76 -82 -223 -82t-224 82q-65 72 -65 217v402h163v-402q0 -82 27 -115q36 -43 99 -43t99 43q27 33 27 115v402h163z" />
    <glyph glyph-name="V" unicode="V" horiz-adv-x="658" 
d="M491 690h171l-256 -690h-154l-256 690h172l162 -475z" />
    <glyph glyph-name="W" unicode="W" horiz-adv-x="982" 
d="M816 690h169l-200 -690h-163l-131 473l-131 -473h-163l-200 690h169l120 -465l124 465h162l125 -465z" />
    <glyph glyph-name="X" unicode="X" horiz-adv-x="650" 
d="M431 358l229 -358h-193l-142 257l-143 -257h-193l229 358l-214 332h192l129 -227l129 227h192z" />
    <glyph glyph-name="Y" unicode="Y" horiz-adv-x="620" 
d="M451 690h180l-240 -411v-279h-162v279l-240 411h180l141 -275z" />
    <glyph glyph-name="Z" unicode="Z" horiz-adv-x="613" 
d="M588 134v-134h-558v117l338 442h-328v131h537v-110l-341 -446h352z" />
    <glyph glyph-name="bracketleft" unicode="[" horiz-adv-x="334" 
d="M288 -74v-77h-232v913h232v-77h-104v-759h104z" />
    <glyph glyph-name="backslash" unicode="\" horiz-adv-x="541" 
d="M111 795l406 -823l-87 -41l-406 823z" />
    <glyph glyph-name="bracketright" unicode="]" horiz-adv-x="334" 
d="M282 762v-913h-232v77h104v759h-104v77h232z" />
    <glyph glyph-name="asciicircum" unicode="^" horiz-adv-x="701" 
d="M416 712l186 -412h-128l-123 284l-124 -284h-128l186 412h131z" />
    <glyph glyph-name="underscore" unicode="_" horiz-adv-x="500" 
d="M500 60v-120h-500v120h500z" />
    <glyph glyph-name="grave" unicode="`" horiz-adv-x="417" 
d="M237 690l80 -145h-114l-102 145h136z" />
    <glyph glyph-name="a" unicode="a" horiz-adv-x="541" 
d="M495 278v-278h-153l-3 52q-17 -17 -29 -27t-43.5 -23t-68.5 -13q-73 0 -126 40t-53 117q0 52 30 86.5t71 48.5t91 16l124 5v11q0 79 -101 79q-42 0 -84.5 -14t-66.5 -30l-42 104q100 50 211 50q122 0 184 -57q59 -56 59 -167zM336 136v81l-79 -5q-78 -3 -78 -60
q0 -28 21 -44.5t54 -16.5q29 0 50.5 14.5t31.5 30.5z" />
    <glyph glyph-name="b" unicode="b" horiz-adv-x="630" 
d="M605 246q0 -111 -64 -184t-169 -73q-109 0 -163 76h-1l1 -65h-152v690h160v-166l-2 -91h3q19 28 58.5 48.5t96.5 20.5q105 0 168.5 -72.5t63.5 -183.5zM442 248q0 57 -31.5 92.5t-83.5 35.5t-84 -35.5t-32 -92.5t32 -92.5t84 -35.5t83.5 35.5t31.5 92.5z" />
    <glyph glyph-name="c" unicode="c" horiz-adv-x="482" 
d="M434 169l38 -121l-3 -2q-3 -3 -6 -5.5t-9 -7t-12.5 -8l-16 -8.5t-20 -8.5t-24 -7.5t-28 -6.5t-32.5 -4t-37 -1.5q-107 0 -183.5 69t-76.5 187t77.5 187.5t184.5 69.5q56 0 102 -13t64 -26l17 -13l-35 -121q-56 44 -127 44q-52 0 -87 -34t-35 -91q0 -58 34 -92.5t90 -34.5
q33 0 64.5 12t46.5 24z" />
    <glyph glyph-name="d" unicode="d" horiz-adv-x="630" 
d="M573 690v-690h-152l1 65l-3 -1q-55 -75 -162 -75q-105 0 -169 73t-64 184t64 183.5t169 72.5q60 0 99.5 -22t56.5 -47v257h160zM418 248q0 57 -31.5 92.5t-83.5 35.5t-84 -35.5t-32 -92.5t32 -92.5t84 -35.5t83.5 35.5t31.5 92.5z" />
    <glyph glyph-name="e" unicode="e" horiz-adv-x="558" 
d="M537 261l-2 -53h-351q5 -51 39.5 -77t86.5 -26q79 0 148 47l63 -83l-9 -8q-10 -8 -18 -13.5t-23 -15t-33 -16t-40 -13.5t-51 -10.5t-60 -3.5q-117 0 -190 68.5t-73 188.5q0 118 76 187t190 69q110 0 178.5 -66.5t68.5 -174.5zM185 299h203q-1 38 -27.5 68.5t-73.5 30.5
q-46 0 -73 -30t-29 -69z" />
    <glyph glyph-name="f" unicode="f" horiz-adv-x="324" 
d="M361 690l-8 -111q-31 9 -59 9q-59 0 -59 -64v-32h106v-121h-106v-371h-161v371h-63v121h63v27q0 92 40 133q48 51 138 51q28 0 55 -3.5t41 -6.5z" />
    <glyph glyph-name="g" unicode="g" horiz-adv-x="628" 
d="M573 493v-393q0 -143 -75 -213q-83 -78 -227 -78q-76 0 -140 23.5t-99 49.5l66 107q26 -20 75.5 -38t94.5 -18q79 0 116 39q30 34 30 98v16h-2q-54 -70 -155 -70q-97 0 -165 64.5t-68 178.5t68 178.5t165 64.5q101 0 156 -72h2l-2 63h160zM418 258q0 51 -31.5 85
t-83.5 34t-84 -34t-32 -85q0 -52 32 -86t84 -34t83.5 34t31.5 86z" />
    <glyph glyph-name="h" unicode="h" horiz-adv-x="589" 
d="M541 291v-291h-161v259q0 54 -14.5 83t-60.5 29q-88 0 -88 -129v-242h-160v690h160v-164l-1 -104q45 80 145 80t140 -55.5t40 -155.5z" />
    <glyph glyph-name="i" unicode="i" horiz-adv-x="270" 
d="M226 633q0 -37 -25 -60t-66 -23t-66 23t-25 60t25.5 60t65.5 23t65.5 -23t25.5 -60zM215 493v-493h-160v493h160z" />
    <glyph glyph-name="j" unicode="j" horiz-adv-x="270" 
d="M226 633q0 -37 -25 -60t-66 -23t-66 23t-25 60t25.5 60t65.5 23t65.5 -23t25.5 -60zM215 493v-481q0 -103 -41 -148q-50 -55 -137 -55q-24 0 -45 2.5t-30 4.5l-9 2l3 124q20 -6 45 -6q31 0 42.5 20.5t11.5 63.5v473h160z" />
    <glyph glyph-name="k" unicode="k" horiz-adv-x="551" 
d="M371 308l195 -308h-184l-121 192l-44 -43v-149h-160v690h160v-360l150 163h184z" />
    <glyph glyph-name="l" unicode="l" horiz-adv-x="273" 
d="M217 690v-690h-160v690h160z" />
    <glyph glyph-name="m" unicode="m" horiz-adv-x="874" 
d="M825 297v-297h-161v268q0 103 -65 103q-40 0 -60 -32t-20 -86v-253h-160v268q0 103 -66 103q-40 0 -60 -32t-20 -86v-253h-160v493h160l-1 -71l2 1q21 34 56.5 56.5t79.5 22.5q113 0 147 -90q53 90 157 90q171 0 171 -205z" />
    <glyph glyph-name="n" unicode="n" horiz-adv-x="587" 
d="M537 291v-291h-160v257q0 56 -15 85t-61 29q-88 0 -88 -127v-244h-160v493h160l-1 -71h2q49 80 143 80q100 0 140 -56t40 -155z" />
    <glyph glyph-name="o" unicode="o" horiz-adv-x="596" 
d="M571 245q0 -117 -77 -186.5t-196 -69.5q-120 0 -197 69.5t-77 186.5t77.5 187t196.5 70t196 -70t77 -187zM410 248q0 56 -30.5 92t-81.5 36q-52 0 -82 -36t-30 -92t30 -92t82 -36q51 0 81.5 36t30.5 92z" />
    <glyph glyph-name="p" unicode="p" horiz-adv-x="628" 
d="M604 246q0 -111 -64 -184t-169 -73q-107 0 -156 73v-243h-160v674h152l-1 -63h2q60 72 164 72q105 0 168.5 -72.5t63.5 -183.5zM441 248q0 57 -32 92.5t-84 35.5q-51 0 -83 -35.5t-32 -92.5t32 -92.5t83 -35.5q52 0 84 35.5t32 92.5z" />
    <glyph glyph-name="q" unicode="q" 
d="M573 493v-674h-160v174l1 69h-2q-49 -73 -155 -73q-105 0 -169 73t-64 184t64 183.5t169 72.5q104 0 164 -72h2l-2 63h152zM418 248q0 57 -31.5 92.5t-83.5 35.5t-84 -35.5t-32 -92.5t32 -92.5t84 -35.5t83.5 35.5t31.5 92.5z" />
    <glyph glyph-name="r" unicode="r" horiz-adv-x="387" 
d="M386 493l-9 -147h-7q-22 12 -58 12q-47 0 -74 -36q-25 -33 -25 -103v-219h-160v493h160l-1 -70h2q41 79 122 79q15 0 27.5 -2t17.5 -4z" />
    <glyph glyph-name="s" unicode="s" horiz-adv-x="451" 
d="M429 152q0 -73 -58 -120q-55 -43 -151 -43q-128 0 -208 76l60 95q30 -25 73 -42.5t73 -17.5q68 0 68 42q0 20 -38 36.5t-52 17.5q-43 11 -70 23q-84 37 -84 129q0 70 53.5 112.5t133.5 42.5q115 0 189 -61l-52 -94q-23 18 -59.5 33t-64.5 15q-59 0 -59 -36q0 -27 72 -48
q42 -12 70 -23q40 -15 64 -37q40 -40 40 -100z" />
    <glyph glyph-name="t" unicode="t" horiz-adv-x="358" 
d="M347 492v-121h-109v-177q0 -45 14 -61q10 -12 38 -12q11 0 23 2.5t19 4.5l6 2l8 -125q-64 -16 -114 -16q-80 0 -120 46q-35 41 -35 145v191h-70v121h70v134h161v-134h109z" />
    <glyph glyph-name="u" unicode="u" horiz-adv-x="579" 
d="M526 493v-493h-154l-1 56q-18 -26 -56.5 -46.5t-87.5 -20.5q-97 0 -141 58q-36 51 -36 148v298h160v-276q0 -96 73 -96q41 0 62 29.5t21 80.5v262h160z" />
    <glyph glyph-name="v" unicode="v" horiz-adv-x="546" 
d="M386 493h165l-203 -493h-150l-202 493h167l112 -312z" />
    <glyph glyph-name="w" unicode="w" horiz-adv-x="823" 
d="M659 493h162l-162 -493h-151l-96 302l-97 -302h-151l-162 493h162l87 -315l95 315h131l95 -315z" />
    <glyph glyph-name="x" unicode="x" horiz-adv-x="566" 
d="M378 257l198 -257h-182l-111 164l-112 -164h-182l198 257l-177 236h181l92 -148l91 148h181z" />
    <glyph glyph-name="y" unicode="y" horiz-adv-x="544" 
d="M386 493h165l-220 -540q-30 -72 -65.5 -107t-94.5 -35q-37 0 -71.5 6t-49.5 12l-16 6l32 118q35 -13 59 -13q12 0 18 1t15 8.5t15 22.5l18 43l-195 478h167l112 -317z" />
    <glyph glyph-name="z" unicode="z" horiz-adv-x="496" 
d="M480 127v-127h-464v92l249 279h-238v121h441v-89l-246 -276h258z" />
    <glyph glyph-name="braceleft" unicode="{" horiz-adv-x="334" 
d="M293 -74v-77h-88q-76 0 -107 34.5t-31 113.5v176q0 82 -61 82v101q61 0 61 81v176q0 79 31 114t107 35h88v-77h-34q-37 0 -50.5 -13.5t-13.5 -51.5v-183q0 -63 -20 -90.5t-60 -37.5v-7q40 -10 60 -38t20 -91v-183q0 -38 13.5 -51t50.5 -13h34z" />
    <glyph glyph-name="bar" unicode="|" horiz-adv-x="334" 
d="M221 800v-947h-108v947h108z" />
    <glyph glyph-name="braceright" unicode="}" horiz-adv-x="334" 
d="M329 356v-101q-62 0 -62 -82v-176q0 -79 -30.5 -113.5t-106.5 -34.5h-89v77h34q37 0 50.5 13t13.5 51v183q0 63 20 91t60 38v7q-40 10 -60 37.5t-20 90.5v183q0 38 -13.5 51.5t-50.5 13.5h-34v77h89q76 0 106.5 -35t30.5 -114v-176q0 -81 62 -81z" />
    <glyph glyph-name="asciitilde" unicode="~" horiz-adv-x="701" 
d="M557 412l70 -85q-31 -45 -75 -74t-94 -29q-11 0 -22 1t-19.5 2.5t-18.5 4.5t-15.5 5t-14.5 6l-12.5 5.5t-12 6t-9.5 5.5q-60 30 -92 30q-26 0 -52.5 -18t-45.5 -45l-70 85q31 45 75 74t94 29q11 0 22 -1t19.5 -2.5t18.5 -4.5t15.5 -5t14.5 -6l12.5 -5.5t12 -6t9.5 -5.5
q60 -30 92 -30q26 0 52.5 18t45.5 45z" />
    <glyph glyph-name="nbspace" unicode="&#xa0;" horiz-adv-x="197" 
 />
    <glyph glyph-name="exclamdown" unicode="&#xa1;" horiz-adv-x="326" 
d="M257 418q0 -40 -26 -63t-68 -23q-43 0 -69 23t-26 63t26 62.5t69 22.5q42 0 68 -22.5t26 -62.5zM232 281l15 -478h-168l14 478h139z" />
    <glyph glyph-name="cent" unicode="&#xa2;" 
d="M509 215l31 -114q-9 -12 -48 -29.5t-85 -21.5v-80h-81v79q-105 9 -173.5 76.5t-68.5 178.5t68.5 179.5t173.5 77.5v79h81v-80q42 -4 78 -18.5t51 -28.5l-32 -117q-44 33 -97 39v-258q30 2 59 14t43 24zM326 184v247q-40 -10 -64 -43.5t-24 -80.5q0 -46 23.5 -79t64.5 -44
z" />
    <glyph glyph-name="sterling" unicode="&#xa3;" 
d="M579 119v-119h-520v119h115q7 11 14 42t8 53l-2 71h-105v92h98l-14 50q-14 48 -14 90q0 80 58 133q55 50 152 50q113 0 183 -71l-55 -93q-55 50 -113 50q-43 0 -62.5 -23.5t-19.5 -57.5q0 -30 17 -92l10 -36h147v-92h-140l2 -71q-1 -22 -7.5 -53t-13.5 -42h262z" />
    <glyph glyph-name="currency" unicode="&#xa4;" 
d="M547 179l48 -114l-6 -6q-6 -6 -11 -10.5t-15.5 -12t-21 -13.5t-27 -12.5t-34 -11t-41 -7.5t-48.5 -3q-107 0 -179 60.5t-98 178.5h-64v93h51q-1 15 -1 29v27h-50v92h66q23 110 101 173q70 58 178 58t179 -46l-37 -127q-53 50 -132 50q-107 0 -126 -108h192v-92h-210
q-1 -15 -1 -27l1 -29h210v-93h-192q7 -51 40 -80t85 -29q73 0 143 60z" />
    <glyph glyph-name="yen" unicode="&#xa5;" 
d="M443 690h176l-165 -284h115v-93h-170l-9 -32v-26h179v-92h-180v-163h-153v163h-180v92h180v26l-9 32h-171v93h116l-166 284h177l130 -271z" />
    <glyph glyph-name="brokenbar" unicode="&#xa6;" horiz-adv-x="334" 
d="M221 800v-316h-108v316h108zM221 316v-316h-108v316h108z" />
    <glyph glyph-name="section" unicode="&#xa7;" horiz-adv-x="663" 
d="M577 253q0 -44 -22.5 -78t-44.5 -46l-22 -12q21 -11 43 -46t22 -84q0 -85 -67.5 -131.5t-163.5 -46.5q-167 0 -236 116l88 79q19 -36 62 -61.5t86 -25.5q86 0 86 63q0 49 -84 84l-102 42q-126 52 -126 163q0 34 12 62.5t29 44.5t29.5 25t19.5 11q-6 4 -16 13t-26 39.5
t-16 66.5q0 80 61 124.5t150 44.5q148 0 220 -101l-74 -78q-57 76 -138 76q-77 0 -77 -59q0 -27 22.5 -44t72.5 -38l81 -33q131 -55 131 -170zM448 232q0 52 -58 76l-129 53q-17 -6 -29 -25t-12 -44q0 -49 59 -73l128 -52q41 13 41 65z" />
    <glyph glyph-name="dieresis" unicode="&#xa8;" horiz-adv-x="417" 
d="M367 617q0 -30 -19 -48t-48 -18t-48.5 18.5t-19.5 47.5q0 30 19.5 48.5t48.5 18.5t48 -18.5t19 -48.5zM185 617q0 -30 -19 -48t-48 -18t-48.5 18.5t-19.5 47.5q0 30 19.5 48.5t48.5 18.5t48 -18.5t19 -48.5z" />
    <glyph glyph-name="copyright" unicode="&#xa9;" horiz-adv-x="769" 
d="M740 345q0 -150 -103 -252.5t-253 -102.5q-149 0 -252 102.5t-103 252.5t103 252.5t252 102.5q150 0 253 -102.5t103 -252.5zM686 345q0 128 -87 215t-215 87t-215 -87.5t-87 -214.5t87 -214.5t215 -87.5t215 87t87 215zM519 258l36 -65q-59 -62 -154 -62
q-93 0 -154.5 59.5t-61.5 154.5t61.5 154.5t154.5 59.5q98 0 149 -57l-36 -66q-41 47 -111 47q-55 0 -92.5 -35.5t-37.5 -100.5t37.5 -100.5t92.5 -35.5q69 0 116 47z" />
    <glyph glyph-name="ordfeminine" unicode="&#xaa;" horiz-adv-x="376" 
d="M334 361v-164h-100l-3 32q-35 -37 -89 -37q-44 0 -77 23.5t-33 71.5q0 47 36 68t85 23l76 3v4q0 45 -61 45q-53 0 -95 -26l-28 66q62 31 135 31q80 0 118 -36q36 -33 36 -104zM229 278v50l-48 -3q-42 -2 -42 -34q0 -35 43 -35q11 0 23 5.5t18 10.5z" />
    <glyph glyph-name="guillemotleft" unicode="&#xab;" horiz-adv-x="569" 
d="M383 246l118 -162l-78 -54l-159 216l159 217l78 -54zM181 246l118 -162l-78 -54l-159 216l159 217l78 -54z" />
    <glyph glyph-name="logicalnot" unicode="&#xac;" horiz-adv-x="702" 
d="M625 498v-334h-117v217h-432v117h549z" />
    <glyph glyph-name="uni00AD" unicode="&#xad;" horiz-adv-x="339" 
d="M309 331v-125h-279v125h279z" />
    <glyph glyph-name="registered" unicode="&#xae;" horiz-adv-x="769" 
d="M740 345q0 -150 -103 -252.5t-253 -102.5q-149 0 -252 102.5t-103 252.5t103 252.5t252 102.5q150 0 253 -102.5t103 -252.5zM686 345q0 128 -87 215t-215 87t-215 -87.5t-87 -214.5t87 -214.5t215 -87.5t215 87t87 215zM457 311l103 -174h-101l-87 163h-41v-163h-85v416
h147q69 0 109 -33.5t40 -91.5q0 -53 -26 -80.5t-59 -36.5zM454 426q0 58 -75 58h-48v-115h48q75 0 75 57z" />
    <glyph glyph-name="macron" unicode="&#xaf;" horiz-adv-x="417" 
d="M367 657v-77h-317v77h317z" />
    <glyph glyph-name="degree" unicode="&#xb0;" horiz-adv-x="431" 
d="M379 574q0 -68 -48 -114t-115 -46q-68 0 -116 46t-48 114t48 114.5t116 46.5q67 0 115 -46.5t48 -114.5zM306 574q0 37 -26.5 63.5t-63.5 26.5q-38 0 -63.5 -26.5t-25.5 -63.5t25.5 -63.5t63.5 -26.5q37 0 63.5 27t26.5 63z" />
    <glyph glyph-name="plusminus" unicode="&#xb1;" horiz-adv-x="701" 
d="M625 495v-117h-214v-173h-120v173h-215v117h215v172h120v-172h214zM625 170v-117h-549v117h549z" />
    <glyph glyph-name="twosuperior" unicode="&#xb2;" horiz-adv-x="414" 
d="M376 373v-88h-320l-13 72l146 130q35 32 49 51t14 39q0 21 -15.5 34t-43.5 13q-61 0 -105 -63l-50 70q4 25 51 54t113 29q72 0 116 -34t44 -89q0 -12 -1.5 -23t-6 -21.5l-8 -19t-11.5 -18.5t-12 -15.5t-14.5 -15.5l-13.5 -13t-14.5 -13t-13.5 -12l-74 -67h183z" />
    <glyph glyph-name="threesuperior" unicode="&#xb3;" horiz-adv-x="414" 
d="M380 411q0 -60 -50 -96.5t-116 -36.5q-118 0 -171 84l59 62q16 -27 45 -42t57 -15q27 0 46.5 13.5t19.5 35.5q0 23 -18 36.5t-46 13.5l-37 1v79h40q24 0 37.5 12t13.5 33q0 18 -14.5 28.5t-39.5 10.5q-57 0 -98 -48l-46 67q52 65 151 65q63 0 108.5 -31.5t45.5 -82.5
q0 -63 -56 -91h-1q32 -11 51 -37t19 -61z" />
    <glyph glyph-name="acute" unicode="&#xb4;" horiz-adv-x="417" 
d="M180 690h137l-103 -145h-113z" />
    <glyph glyph-name="mu" unicode="&#xb5;" horiz-adv-x="582" 
d="M529 492v-492h-154l-2 54q-16 -21 -48 -37.5t-66 -16.5q-39 0 -55 18l6 -199h-158v673h160v-269q0 -50 17 -75.5t57 -25.5q82 0 82 103v267h161z" />
    <glyph glyph-name="paragraph" unicode="&#xb6;" horiz-adv-x="663" 
d="M609 690v-104h-45v-767h-107v767h-93v-767h-106v425q-98 2 -159 59.5t-61 163.5q0 109 63.5 166t176.5 57h331z" />
    <glyph glyph-name="periodcentered" unicode="&#xb7;" horiz-adv-x="419" 
d="M302 291q0 -38 -25.5 -61.5t-66.5 -23.5q-42 0 -67.5 23.5t-25.5 61.5t25.5 61.5t67.5 23.5q41 0 66.5 -23.5t25.5 -61.5z" />
    <glyph glyph-name="cedilla" unicode="&#xb8;" horiz-adv-x="425" 
d="M210 0h101l-76 -148h-121z" />
    <glyph glyph-name="onesuperior" unicode="&#xb9;" horiz-adv-x="414" 
d="M295 704v-422h-113v342h-79v80h192z" />
    <glyph glyph-name="ordmasculine" unicode="&#xba;" horiz-adv-x="422" 
d="M380 346q0 -69 -48 -111.5t-121 -42.5q-74 0 -121.5 42t-47.5 112t47.5 112.5t121.5 42.5q73 0 121 -42.5t48 -112.5zM274 348q0 34 -18 53.5t-45 19.5t-45.5 -19.5t-18.5 -53.5t18.5 -54t45.5 -20t45 20t18 54z" />
    <glyph glyph-name="guillemotright" unicode="&#xbb;" horiz-adv-x="569" 
d="M348 463l159 -217l-159 -216l-77 54l117 162l-118 163zM146 463l159 -217l-159 -216l-78 54l118 162l-118 163z" />
    <glyph glyph-name="onequarter" unicode="&#xbc;" horiz-adv-x="945" 
d="M893 165v-84h-58v-81h-114v81h-222v72l217 273h119v-261h58zM607 708l69 -41l-430 -691l-69 41zM257 690v-408h-114v328h-79v80h193zM608 165h115v149z" />
    <glyph glyph-name="onehalf" unicode="&#xbd;" horiz-adv-x="946" 
d="M890 89v-89h-319l-15 69l140 122q67 57 67 93q0 23 -16 36.5t-42 13.5q-52 0 -106 -60l-47 77q11 23 56 48t107 25q70 0 113.5 -34t43.5 -89q0 -21 -7 -41.5t-13 -32.5t-23.5 -30l-22 -22.5t-25.5 -22.5l-73 -63h182zM597 708l69 -41l-429 -691l-69 41zM250 690v-415
h-113v335h-80v80h193z" />
    <glyph glyph-name="threequarters" unicode="&#xbe;" horiz-adv-x="945" 
d="M893 165v-84h-58v-81h-114v81h-222v72l217 273h119v-261h58zM380 411q0 -60 -50 -96.5t-116 -36.5q-118 0 -171 84l59 62q16 -27 45 -42t57 -15q27 0 46.5 13.5t19.5 35.5q0 23 -18 36.5t-46 13.5l-37 1v79h40q24 0 37.5 12t13.5 33q0 18 -14.5 28.5t-39.5 10.5
q-57 0 -98 -48l-46 67q52 65 151 65q63 0 108.5 -31.5t45.5 -82.5q0 -63 -56 -91h-1q32 -11 51 -37t19 -61zM658 708l69 -41l-430 -691l-69 41zM608 165h115v149z" />
    <glyph glyph-name="questiondown" unicode="&#xbf;" horiz-adv-x="534" 
d="M394 418q0 -40 -26 -63t-68 -23q-43 0 -69 23t-26 63t26 63t69 23q42 0 68 -23t26 -63zM437 -18l47 -112q-74 -77 -214 -77q-95 0 -155 51.5t-60 125.5q0 56 18.5 89t55.5 67q17 15 50 38.5t41 32.5q11 15 11 37l1 47h135l1 -65q1 -45 -14 -72t-48 -51l-61 -44
q-44 -32 -44 -62q0 -31 25 -48t71 -17q80 0 140 60z" />
    <glyph glyph-name="Agrave" unicode="&#xc0;" horiz-adv-x="680" 
d="M324 876l79 -145h-114l-102 145h137zM424 691l260 -691h-176l-49 139h-246l-49 -139h-168l260 691h168zM250 265h172l-86 248z" />
    <glyph glyph-name="Aacute" unicode="&#xc1;" horiz-adv-x="680" 
d="M356 876h137l-102 -145h-114zM424 691l260 -691h-176l-49 139h-246l-49 -139h-168l260 691h168zM250 265h172l-86 248z" />
    <glyph glyph-name="Acircumflex" unicode="&#xc2;" horiz-adv-x="680" 
d="M416 876l86 -145h-108l-54 90l-54 -90h-108l86 145h152zM424 691l260 -691h-176l-49 139h-246l-49 -139h-168l260 691h168zM250 265h172l-86 248z" />
    <glyph glyph-name="Atilde" unicode="&#xc3;" horiz-adv-x="680" 
d="M452 864l69 -10q-2 -47 -35.5 -81t-78.5 -34q-39 0 -77 23q-40 23 -57 23q-34 0 -45 -43l-69 10q1 47 35 81t79 34q36 0 77 -22q40 -23 57 -23q34 0 45 42zM424 691l260 -691h-176l-49 139h-246l-49 -139h-168l260 691h168zM250 265h172l-86 248z" />
    <glyph glyph-name="Adieresis" unicode="&#xc4;" horiz-adv-x="680" 
d="M497 800q0 -30 -19.5 -48.5t-48.5 -18.5t-48 18.5t-19 48.5t19 48.5t48 18.5t48.5 -18.5t19.5 -48.5zM318 800q0 -30 -19 -48.5t-48 -18.5q-30 0 -49 18.5t-19 48.5t19 48.5t49 18.5q29 0 48 -18.5t19 -48.5zM424 691l260 -691h-176l-49 139h-246l-49 -139h-168l260 691
h168zM250 265h172l-86 248z" />
    <glyph glyph-name="Aring" unicode="&#xc5;" horiz-adv-x="680" 
d="M455 813q0 -47 -33 -74.5t-82 -27.5t-82 27.5t-33 74.5q0 48 33 75.5t82 27.5t82 -27.5t33 -75.5zM424 691l260 -691h-176l-49 139h-246l-49 -139h-168l260 691h168zM391 813q0 22 -14 35.5t-37 13.5t-37 -13.5t-14 -35.5t14 -35t37 -13t37 13t14 35zM250 265h172
l-86 248z" />
    <glyph glyph-name="AE" unicode="&#xc6;" horiz-adv-x="927" 
d="M891 131v-131h-427v140h-241l-79 -140h-182l417 690h503v-129h-257v-139h241v-129h-241v-162h266zM294 266h170v297h-3z" />
    <glyph glyph-name="Ccedilla" unicode="&#xc7;" horiz-adv-x="650" 
d="M585 208l54 -126q-80 -83 -203 -90l-63 -142h-146l80 147q-50 8 -97 32.5t-89 65t-67.5 105.5t-25.5 144q0 163 103.5 259.5t258.5 96.5q64 0 120 -16.5t80 -32t37 -29.5l-50 -134q-15 20 -67 46t-111 26q-90 0 -148.5 -57t-58.5 -156q0 -98 59.5 -155t147.5 -57
q115 0 186 73z" />
    <glyph glyph-name="Egrave" unicode="&#xc8;" horiz-adv-x="556" 
d="M290 876l79 -145h-114l-102 145h137zM519 131v-131h-456v690h447v-129h-286v-141h270v-129h-270v-160h295z" />
    <glyph glyph-name="Eacute" unicode="&#xc9;" horiz-adv-x="556" 
d="M277 876h137l-102 -145h-114zM519 131v-131h-456v690h447v-129h-286v-141h270v-129h-270v-160h295z" />
    <glyph glyph-name="Ecircumflex" unicode="&#xca;" horiz-adv-x="556" 
d="M362 876l86 -145h-107l-54 90l-55 -90h-107l86 145h151zM519 131v-131h-456v690h447v-129h-286v-141h270v-129h-270v-160h295z" />
    <glyph glyph-name="Edieresis" unicode="&#xcb;" horiz-adv-x="556" 
d="M445 800q0 -30 -19 -48.5t-49 -18.5q-29 0 -48 18.5t-19 48.5t19 48.5t48 18.5q30 0 49 -18.5t19 -48.5zM265 800q0 -30 -19.5 -48.5t-48.5 -18.5t-48 18.5t-19 48.5t19 48.5t48 18.5t48.5 -18.5t19.5 -48.5zM519 131v-131h-456v690h447v-129h-286v-141h270v-129h-270
v-160h295z" />
    <glyph glyph-name="Igrave" unicode="&#xcc;" horiz-adv-x="288" 
d="M144 876l79 -145h-114l-102 145h137zM225 690v-690h-162v690h162z" />
    <glyph glyph-name="Iacute" unicode="&#xcd;" horiz-adv-x="288" 
d="M144 876h137l-103 -145h-113zM225 690v-690h-162v690h162z" />
    <glyph glyph-name="Icircumflex" unicode="&#xce;" horiz-adv-x="288" 
d="M220 876l85 -145h-107l-54 90l-54 -90h-108l86 145h152zM225 690v-690h-162v690h162z" />
    <glyph glyph-name="Idieresis" unicode="&#xcf;" horiz-adv-x="288" 
d="M302 802q0 -30 -19.5 -48.5t-48.5 -18.5t-48 18.5t-19 48.5t19 48.5t48 18.5t48.5 -18.5t19.5 -48.5zM121 802q0 -30 -19 -48.5t-48 -18.5t-48.5 18.5t-19.5 48.5t19.5 48.5t48.5 18.5t48 -18.5t19 -48.5zM225 690v-690h-162v690h162z" />
    <glyph glyph-name="Eth" unicode="&#xd0;" horiz-adv-x="703" 
d="M675 345q0 -168 -112 -263q-97 -82 -266 -82h-234v302h-57v106h57v282h234q169 0 266 -83q112 -93 112 -262zM511 345q0 103 -61 162q-53 49 -144 49h-82v-148h136v-102h-136v-169h82q92 0 144 50q61 57 61 158z" />
    <glyph glyph-name="Ntilde" unicode="&#xd1;" horiz-adv-x="750" 
d="M487 864l69 -10q-2 -47 -35.5 -81t-78.5 -34q-39 0 -77 23q-40 23 -57 23q-34 0 -45 -43l-69 10q1 47 35 81t79 34q36 0 77 -22q40 -23 56 -23q35 0 46 42zM687 690v-690h-166l-303 468q3 -83 3 -156v-312h-158v690h173l296 -464q-3 78 -3 151v313h158z" />
    <glyph glyph-name="Ograve" unicode="&#xd2;" horiz-adv-x="788" 
d="M372 876l79 -145h-114l-102 145h137zM760 344q0 -163 -104 -259.5t-262 -96.5t-262 96.5t-104 259.5t104 260t262 97t262 -97t104 -260zM596 348q0 97 -57 156t-145 59t-145 -59t-57 -156t57 -156.5t145 -59.5t145 59.5t57 156.5z" />
    <glyph glyph-name="Oacute" unicode="&#xd3;" horiz-adv-x="788" 
d="M417 876h136l-102 -145h-114zM760 344q0 -163 -104 -259.5t-262 -96.5t-262 96.5t-104 259.5t104 260t262 97t262 -97t104 -260zM596 348q0 97 -57 156t-145 59t-145 -59t-57 -156t57 -156.5t145 -59.5t145 59.5t57 156.5z" />
    <glyph glyph-name="Ocircumflex" unicode="&#xd4;" horiz-adv-x="788" 
d="M470 876l86 -145h-108l-54 90l-54 -90h-108l86 145h152zM760 344q0 -163 -104 -259.5t-262 -96.5t-262 96.5t-104 259.5t104 260t262 97t262 -97t104 -260zM596 348q0 97 -57 156t-145 59t-145 -59t-57 -156t57 -156.5t145 -59.5t145 59.5t57 156.5z" />
    <glyph glyph-name="Otilde" unicode="&#xd5;" horiz-adv-x="788" 
d="M506 864l69 -10q-2 -47 -35.5 -81t-78.5 -34q-39 0 -77 23q-40 23 -57 23q-34 0 -45 -43l-69 10q1 47 35 81t79 34q36 0 77 -22q40 -23 57 -23q34 0 45 42zM760 344q0 -163 -104 -259.5t-262 -96.5t-262 96.5t-104 259.5t104 260t262 97t262 -97t104 -260zM596 348
q0 97 -57 156t-145 59t-145 -59t-57 -156t57 -156.5t145 -59.5t145 59.5t57 156.5z" />
    <glyph glyph-name="Odieresis" unicode="&#xd6;" horiz-adv-x="788" 
d="M552 800q0 -30 -19.5 -48.5t-48.5 -18.5t-48 18.5t-19 48.5t19 48.5t48 18.5t48.5 -18.5t19.5 -48.5zM372 800q0 -30 -19.5 -48.5t-48.5 -18.5t-48 18.5t-19 48.5t19 48.5t48 18.5t48.5 -18.5t19.5 -48.5zM760 344q0 -163 -104 -259.5t-262 -96.5t-262 96.5t-104 259.5
t104 260t262 97t262 -97t104 -260zM596 348q0 97 -57 156t-145 59t-145 -59t-57 -156t57 -156.5t145 -59.5t145 59.5t57 156.5z" />
    <glyph glyph-name="multiply" unicode="&#xd7;" horiz-adv-x="701" 
d="M435 345l185 -184l-85 -86l-184 184l-185 -184l-84 86l185 184l-185 183l84 86l185 -184l184 184l85 -86z" />
    <glyph glyph-name="Oslash" unicode="&#xd8;" horiz-adv-x="788" 
d="M760 344q0 -163 -104 -259.5t-262 -96.5q-127 0 -219 63l-74 -75l-72 70l72 73q-73 92 -73 225q0 163 104 260t262 97q127 0 219 -63l75 76l72 -70l-73 -74q73 -92 73 -226zM217 236l290 295q-49 32 -113 32q-88 0 -145 -59t-57 -156q0 -62 25 -112zM596 348
q0 59 -23 107l-288 -293q49 -30 109 -30q88 0 145 59.5t57 156.5z" />
    <glyph glyph-name="Ugrave" unicode="&#xd9;" horiz-adv-x="694" 
d="M336 876l80 -145h-114l-103 145h137zM636 690v-402q0 -146 -66 -217q-76 -82 -223 -82t-224 82q-65 72 -65 217v402h163v-402q0 -82 27 -115q36 -43 99 -43t99 43q27 33 27 115v402h163z" />
    <glyph glyph-name="Uacute" unicode="&#xda;" horiz-adv-x="694" 
d="M357 876h137l-102 -145h-114zM636 690v-402q0 -146 -66 -217q-76 -82 -223 -82t-224 82q-65 72 -65 217v402h163v-402q0 -82 27 -115q36 -43 99 -43t99 43q27 33 27 115v402h163z" />
    <glyph glyph-name="Ucircumflex" unicode="&#xdb;" horiz-adv-x="694" 
d="M423 876l85 -145h-107l-54 90l-54 -90h-108l86 145h152zM636 690v-402q0 -146 -66 -217q-76 -82 -223 -82t-224 82q-65 72 -65 217v402h163v-402q0 -82 27 -115q36 -43 99 -43t99 43q27 33 27 115v402h163z" />
    <glyph glyph-name="Udieresis" unicode="&#xdc;" horiz-adv-x="694" 
d="M505 800q0 -30 -19.5 -48.5t-48.5 -18.5t-48 18.5t-19 48.5t19 48.5t48 18.5t48.5 -18.5t19.5 -48.5zM324 800q0 -30 -19 -48.5t-48 -18.5t-48.5 18.5t-19.5 48.5t19.5 48.5t48.5 18.5t48 -18.5t19 -48.5zM636 690v-402q0 -146 -66 -217q-76 -82 -223 -82t-224 82
q-65 72 -65 217v402h163v-402q0 -82 27 -115q36 -43 99 -43t99 43q27 33 27 115v402h163z" />
    <glyph glyph-name="Yacute" unicode="&#xdd;" horiz-adv-x="620" 
d="M318 876h137l-103 -145h-114zM451 690h180l-240 -411v-279h-162v279l-240 411h180l141 -275z" />
    <glyph glyph-name="Thorn" unicode="&#xde;" horiz-adv-x="576" 
d="M555 361q0 -106 -72 -165q-63 -52 -180 -52h-78v-144h-162v690h162v-111h78q117 0 180 -52q72 -61 72 -166zM390 361q0 50 -34 74q-26 19 -77 19h-55v-186h55q50 0 77 20q34 24 34 73z" />
    <glyph glyph-name="germandbls" unicode="&#xdf;" horiz-adv-x="609" 
d="M585 206q0 -104 -70 -159.5t-187 -55.5q-15 0 -32 2.5t-27 4.5l-10 2l8 115q19 -5 43 -5q51 0 84.5 26t33.5 79q0 55 -34 82.5t-90 27.5h-28v111h23q89 0 89 80q0 34 -24.5 55t-62.5 21q-46 0 -68 -31q-16 -24 -16 -83v-478h-160v436q0 99 24 148q24 50 73 81
q56 35 151 35q110 0 166.5 -49.5t56.5 -117.5q0 -55 -28 -91.5t-58 -43.5v-2q61 -13 102 -64t41 -126z" />
    <glyph glyph-name="agrave" unicode="&#xe0;" horiz-adv-x="541" 
d="M258 690l79 -145h-114l-102 145h137zM495 278v-278h-153l-3 52q-17 -17 -29 -27t-43.5 -23t-68.5 -13q-73 0 -126 40t-53 117q0 52 30 86.5t71 48.5t91 16l124 5v11q0 79 -101 79q-42 0 -84.5 -14t-66.5 -30l-42 104q100 50 211 50q122 0 184 -57q59 -56 59 -167z
M336 136v81l-79 -5q-78 -3 -78 -60q0 -28 21 -44.5t54 -16.5q29 0 50.5 14.5t31.5 30.5z" />
    <glyph glyph-name="aacute" unicode="&#xe1;" horiz-adv-x="541" 
d="M266 690h136l-102 -145h-114zM495 278v-278h-153l-3 52q-17 -17 -29 -27t-43.5 -23t-68.5 -13q-73 0 -126 40t-53 117q0 52 30 86.5t71 48.5t91 16l124 5v11q0 79 -101 79q-42 0 -84.5 -14t-66.5 -30l-42 104q100 50 211 50q122 0 184 -57q59 -56 59 -167zM336 136v81
l-79 -5q-78 -3 -78 -60q0 -28 21 -44.5t54 -16.5q29 0 50.5 14.5t31.5 30.5z" />
    <glyph glyph-name="acircumflex" unicode="&#xe2;" horiz-adv-x="541" 
d="M343 690l86 -145h-108l-54 92l-54 -92h-107l85 145h152zM495 278v-278h-153l-3 52q-17 -17 -29 -27t-43.5 -23t-68.5 -13q-73 0 -126 40t-53 117q0 52 30 86.5t71 48.5t91 16l124 5v11q0 79 -101 79q-42 0 -84.5 -14t-66.5 -30l-42 104q100 50 211 50q122 0 184 -57
q59 -56 59 -167zM336 136v81l-79 -5q-78 -3 -78 -60q0 -28 21 -44.5t54 -16.5q29 0 50.5 14.5t31.5 30.5z" />
    <glyph glyph-name="atilde" unicode="&#xe3;" horiz-adv-x="541" 
d="M389 680l68 -10q-1 -47 -34.5 -81t-78.5 -34q-36 0 -77 22q-3 2 -11.5 7t-14.5 8t-14.5 6t-16.5 3q-33 0 -45 -43l-69 10q1 47 35 81t79 34q36 0 77 -22q37 -24 56 -24q35 0 46 43zM495 278v-278h-153l-3 52q-17 -17 -29 -27t-43.5 -23t-68.5 -13q-73 0 -126 40t-53 117
q0 52 30 86.5t71 48.5t91 16l124 5v11q0 79 -101 79q-42 0 -84.5 -14t-66.5 -30l-42 104q100 50 211 50q122 0 184 -57q59 -56 59 -167zM336 136v81l-79 -5q-78 -3 -78 -60q0 -28 21 -44.5t54 -16.5q29 0 50.5 14.5t31.5 30.5z" />
    <glyph glyph-name="adieresis" unicode="&#xe4;" horiz-adv-x="541" 
d="M421 617q0 -30 -19 -48t-49 -18q-29 0 -48 18t-19 48t19 48.5t48 18.5q30 0 49 -18.5t19 -48.5zM242 617q0 -30 -19 -48t-48 -18t-48.5 18.5t-19.5 47.5q0 30 19.5 48.5t48.5 18.5t48 -18.5t19 -48.5zM495 278v-278h-153l-3 52q-17 -17 -29 -27t-43.5 -23t-68.5 -13
q-73 0 -126 40t-53 117q0 52 30 86.5t71 48.5t91 16l124 5v11q0 79 -101 79q-42 0 -84.5 -14t-66.5 -30l-42 104q100 50 211 50q122 0 184 -57q59 -56 59 -167zM336 136v81l-79 -5q-78 -3 -78 -60q0 -28 21 -44.5t54 -16.5q29 0 50.5 14.5t31.5 30.5z" />
    <glyph glyph-name="aring" unicode="&#xe5;" horiz-adv-x="541" 
d="M379 643q0 -46 -32 -74t-81 -28t-81.5 28t-32.5 74t32.5 74.5t81.5 28.5t81 -28.5t32 -74.5zM495 278v-278h-153l-3 52q-17 -17 -29 -27t-43.5 -23t-68.5 -13q-73 0 -126 40t-53 117q0 52 30 86.5t71 48.5t91 16l124 5v11q0 79 -101 79q-42 0 -84.5 -14t-66.5 -30
l-42 104q100 50 211 50q122 0 184 -57q59 -56 59 -167zM315 643q0 21 -13 35t-36 14t-36.5 -14t-13.5 -35q0 -20 13.5 -34t36.5 -14q22 0 35.5 14t13.5 34zM336 136v81l-79 -5q-78 -3 -78 -60q0 -28 21 -44.5t54 -16.5q29 0 50.5 14.5t31.5 30.5z" />
    <glyph glyph-name="ae" unicode="&#xe6;" horiz-adv-x="865" 
d="M844 261l-3 -53h-351q4 -49 39.5 -76t86.5 -27q79 0 148 47l63 -83q-1 0 -10 -8t-17 -13.5t-23 -15t-33 -16t-40 -13.5t-50.5 -10.5t-59.5 -3.5q-127 0 -198 81q-43 -43 -86.5 -62t-110.5 -19q-76 0 -128 40.5t-52 116.5q0 40 17 70t46 46.5t61 24.5t70 10l122 5v12
q0 38 -26 58t-75 20q-82 0 -151 -44l-42 104q100 50 211 50q89 0 137 -30q14 -9 38 -33q61 63 170 63t178 -67t69 -174zM491 299h203q-1 38 -27.5 68.5t-72.5 30.5q-47 0 -73.5 -30t-29.5 -69zM350 141q-16 40 -16 76l-76 -4q-79 -5 -79 -61q0 -28 20.5 -44.5t53.5 -16.5
q30 0 58 16t39 34z" />
    <glyph glyph-name="ccedilla" unicode="&#xe7;" horiz-adv-x="482" 
d="M434 169l38 -121q-54 -45 -131 -55l-71 -138h-137l94 139q-84 17 -143.5 82t-59.5 169q0 118 77.5 187.5t184.5 69.5q56 0 102 -13t64 -26l17 -13l-35 -121q-56 44 -127 44q-52 0 -87 -34t-35 -91q0 -58 34 -92.5t90 -34.5q33 0 64.5 12t46.5 24z" />
    <glyph glyph-name="egrave" unicode="&#xe8;" horiz-adv-x="558" 
d="M278 690l79 -145h-114l-102 145h137zM537 261l-2 -53h-351q5 -51 39.5 -77t86.5 -26q79 0 148 47l63 -83l-9 -8q-10 -8 -18 -13.5t-23 -15t-33 -16t-40 -13.5t-51 -10.5t-60 -3.5q-117 0 -190 68.5t-73 188.5q0 118 76 187t190 69q110 0 178.5 -66.5t68.5 -174.5z
M185 299h203q-1 38 -27.5 68.5t-73.5 30.5q-46 0 -73 -30t-29 -69z" />
    <glyph glyph-name="eacute" unicode="&#xe9;" horiz-adv-x="558" 
d="M295 690h137l-103 -145h-114zM537 261l-2 -53h-351q5 -51 39.5 -77t86.5 -26q79 0 148 47l63 -83l-9 -8q-10 -8 -18 -13.5t-23 -15t-33 -16t-40 -13.5t-51 -10.5t-60 -3.5q-117 0 -190 68.5t-73 188.5q0 118 76 187t190 69q110 0 178.5 -66.5t68.5 -174.5zM185 299h203
q-1 38 -27.5 68.5t-73.5 30.5q-46 0 -73 -30t-29 -69z" />
    <glyph glyph-name="ecircumflex" unicode="&#xea;" horiz-adv-x="558" 
d="M363 690l86 -145h-108l-54 92l-54 -92h-108l86 145h152zM537 261l-2 -53h-351q5 -51 39.5 -77t86.5 -26q79 0 148 47l63 -83l-9 -8q-10 -8 -18 -13.5t-23 -15t-33 -16t-40 -13.5t-51 -10.5t-60 -3.5q-117 0 -190 68.5t-73 188.5q0 118 76 187t190 69q110 0 178.5 -66.5
t68.5 -174.5zM185 299h203q-1 38 -27.5 68.5t-73.5 30.5q-46 0 -73 -30t-29 -69z" />
    <glyph glyph-name="edieresis" unicode="&#xeb;" horiz-adv-x="558" 
d="M447 617q0 -30 -19 -48t-48 -18q-30 0 -49 18t-19 48t19 48.5t49 18.5q29 0 48 -18.5t19 -48.5zM268 617q0 -30 -19 -48t-48 -18t-48.5 18.5t-19.5 47.5q0 30 19.5 48.5t48.5 18.5t48 -18.5t19 -48.5zM537 261l-2 -53h-351q5 -51 39.5 -77t86.5 -26q79 0 148 47l63 -83
l-9 -8q-10 -8 -18 -13.5t-23 -15t-33 -16t-40 -13.5t-51 -10.5t-60 -3.5q-117 0 -190 68.5t-73 188.5q0 118 76 187t190 69q110 0 178.5 -66.5t68.5 -174.5zM185 299h203q-1 38 -27.5 68.5t-73.5 30.5q-46 0 -73 -30t-29 -69z" />
    <glyph glyph-name="igrave" unicode="&#xec;" horiz-adv-x="270" 
d="M136 690l79 -145h-113l-103 145h137zM215 493v-493h-160v493h160z" />
    <glyph glyph-name="iacute" unicode="&#xed;" horiz-adv-x="270" 
d="M134 690h137l-102 -145h-114zM215 493v-493h-160v493h160z" />
    <glyph glyph-name="icircumflex" unicode="&#xee;" horiz-adv-x="270" 
d="M211 690l86 -145h-108l-54 92l-54 -92h-107l85 145h152zM215 493v-493h-160v493h160z" />
    <glyph glyph-name="idieresis" unicode="&#xef;" horiz-adv-x="270" 
d="M292 617q0 -30 -19 -48t-48 -18q-30 0 -49 18t-19 48t19 48.5t49 18.5q29 0 48 -18.5t19 -48.5zM113 617q0 -30 -19 -48t-48 -18t-48.5 18.5t-19.5 47.5q0 30 19.5 48.5t48.5 18.5t48 -18.5t19 -48.5zM215 493v-493h-160v493h160z" />
    <glyph glyph-name="eth" unicode="&#xf0;" horiz-adv-x="596" 
d="M568 242q0 -114 -77 -183.5t-196 -69.5q-118 0 -194.5 69.5t-76.5 183.5q0 108 75 174.5t167 66.5q66 0 98 -29q-32 58 -106 120l-112 -64l-37 66l87 49q-62 42 -90 59l111 61q45 -25 94 -61l119 68l37 -66l-94 -52l11.5 -11l22 -20.5t26 -26t23.5 -27.5
q32 -42 52.5 -75.5t40 -97.5t19.5 -134zM407 245q0 54 -30.5 89t-80.5 35t-80 -35t-30 -89q0 -55 30 -90t80 -35t80.5 35t30.5 90z" />
    <glyph glyph-name="ntilde" unicode="&#xf1;" horiz-adv-x="587" 
d="M407 680l68 -10q-2 -47 -35 -81t-78 -34q-36 0 -77 22q-3 2 -11.5 7t-14.5 8t-14.5 6t-16.5 3q-33 0 -46 -43l-68 10q2 47 35 81t78 34q39 0 77 -22q40 -24 57 -24q35 0 46 43zM537 291v-291h-160v257q0 56 -15 85t-61 29q-88 0 -88 -127v-244h-160v493h160l-1 -71h2
q49 80 143 80q100 0 140 -56t40 -155z" />
    <glyph glyph-name="ograve" unicode="&#xf2;" horiz-adv-x="596" 
d="M285 690l80 -145h-114l-101 145h135zM571 245q0 -117 -77 -186.5t-196 -69.5q-120 0 -197 69.5t-77 186.5t77.5 187t196.5 70t196 -70t77 -187zM410 248q0 56 -30.5 92t-81.5 36q-52 0 -82 -36t-30 -92t30 -92t82 -36q51 0 81.5 36t30.5 92z" />
    <glyph glyph-name="oacute" unicode="&#xf3;" horiz-adv-x="596" 
d="M310 690h137l-102 -145h-114zM571 245q0 -117 -77 -186.5t-196 -69.5q-120 0 -197 69.5t-77 186.5t77.5 187t196.5 70t196 -70t77 -187zM410 248q0 56 -30.5 92t-81.5 36q-52 0 -82 -36t-30 -92t30 -92t82 -36q51 0 81.5 36t30.5 92z" />
    <glyph glyph-name="ocircumflex" unicode="&#xf4;" horiz-adv-x="596" 
d="M374 690l85 -145h-107l-54 92l-54 -92h-108l86 145h152zM571 245q0 -117 -77 -186.5t-196 -69.5q-120 0 -197 69.5t-77 186.5t77.5 187t196.5 70t196 -70t77 -187zM410 248q0 56 -30.5 92t-81.5 36q-52 0 -82 -36t-30 -92t30 -92t82 -36q51 0 81.5 36t30.5 92z" />
    <glyph glyph-name="otilde" unicode="&#xf5;" horiz-adv-x="596" 
d="M410 680l68 -10q-1 -47 -34.5 -81t-78.5 -34q-36 0 -77 22q-3 2 -11.5 7t-14.5 8t-14.5 6t-16.5 3q-33 0 -45 -43l-69 10q1 47 35 81t79 34q37 0 76 -22q40 -24 57 -24q35 0 46 43zM571 245q0 -117 -77 -186.5t-196 -69.5q-120 0 -197 69.5t-77 186.5t77.5 187t196.5 70
t196 -70t77 -187zM410 248q0 56 -30.5 92t-81.5 36q-52 0 -82 -36t-30 -92t30 -92t82 -36q51 0 81.5 36t30.5 92z" />
    <glyph glyph-name="odieresis" unicode="&#xf6;" horiz-adv-x="596" 
d="M455 617q0 -29 -19.5 -47.5t-48.5 -18.5t-48 18t-19 48t19 48.5t48 18.5t48.5 -18.5t19.5 -48.5zM276 617q0 -30 -19 -48t-49 -18q-29 0 -48 18t-19 48t19 48.5t48 18.5q30 0 49 -18.5t19 -48.5zM571 245q0 -117 -77 -186.5t-196 -69.5q-120 0 -197 69.5t-77 186.5
t77.5 187t196.5 70t196 -70t77 -187zM410 248q0 56 -30.5 92t-81.5 36q-52 0 -82 -36t-30 -92t30 -92t82 -36q51 0 81.5 36t30.5 92z" />
    <glyph glyph-name="divide" unicode="&#xf7;" horiz-adv-x="701" 
d="M435 538q0 -35 -24.5 -60t-59.5 -25t-60 25t-25 60t25 59.5t60 24.5t59.5 -25t24.5 -59zM625 403v-116h-549v116h549zM435 152q0 -34 -24.5 -59t-59.5 -25t-60 24.5t-25 59.5t25 60t60 25t59.5 -25t24.5 -60z" />
    <glyph glyph-name="oslash" unicode="&#xf8;" horiz-adv-x="596" 
d="M511 514l61 -59l-52 -51q51 -67 51 -159q0 -117 -77 -186.5t-196 -69.5q-92 0 -160 42l-55 -53l-61 59l52 51q-50 68 -50 157q0 117 77.5 187t196.5 70q89 0 158 -41zM191 198l167 164q-25 17 -60 17q-52 0 -83.5 -36.5t-31.5 -94.5q0 -26 8 -50zM414 248q0 26 -8 48
l-166 -163q26 -16 58 -16q53 0 84.5 36.5t31.5 94.5z" />
    <glyph glyph-name="ugrave" unicode="&#xf9;" horiz-adv-x="579" 
d="M275 690l80 -145h-114l-103 145h137zM526 493v-493h-154l-1 56q-18 -26 -56.5 -46.5t-87.5 -20.5q-97 0 -141 58q-36 51 -36 148v298h160v-276q0 -96 73 -96q41 0 62 29.5t21 80.5v262h160z" />
    <glyph glyph-name="uacute" unicode="&#xfa;" horiz-adv-x="579" 
d="M297 690h137l-102 -145h-114zM526 493v-493h-154l-1 56q-18 -26 -56.5 -46.5t-87.5 -20.5q-97 0 -141 58q-36 51 -36 148v298h160v-276q0 -96 73 -96q41 0 62 29.5t21 80.5v262h160z" />
    <glyph glyph-name="ucircumflex" unicode="&#xfb;" horiz-adv-x="579" 
d="M364 690l86 -145h-108l-54 92l-54 -92h-108l86 145h152zM526 493v-493h-154l-1 56q-18 -26 -56.5 -46.5t-87.5 -20.5q-97 0 -141 58q-36 51 -36 148v298h160v-276q0 -96 73 -96q41 0 62 29.5t21 80.5v262h160z" />
    <glyph glyph-name="udieresis" unicode="&#xfc;" horiz-adv-x="579" 
d="M445 617q0 -30 -19 -48t-49 -18q-29 0 -48 18t-19 48t19 48.5t48 18.5q30 0 49 -18.5t19 -48.5zM266 617q0 -30 -19 -48t-48 -18t-48.5 18.5t-19.5 47.5q0 30 19.5 48.5t48.5 18.5t48 -18.5t19 -48.5zM526 493v-493h-154l-1 56q-18 -26 -56.5 -46.5t-87.5 -20.5
q-97 0 -141 58q-36 51 -36 148v298h160v-276q0 -96 73 -96q41 0 62 29.5t21 80.5v262h160z" />
    <glyph glyph-name="yacute" unicode="&#xfd;" horiz-adv-x="544" 
d="M286 690h136l-102 -145h-114zM386 493h165l-220 -540q-30 -72 -65.5 -107t-94.5 -35q-37 0 -71.5 6t-49.5 12l-16 6l32 118q35 -13 59 -13q12 0 18 1t15 8.5t15 22.5l18 43l-195 478h167l112 -317z" />
    <glyph glyph-name="thorn" unicode="&#xfe;" horiz-adv-x="630" 
d="M605 246q0 -111 -64 -184t-169 -73t-156 73q1 -42 1 -87v-156h-160v871h160v-165l-1 -92q18 25 57.5 47t99.5 22q105 0 168.5 -72.5t63.5 -183.5zM442 248q0 57 -31.5 92.5t-83.5 35.5t-84 -35.5t-32 -92.5t32 -92.5t84 -35.5t83.5 35.5t31.5 92.5z" />
    <glyph glyph-name="ydieresis" unicode="&#xff;" horiz-adv-x="544" 
d="M432 619q0 -30 -19.5 -48.5t-48.5 -18.5t-48 18.5t-19 48.5t19 48.5t48 18.5t48.5 -18.5t19.5 -48.5zM253 619q0 -30 -19.5 -48.5t-48.5 -18.5t-48 18.5t-19 48.5t19 48.5t48 18.5t48.5 -18.5t19.5 -48.5zM386 493h165l-220 -540q-30 -72 -65.5 -107t-94.5 -35
q-37 0 -71.5 6t-49.5 12l-16 6l32 118q35 -13 59 -13q12 0 18 1t15 8.5t15 22.5l18 43l-195 478h167l112 -317z" />
    <glyph glyph-name="Amacron" unicode="&#x100;" horiz-adv-x="680" 
d="M424 691l260 -691h-176l-49 139h-246l-49 -139h-168l260 691h168zM250 265h172l-86 248zM495 854v-77h-317v77h317z" />
    <glyph glyph-name="amacron" unicode="&#x101;" horiz-adv-x="541" 
d="M495 278v-278h-153l-3 52q-17 -17 -29 -27t-43.5 -23t-68.5 -13q-73 0 -126 40t-53 117q0 52 30 86.5t71 48.5t91 16l124 5v11q0 79 -101 79q-42 0 -84.5 -14t-66.5 -30l-42 104q100 50 211 50q122 0 184 -57q59 -56 59 -167zM336 136v81l-79 -5q-78 -3 -78 -60
q0 -28 21 -44.5t54 -16.5q29 0 50.5 14.5t31.5 30.5zM419 657v-77h-317v77h317z" />
    <glyph glyph-name="Abreve" unicode="&#x102;" horiz-adv-x="680" 
d="M424 691l260 -691h-176l-49 139h-246l-49 -139h-168l260 691h168zM250 265h172l-86 248zM436 881h69q-9 -66 -54 -99.5t-115 -33.5t-115.5 33.5t-54.5 99.5h70q19 -57 100 -57t100 57z" />
    <glyph glyph-name="abreve" unicode="&#x103;" horiz-adv-x="541" 
d="M495 278v-278h-153l-3 52q-17 -17 -29 -27t-43.5 -23t-68.5 -13q-73 0 -126 40t-53 117q0 52 30 86.5t71 48.5t91 16l124 5v11q0 79 -101 79q-42 0 -84.5 -14t-66.5 -30l-42 104q100 50 211 50q122 0 184 -57q59 -56 59 -167zM336 136v81l-79 -5q-78 -3 -78 -60
q0 -28 21 -44.5t54 -16.5q29 0 50.5 14.5t31.5 30.5zM361 684h69q-9 -66 -54 -99.5t-115 -33.5t-115.5 33.5t-54.5 99.5h70q19 -57 100 -57t100 57z" />
    <glyph glyph-name="Aogonek" unicode="&#x104;" horiz-adv-x="680" 
d="M692 -117l21 -41q-6 -5 -16.5 -12.5t-41.5 -20.5t-59 -13q-51 0 -84 23t-33 67q0 68 74 114h-45l-49 139h-246l-49 -139h-168l260 691h168l260 -691h-42q-29 -16 -51 -41.5t-22 -50.5q0 -24 17 -35t39 -11q35 0 67 21zM250 265h172l-86 248z" />
    <glyph glyph-name="aogonek" unicode="&#x105;" horiz-adv-x="541" 
d="M514 -117l21 -41q-6 -5 -16.5 -12.5t-41.5 -20.5t-59 -13q-51 0 -84 23t-33 67q0 68 74 114h-33l-3 52q-17 -17 -29 -27t-43.5 -23t-68.5 -13q-73 0 -126 40t-53 117q0 52 30 86.5t71 48.5t91 16l124 5v11q0 79 -101 79q-42 0 -84.5 -14t-66.5 -30l-42 104q100 50 211 50
q122 0 184 -57q59 -56 59 -167v-278h-31q-29 -16 -51 -41.5t-22 -50.5q0 -24 17 -35t39 -11q36 0 67 21zM336 136v81l-79 -5q-78 -5 -78 -60q0 -28 21 -44.5t54 -16.5q29 0 50.5 14.5t31.5 30.5z" />
    <glyph glyph-name="Cacute" unicode="&#x106;" horiz-adv-x="650" 
d="M585 208l54 -126q-91 -94 -249 -94q-156 0 -259 96.5t-103 259.5t103.5 259.5t258.5 96.5q64 0 120 -16.5t80 -32t37 -29.5l-50 -134q-15 20 -67 46t-111 26q-90 0 -148.5 -57t-58.5 -156q0 -98 59.5 -155t147.5 -57q115 0 186 73zM351 887h137l-103 -145h-113z" />
    <glyph glyph-name="cacute" unicode="&#x107;" horiz-adv-x="482" 
d="M434 169l38 -121l-3 -2q-3 -3 -6 -5.5t-9 -7t-12.5 -8l-16 -8.5t-20 -8.5t-24 -7.5t-28 -6.5t-32.5 -4t-37 -1.5q-107 0 -183.5 69t-76.5 187t77.5 187.5t184.5 69.5q56 0 102 -13t64 -26l17 -13l-35 -121q-56 44 -127 44q-52 0 -87 -34t-35 -91q0 -58 34 -92.5t90 -34.5
q33 0 64.5 12t46.5 24zM252 690h137l-103 -145h-113z" />
    <glyph glyph-name="Ccircumflex" unicode="&#x108;" horiz-adv-x="650" 
d="M585 208l54 -126q-91 -94 -249 -94q-156 0 -259 96.5t-103 259.5t103.5 259.5t258.5 96.5q64 0 120 -16.5t80 -32t37 -29.5l-50 -134q-15 20 -67 46t-111 26q-90 0 -148.5 -57t-58.5 -156q0 -98 59.5 -155t147.5 -57q115 0 186 73zM438 887l85 -145h-107l-54 92l-54 -92
h-108l86 145h152z" />
    <glyph glyph-name="ccircumflex" unicode="&#x109;" horiz-adv-x="482" 
d="M434 169l38 -121l-3 -2q-3 -3 -6 -5.5t-9 -7t-12.5 -8l-16 -8.5t-20 -8.5t-24 -7.5t-28 -6.5t-32.5 -4t-37 -1.5q-107 0 -183.5 69t-76.5 187t77.5 187.5t184.5 69.5q56 0 102 -13t64 -26l17 -13l-35 -121q-56 44 -127 44q-52 0 -87 -34t-35 -91q0 -58 34 -92.5t90 -34.5
q33 0 64.5 12t46.5 24zM338 690l85 -145h-107l-54 92l-54 -92h-108l86 145h152z" />
    <glyph glyph-name="Cdotaccent" unicode="&#x10a;" horiz-adv-x="650" 
d="M585 208l54 -126q-91 -94 -249 -94q-156 0 -259 96.5t-103 259.5t103.5 259.5t258.5 96.5q64 0 120 -16.5t80 -32t37 -29.5l-50 -134q-15 20 -67 46t-111 26q-90 0 -148.5 -57t-58.5 -156q0 -98 59.5 -155t147.5 -57q115 0 186 73zM410 816q0 -29 -20 -48.5t-48 -19.5
q-29 0 -48.5 19.5t-19.5 48.5t19.5 48t48.5 19q28 0 48 -19t20 -48z" />
    <glyph glyph-name="cdotaccent" unicode="&#x10b;" horiz-adv-x="482" 
d="M434 169l38 -121l-3 -2q-3 -3 -6 -5.5t-9 -7t-12.5 -8l-16 -8.5t-20 -8.5t-24 -7.5t-28 -6.5t-32.5 -4t-37 -1.5q-107 0 -183.5 69t-76.5 187t77.5 187.5t184.5 69.5q56 0 102 -13t64 -26l17 -13l-35 -121q-56 44 -127 44q-52 0 -87 -34t-35 -91q0 -58 34 -92.5t90 -34.5
q33 0 64.5 12t46.5 24zM319 619q0 -29 -20 -48.5t-48 -19.5q-29 0 -48.5 19.5t-19.5 48.5t19.5 48t48.5 19q28 0 48 -19t20 -48z" />
    <glyph glyph-name="Ccaron" unicode="&#x10c;" horiz-adv-x="650" 
d="M585 208l54 -126q-91 -94 -249 -94q-156 0 -259 96.5t-103 259.5t103.5 259.5t258.5 96.5q64 0 120 -16.5t80 -32t37 -29.5l-50 -134q-15 20 -67 46t-111 26q-90 0 -148.5 -57t-58.5 -156q0 -98 59.5 -155t147.5 -57q115 0 186 73zM399 887h107l-85 -145h-152l-86 145
h108l54 -93z" />
    <glyph glyph-name="ccaron" unicode="&#x10d;" horiz-adv-x="482" 
d="M434 169l38 -121l-3 -2q-3 -3 -6 -5.5t-9 -7t-12.5 -8l-16 -8.5t-20 -8.5t-24 -7.5t-28 -6.5t-32.5 -4t-37 -1.5q-107 0 -183.5 69t-76.5 187t77.5 187.5t184.5 69.5q56 0 102 -13t64 -26l17 -13l-35 -121q-56 44 -127 44q-52 0 -87 -34t-35 -91q0 -58 34 -92.5t90 -34.5
q33 0 64.5 12t46.5 24zM306 690h107l-85 -145h-152l-86 145h108l54 -93z" />
    <glyph glyph-name="Dcaron" unicode="&#x10e;" horiz-adv-x="703" 
d="M675 345q0 -168 -112 -263q-97 -82 -266 -82h-234v690h234q169 0 266 -83q112 -93 112 -262zM511 345q0 103 -61 162q-53 49 -144 49h-82v-419h82q92 0 144 50q61 57 61 158zM365 887h107l-85 -145h-152l-86 145h108l54 -93z" />
    <glyph glyph-name="dcaron" unicode="&#x10f;" horiz-adv-x="806" 
d="M573 690v-690h-152l1 65l-3 -1q-55 -75 -162 -75q-105 0 -169 73t-64 184t64 183.5t169 72.5q60 0 99.5 -22t56.5 -47v257h160zM418 248q0 57 -31.5 92.5t-83.5 35.5t-84 -35.5t-32 -92.5t32 -92.5t84 -35.5t83.5 35.5t31.5 92.5zM685 690h153l-101 -249h-131z" />
    <glyph glyph-name="Dcroat" unicode="&#x110;" horiz-adv-x="703" 
d="M675 345q0 -168 -112 -263q-97 -82 -266 -82h-234v302h-57v106h57v282h234q169 0 266 -83q112 -93 112 -262zM511 345q0 103 -61 162q-53 49 -144 49h-82v-148h136v-102h-136v-169h82q92 0 144 50q61 57 61 158z" />
    <glyph glyph-name="dcroat" unicode="&#x111;" horiz-adv-x="630" 
d="M573 560v-560h-152l1 65l-3 -1q-55 -75 -162 -75q-105 0 -169 73t-64 184t64 183.5t169 72.5q60 0 99.5 -22t56.5 -47v127h-165v77h165v53h160v-53h52v-77h-52zM418 248q0 57 -31.5 92.5t-83.5 35.5t-84 -35.5t-32 -92.5t32 -92.5t84 -35.5t83.5 35.5t31.5 92.5z" />
    <glyph glyph-name="Emacron" unicode="&#x112;" horiz-adv-x="556" 
d="M519 131v-131h-456v690h447v-129h-286v-141h270v-129h-270v-160h295zM447 854v-77h-317v77h317z" />
    <glyph glyph-name="emacron" unicode="&#x113;" horiz-adv-x="558" 
d="M537 261l-2 -53h-351q5 -51 39.5 -77t86.5 -26q79 0 148 47l63 -83l-9 -8q-10 -8 -18 -13.5t-23 -15t-33 -16t-40 -13.5t-51 -10.5t-60 -3.5q-117 0 -190 68.5t-73 188.5q0 118 76 187t190 69q110 0 178.5 -66.5t68.5 -174.5zM185 299h203q-1 38 -27.5 68.5t-73.5 30.5
q-46 0 -73 -30t-29 -69zM437 657v-77h-317v77h317z" />
    <glyph glyph-name="Ebreve" unicode="&#x114;" horiz-adv-x="556" 
d="M519 131v-131h-456v690h447v-129h-286v-141h270v-129h-270v-160h295zM395 881h69q-9 -66 -54 -99.5t-115 -33.5t-115.5 33.5t-54.5 99.5h70q19 -57 100 -57t100 57z" />
    <glyph glyph-name="ebreve" unicode="&#x115;" horiz-adv-x="558" 
d="M537 261l-2 -53h-351q5 -51 39.5 -77t86.5 -26q79 0 148 47l63 -83l-9 -8q-10 -8 -18 -13.5t-23 -15t-33 -16t-40 -13.5t-51 -10.5t-60 -3.5q-117 0 -190 68.5t-73 188.5q0 118 76 187t190 69q110 0 178.5 -66.5t68.5 -174.5zM185 299h203q-1 38 -27.5 68.5t-73.5 30.5
q-46 0 -73 -30t-29 -69zM379 684h69q-9 -66 -54 -99.5t-115 -33.5t-115.5 33.5t-54.5 99.5h70q19 -57 100 -57t100 57z" />
    <glyph glyph-name="Edotaccent" unicode="&#x116;" horiz-adv-x="556" 
d="M519 131v-131h-456v690h447v-129h-286v-141h270v-129h-270v-160h295zM365 816q0 -29 -20 -48.5t-48 -19.5q-29 0 -48.5 19.5t-19.5 48.5t19.5 48t48.5 19q28 0 48 -19t20 -48z" />
    <glyph glyph-name="edotaccent" unicode="&#x117;" horiz-adv-x="558" 
d="M537 261l-2 -53h-351q5 -51 39.5 -77t86.5 -26q79 0 148 47l63 -83l-9 -8q-10 -8 -18 -13.5t-23 -15t-33 -16t-40 -13.5t-51 -10.5t-60 -3.5q-117 0 -190 68.5t-73 188.5q0 118 76 187t190 69q110 0 178.5 -66.5t68.5 -174.5zM185 299h203q-1 38 -27.5 68.5t-73.5 30.5
q-46 0 -73 -30t-29 -69zM347 619q0 -29 -20 -48.5t-48 -19.5q-29 0 -48.5 19.5t-19.5 48.5t19.5 48t48.5 19q28 0 48 -19t20 -48z" />
    <glyph glyph-name="Eogonek" unicode="&#x118;" horiz-adv-x="556" 
d="M498 -117l21 -41q-6 -5 -16.5 -12.5t-41.5 -20.5t-59 -13q-51 0 -84 23t-33 67q0 68 74 114h-296v690h447v-129h-286v-141h270v-129h-270v-160h295v-131h-71q-29 -16 -51 -41.5t-22 -50.5q0 -24 17 -35t39 -11q35 0 67 21z" />
    <glyph glyph-name="eogonek" unicode="&#x119;" horiz-adv-x="558" 
d="M433 -117l21 -41q-6 -5 -16.5 -12.5t-41.5 -20.5t-59 -13q-51 0 -84 23t-33 67q0 59 58 103q-114 3 -184 71.5t-70 185.5q0 118 76 187t190 69q110 0 178.5 -66.5t68.5 -174.5l-2 -53h-351q5 -51 39.5 -77t86.5 -26q79 0 148 47l63 -83q-1 -1 -8.5 -7l-14 -11t-19.5 -13
t-26 -14.5t-32 -13t-40 -11.5q-29 -16 -50 -41t-21 -50q0 -24 17 -35t39 -11q36 0 67 21zM185 299h203q-1 38 -27.5 68.5t-73.5 30.5q-46 0 -73 -30t-29 -69z" />
    <glyph glyph-name="Ecaron" unicode="&#x11a;" horiz-adv-x="556" 
d="M519 131v-131h-456v690h447v-129h-286v-141h270v-129h-270v-160h295zM349 887h107l-85 -145h-152l-86 145h108l54 -93z" />
    <glyph glyph-name="ecaron" unicode="&#x11b;" horiz-adv-x="558" 
d="M537 261l-2 -53h-351q5 -51 39.5 -77t86.5 -26q79 0 148 47l63 -83l-9 -8q-10 -8 -18 -13.5t-23 -15t-33 -16t-40 -13.5t-51 -10.5t-60 -3.5q-117 0 -190 68.5t-73 188.5q0 118 76 187t190 69q110 0 178.5 -66.5t68.5 -174.5zM185 299h203q-1 38 -27.5 68.5t-73.5 30.5
q-46 0 -73 -30t-29 -69zM333 690h107l-85 -145h-152l-86 145h108l54 -93z" />
    <glyph glyph-name="Gcircumflex" unicode="&#x11c;" horiz-adv-x="744" 
d="M694 393v-286l-12 -11q-11 -10 -15.5 -13.5l-18.5 -14.5t-23 -16l-26.5 -15t-32 -15.5t-36 -12.5t-42.5 -11t-47 -6.5t-54 -2.5q-97 0 -177.5 40t-131 122.5t-50.5 193.5q0 166 104.5 260.5t256.5 94.5q52 0 98.5 -11t73.5 -23t56 -34.5t35 -29l21 -22.5l-107 -93
q-72 79 -177 79q-86 0 -141.5 -59.5t-55.5 -161.5t56.5 -161.5t143.5 -59.5q50 0 86 11t47 22l11 11v102h-145v123h303zM456 887l85 -145h-107l-54 92l-54 -92h-108l86 145h152z" />
    <glyph glyph-name="gcircumflex" unicode="&#x11d;" horiz-adv-x="628" 
d="M573 493v-393q0 -143 -75 -213q-83 -78 -227 -78q-76 0 -140 23.5t-99 49.5l66 107q26 -20 75.5 -38t94.5 -18q79 0 116 39q30 34 30 98v16h-2q-54 -70 -155 -70q-97 0 -165 64.5t-68 178.5t68 178.5t165 64.5q101 0 156 -72h2l-2 63h160zM418 258q0 51 -31.5 85
t-83.5 34t-84 -34t-32 -85q0 -52 32 -86t84 -34t83.5 34t31.5 86zM375 690l85 -145h-107l-54 92l-54 -92h-108l86 145h152z" />
    <glyph glyph-name="Gbreve" unicode="&#x11e;" horiz-adv-x="744" 
d="M694 393v-286l-12 -11q-11 -10 -15.5 -13.5l-18.5 -14.5t-23 -16l-26.5 -15t-32 -15.5t-36 -12.5t-42.5 -11t-47 -6.5t-54 -2.5q-97 0 -177.5 40t-131 122.5t-50.5 193.5q0 166 104.5 260.5t256.5 94.5q52 0 98.5 -11t73.5 -23t56 -34.5t35 -29l21 -22.5l-107 -93
q-72 79 -177 79q-86 0 -141.5 -59.5t-55.5 -161.5t56.5 -161.5t143.5 -59.5q50 0 86 11t47 22l11 11v102h-145v123h303zM476 881h69q-9 -66 -54 -99.5t-115 -33.5t-115.5 33.5t-54.5 99.5h70q19 -57 100 -57t100 57z" />
    <glyph glyph-name="gbreve" unicode="&#x11f;" horiz-adv-x="628" 
d="M573 493v-393q0 -143 -75 -213q-83 -78 -227 -78q-76 0 -140 23.5t-99 49.5l66 107q26 -20 75.5 -38t94.5 -18q79 0 116 39q30 34 30 98v16h-2q-54 -70 -155 -70q-97 0 -165 64.5t-68 178.5t68 178.5t165 64.5q101 0 156 -72h2l-2 63h160zM418 258q0 51 -31.5 85
t-83.5 34t-84 -34t-32 -85q0 -52 32 -86t84 -34t83.5 34t31.5 86zM402 684h69q-9 -66 -54 -99.5t-115 -33.5t-115.5 33.5t-54.5 99.5h70q19 -57 100 -57t100 57z" />
    <glyph glyph-name="Gdotaccent" unicode="&#x120;" horiz-adv-x="744" 
d="M694 393v-286l-12 -11q-11 -10 -15.5 -13.5l-18.5 -14.5t-23 -16l-26.5 -15t-32 -15.5t-36 -12.5t-42.5 -11t-47 -6.5t-54 -2.5q-97 0 -177.5 40t-131 122.5t-50.5 193.5q0 166 104.5 260.5t256.5 94.5q52 0 98.5 -11t73.5 -23t56 -34.5t35 -29l21 -22.5l-107 -93
q-72 79 -177 79q-86 0 -141.5 -59.5t-55.5 -161.5t56.5 -161.5t143.5 -59.5q50 0 86 11t47 22l11 11v102h-145v123h303zM438 816q0 -29 -20 -48.5t-48 -19.5q-29 0 -48.5 19.5t-19.5 48.5t19.5 48t48.5 19q28 0 48 -19t20 -48z" />
    <glyph glyph-name="gdotaccent" unicode="&#x121;" horiz-adv-x="628" 
d="M573 493v-393q0 -143 -75 -213q-83 -78 -227 -78q-76 0 -140 23.5t-99 49.5l66 107q26 -20 75.5 -38t94.5 -18q79 0 116 39q30 34 30 98v16h-2q-54 -70 -155 -70q-97 0 -165 64.5t-68 178.5t68 178.5t165 64.5q101 0 156 -72h2l-2 63h160zM418 258q0 51 -31.5 85
t-83.5 34t-84 -34t-32 -85q0 -52 32 -86t84 -34t83.5 34t31.5 86zM351 619q0 -29 -20 -48.5t-48 -19.5q-29 0 -48.5 19.5t-19.5 48.5t19.5 48t48.5 19q28 0 48 -19t20 -48z" />
    <glyph glyph-name="Gcommaaccent" unicode="&#x122;" horiz-adv-x="744" 
d="M694 393v-286l-12 -11q-11 -10 -15.5 -13.5l-18.5 -14.5t-23 -16l-26.5 -15t-32 -15.5t-36 -12.5t-42.5 -11t-47 -6.5t-54 -2.5q-97 0 -177.5 40t-131 122.5t-50.5 193.5q0 166 104.5 260.5t256.5 94.5q52 0 98.5 -11t73.5 -23t56 -34.5t35 -29l21 -22.5l-107 -93
q-72 79 -177 79q-86 0 -141.5 -59.5t-55.5 -161.5t56.5 -161.5t143.5 -59.5q50 0 86 11t47 22l11 11v102h-145v123h303zM331 -50h154l-57 -140h-131z" />
    <glyph glyph-name="gcommaaccent" unicode="&#x123;" horiz-adv-x="628" 
d="M573 493v-393q0 -143 -75 -213q-83 -78 -227 -78q-76 0 -140 23.5t-99 49.5l66 107q26 -20 75.5 -38t94.5 -18q79 0 116 39q30 34 30 98v16h-2q-54 -70 -155 -70q-97 0 -165 64.5t-68 178.5t68 178.5t165 64.5q101 0 156 -72h2l-2 63h160zM418 258q0 51 -31.5 85
t-83.5 34t-84 -34t-32 -85q0 -52 32 -86t84 -34t83.5 34t31.5 86zM344 579h-154l57 140h131z" />
    <glyph glyph-name="Hcircumflex" unicode="&#x124;" horiz-adv-x="727" 
d="M664 690v-690h-162v289h-277v-289h-162v690h162v-267h277v267h162zM440 887l85 -145h-107l-54 92l-54 -92h-108l86 145h152z" />
    <glyph glyph-name="hcircumflex" unicode="&#x125;" horiz-adv-x="589" 
d="M541 291v-291h-161v259q0 54 -14.5 83t-60.5 29q-88 0 -88 -129v-242h-160v690h160v-164l-1 -104q45 80 145 80t140 -55.5t40 -155.5zM216 905l85 -145h-107l-54 92l-54 -92h-108l86 145h152z" />
    <glyph glyph-name="Hbar" unicode="&#x126;" horiz-adv-x="727" 
d="M664 522v-522h-162v289h-277v-289h-162v522h-58v97h58v71h162v-71h277v71h162v-71h58v-97h-58zM225 423h277v99h-277v-99z" />
    <glyph glyph-name="hbar" unicode="&#x127;" horiz-adv-x="589" 
d="M382 637v-77h-165v-34l-1 -104q45 80 145 80t140 -55.5t40 -155.5v-291h-161v259q0 54 -14.5 83t-60.5 29q-88 0 -88 -129v-242h-160v560h-52v77h52v53h160v-53h165z" />
    <glyph glyph-name="Itilde" unicode="&#x128;" horiz-adv-x="288" 
d="M225 690v-690h-162v690h162zM257 877l68 -10q-2 -47 -35 -81t-78 -34q-36 0 -77 22q-3 2 -11.5 7t-14.5 8t-14.5 6t-16.5 3q-33 0 -45 -43l-69 10q1 47 35 81t79 34q38 0 76 -22q40 -24 57 -24q35 0 46 43z" />
    <glyph glyph-name="itilde" unicode="&#x129;" horiz-adv-x="270" 
d="M215 493v-493h-160v493h160zM248 680l68 -10q-2 -47 -35 -81t-78 -34q-36 0 -77 22q-3 2 -11.5 7t-14.5 8t-14.5 6t-16.5 3q-33 0 -45 -43l-69 10q1 47 35 81t79 34q37 0 76 -22q40 -24 57 -24q35 0 46 43z" />
    <glyph glyph-name="Imacron" unicode="&#x12a;" horiz-adv-x="288" 
d="M225 690v-690h-162v690h162zM303 854v-77h-317v77h317z" />
    <glyph glyph-name="imacron" unicode="&#x12b;" horiz-adv-x="270" 
d="M215 493v-493h-160v493h160zM294 657v-77h-317v77h317z" />
    <glyph glyph-name="Ibreve" unicode="&#x12c;" horiz-adv-x="288" 
d="M225 690v-690h-162v690h162zM245 881h69q-9 -66 -54 -99.5t-115 -33.5t-115.5 33.5t-54.5 99.5h70q19 -57 100 -57t100 57z" />
    <glyph glyph-name="ibreve" unicode="&#x12d;" horiz-adv-x="270" 
d="M215 493v-493h-160v493h160zM236 684h69q-9 -66 -54 -99.5t-115 -33.5t-115.5 33.5t-54.5 99.5h70q19 -57 100 -57t100 57z" />
    <glyph glyph-name="Iogonek" unicode="&#x12e;" horiz-adv-x="288" 
d="M243 -117l21 -41q-6 -5 -16.5 -12.5t-41.5 -20.5t-59 -13q-51 0 -84 23t-33 67q0 68 74 114h-41v690h162v-690h-32q-29 -16 -51 -41.5t-22 -50.5q0 -24 17 -35t39 -11q36 0 67 21z" />
    <glyph glyph-name="iogonek" unicode="&#x12f;" horiz-adv-x="270" 
d="M240 -117l21 -41q-6 -5 -16.5 -12.5t-41.5 -20.5t-59 -13q-51 0 -84 23t-33 67q0 68 74 114h-46v493h160v-493h-25q-29 -16 -51 -41.5t-22 -50.5q0 -24 17 -35t39 -11q35 0 67 21zM226 633q0 -37 -25 -60t-66 -23t-66 23t-25 60t25.5 60t65.5 23t65.5 -23t25.5 -60z" />
    <glyph glyph-name="Idotaccent" unicode="&#x130;" horiz-adv-x="288" 
d="M225 690v-690h-162v690h162zM212 816q0 -29 -20 -48.5t-48 -19.5q-29 0 -48.5 19.5t-19.5 48.5t19.5 48t48.5 19q28 0 48 -19t20 -48z" />
    <glyph glyph-name="dotlessi" unicode="&#x131;" horiz-adv-x="270" 
d="M215 493v-493h-160v493h160z" />
    <glyph glyph-name="IJ" unicode="&#x132;" horiz-adv-x="575" 
d="M225 690v-690h-162v690h162zM512 690v-676q0 -107 -43 -156q-44 -51 -125 -51q-33 0 -64 5t-39 10l6 119q23 -9 54 -9q28 0 39 20t11 60v678h161z" />
    <glyph glyph-name="ij" unicode="&#x133;" horiz-adv-x="540" 
d="M226 633q0 -37 -25 -60t-66 -23t-66 23t-25 60t25.5 60t65.5 23t65.5 -23t25.5 -60zM215 493v-493h-160v493h160zM496 633q0 -37 -25 -60t-66 -23t-66 23t-25 60t25.5 60t65.5 23t65.5 -23t25.5 -60zM485 493v-481q0 -103 -41 -148q-50 -55 -137 -55q-24 0 -45 2.5
t-30 4.5l-9 2l3 124q20 -6 45 -6q31 0 42.5 20.5t11.5 63.5v473h160z" />
    <glyph glyph-name="Jcircumflex" unicode="&#x134;" horiz-adv-x="287" 
d="M224 690v-676q0 -107 -43 -156q-44 -51 -125 -51q-33 0 -64 5t-39 10l6 119q23 -9 54 -9q28 0 39 20t11 60v678h161zM220 887l85 -145h-107l-54 92l-54 -92h-108l86 145h152z" />
    <glyph glyph-name="jcircumflex" unicode="&#x135;" horiz-adv-x="270" 
d="M215 493v-481q0 -103 -41 -148q-50 -55 -137 -55q-24 0 -45 2.5t-30 4.5l-9 2l3 124q20 -6 45 -6q31 0 42.5 20.5t11.5 63.5v473h160zM212 690l85 -145h-107l-54 92l-54 -92h-108l86 145h152z" />
    <glyph glyph-name="Kcommaaccent" unicode="&#x136;" horiz-adv-x="629" 
d="M386 415l260 -415h-194l-173 288l-55 -61v-227h-161v690h161v-252l213 252h192zM270 -50h154l-57 -140h-131z" />
    <glyph glyph-name="kcommaaccent" unicode="&#x137;" horiz-adv-x="551" 
d="M371 308l195 -308h-184l-121 192l-44 -43v-149h-160v690h160v-360l150 163h184zM224 -50h154l-57 -140h-131z" />
    <glyph glyph-name="kgreenlandic" unicode="&#x138;" horiz-adv-x="547" 
d="M367 308l195 -308h-184l-121 192l-44 -43v-149h-160v493h160v-163l150 163h184z" />
    <glyph glyph-name="Lacute" unicode="&#x139;" horiz-adv-x="473" 
d="M463 134v-134h-400v690h161v-556h239zM161 887h137l-103 -145h-113z" />
    <glyph glyph-name="lacute" unicode="&#x13a;" horiz-adv-x="273" 
d="M217 690v-690h-160v690h160zM152 905h137l-103 -145h-113z" />
    <glyph glyph-name="Lcommaaccent" unicode="&#x13b;" horiz-adv-x="473" 
d="M463 134v-134h-400v690h161v-556h239zM199 -50h154l-57 -140h-131z" />
    <glyph glyph-name="lcommaaccent" unicode="&#x13c;" horiz-adv-x="273" 
d="M217 690v-690h-160v690h160zM69 -50h154l-57 -140h-131z" />
    <glyph glyph-name="Lcaron" unicode="&#x13d;" horiz-adv-x="473" 
d="M463 134v-134h-400v690h161v-556h239zM364 690h153l-101 -249h-131z" />
    <glyph glyph-name="lcaron" unicode="&#x13e;" horiz-adv-x="450" 
d="M217 690v-690h-160v690h160zM329 690h153l-101 -249h-131z" />
    <glyph glyph-name="Ldot" unicode="&#x13f;" horiz-adv-x="532" 
d="M463 134v-134h-400v690h161v-556h239zM512 356q0 -38 -25.5 -61.5t-66.5 -23.5q-42 0 -67.5 23.5t-25.5 61.5t25.5 61.5t67.5 23.5q41 0 66.5 -23.5t25.5 -61.5z" />
    <glyph glyph-name="ldot" unicode="&#x140;" horiz-adv-x="510" 
d="M217 690v-690h-160v690h160zM467 300q0 -38 -25.5 -61.5t-66.5 -23.5q-42 0 -67.5 23.5t-25.5 61.5t25.5 61.5t67.5 23.5q41 0 66.5 -23.5t25.5 -61.5z" />
    <glyph glyph-name="Lslash" unicode="&#x141;" horiz-adv-x="473" 
d="M463 134v-134h-400v221l-48 -37v121l48 36v349h161v-240l105 79v-120l-105 -80v-195h239z" />
    <glyph glyph-name="lslash" unicode="&#x142;" horiz-adv-x="277" 
d="M268 542v-120l-50 -43v-379h-160v254l-49 -43v120l49 43v316h160v-191z" />
    <glyph glyph-name="Nacute" unicode="&#x143;" horiz-adv-x="750" 
d="M687 690v-690h-166l-303 468q3 -83 3 -156v-312h-158v690h173l296 -464q-3 78 -3 151v313h158zM389 887h137l-103 -145h-113z" />
    <glyph glyph-name="nacute" unicode="&#x144;" horiz-adv-x="587" 
d="M537 291v-291h-160v257q0 56 -15 85t-61 29q-88 0 -88 -127v-244h-160v493h160l-1 -71h2q49 80 143 80q100 0 140 -56t40 -155zM284 690h137l-103 -145h-113z" />
    <glyph glyph-name="Ncommaaccent" unicode="&#x145;" horiz-adv-x="750" 
d="M687 690v-690h-166l-303 468q3 -83 3 -156v-312h-158v690h173l296 -464q-3 78 -3 151v313h158zM312 -50h154l-57 -140h-131z" />
    <glyph glyph-name="ncommaaccent" unicode="&#x146;" horiz-adv-x="587" 
d="M537 291v-291h-160v257q0 56 -15 85t-61 29q-88 0 -88 -127v-244h-160v493h160l-1 -71h2q49 80 143 80q100 0 140 -56t40 -155zM225 -50h154l-57 -140h-131z" />
    <glyph glyph-name="Ncaron" unicode="&#x147;" horiz-adv-x="750" 
d="M687 690v-690h-166l-303 468q3 -83 3 -156v-312h-158v690h173l296 -464q-3 78 -3 151v313h158zM433 887h107l-85 -145h-152l-86 145h108l54 -93z" />
    <glyph glyph-name="ncaron" unicode="&#x148;" horiz-adv-x="587" 
d="M537 291v-291h-160v257q0 56 -15 85t-61 29q-88 0 -88 -127v-244h-160v493h160l-1 -71h2q49 80 143 80q100 0 140 -56t40 -155zM348 690h107l-85 -145h-152l-86 145h108l54 -93z" />
    <glyph glyph-name="Eng" unicode="&#x14a;" horiz-adv-x="750" 
d="M687 690v-676q0 -107 -43 -156q-44 -51 -125 -51q-33 0 -64 5t-39 10l6 119q23 -9 54 -9q50 0 53 68h-8l-303 468q3 -83 3 -156v-312h-158v690h173l293 -460v460h158z" />
    <glyph glyph-name="eng" unicode="&#x14b;" horiz-adv-x="587" 
d="M537 291v-279q0 -103 -41 -148q-50 -55 -137 -55q-24 0 -45 2.5t-30 4.5l-9 2l3 124q20 -6 45 -6q31 0 42.5 20.5t11.5 63.5v237q0 56 -15 85t-61 29q-88 0 -88 -127v-244h-160v493h160l-1 -71h2q49 80 143 80q100 0 140 -56t40 -155z" />
    <glyph glyph-name="Omacron" unicode="&#x14c;" horiz-adv-x="788" 
d="M760 344q0 -163 -104 -259.5t-262 -96.5t-262 96.5t-104 259.5t104 260t262 97t262 -97t104 -260zM596 348q0 97 -57 156t-145 59t-145 -59t-57 -156t57 -156.5t145 -59.5t145 59.5t57 156.5zM552 854v-77h-317v77h317z" />
    <glyph glyph-name="omacron" unicode="&#x14d;" horiz-adv-x="596" 
d="M571 245q0 -117 -77 -186.5t-196 -69.5q-120 0 -197 69.5t-77 186.5t77.5 187t196.5 70t196 -70t77 -187zM410 248q0 56 -30.5 92t-81.5 36q-52 0 -82 -36t-30 -92t30 -92t82 -36q51 0 81.5 36t30.5 92zM456 657v-77h-317v77h317z" />
    <glyph glyph-name="Obreve" unicode="&#x14e;" horiz-adv-x="788" 
d="M760 344q0 -163 -104 -259.5t-262 -96.5t-262 96.5t-104 259.5t104 260t262 97t262 -97t104 -260zM596 348q0 97 -57 156t-145 59t-145 -59t-57 -156t57 -156.5t145 -59.5t145 59.5t57 156.5zM494 881h69q-9 -66 -54 -99.5t-115 -33.5t-115.5 33.5t-54.5 99.5h70
q19 -57 100 -57t100 57z" />
    <glyph glyph-name="obreve" unicode="&#x14f;" horiz-adv-x="596" 
d="M571 245q0 -117 -77 -186.5t-196 -69.5q-120 0 -197 69.5t-77 186.5t77.5 187t196.5 70t196 -70t77 -187zM410 248q0 56 -30.5 92t-81.5 36q-52 0 -82 -36t-30 -92t30 -92t82 -36q51 0 81.5 36t30.5 92zM398 684h69q-9 -66 -54 -99.5t-115 -33.5t-115.5 33.5t-54.5 99.5
h70q19 -57 100 -57t100 57z" />
    <glyph glyph-name="Ohungarumlaut" unicode="&#x150;" horiz-adv-x="788" 
d="M760 344q0 -163 -104 -259.5t-262 -96.5t-262 96.5t-104 259.5t104 260t262 97t262 -97t104 -260zM596 348q0 97 -57 156t-145 59t-145 -59t-57 -156t57 -156.5t145 -59.5t145 59.5t57 156.5zM481 887h134l-105 -145h-111zM303 887h133l-105 -145h-111z" />
    <glyph glyph-name="ohungarumlaut" unicode="&#x151;" horiz-adv-x="596" 
d="M571 245q0 -117 -77 -186.5t-196 -69.5q-120 0 -197 69.5t-77 186.5t77.5 187t196.5 70t196 -70t77 -187zM410 248q0 56 -30.5 92t-81.5 36q-52 0 -82 -36t-30 -92t30 -92t82 -36q51 0 81.5 36t30.5 92zM379 690h134l-105 -145h-111zM201 690h133l-105 -145h-111z" />
    <glyph glyph-name="OE" unicode="&#x152;" horiz-adv-x="989" 
d="M952 131v-131h-420v18q-54 -30 -140 -30q-157 0 -260.5 96.5t-103.5 259.5t103.5 260t260.5 97q82 0 140 -30v19h411v-129h-259v-141h243v-129h-243v-160h268zM523 171v354q-47 38 -131 38q-86 0 -143 -59t-57 -156t57 -156.5t143 -59.5q82 0 131 39z" />
    <glyph glyph-name="oe" unicode="&#x153;" horiz-adv-x="939" 
d="M918 261l-2 -53h-352q4 -49 39 -76t87 -27q80 0 149 47l62 -83q-1 0 -7 -5.5t-11 -9.5t-15 -11t-20.5 -12.5t-24.5 -12t-30.5 -11.5t-35.5 -9.5t-42 -6.5t-47 -2q-119 0 -182 77q-65 -77 -188 -77q-120 0 -197 69.5t-77 186.5t77.5 187t196.5 70q118 0 190 -78
q70 78 184 78q109 0 177.5 -66.5t68.5 -174.5zM566 299h203q-2 38 -28 68.5t-73 30.5q-46 0 -73 -30t-29 -69zM410 248q0 56 -30.5 92t-81.5 36q-52 0 -82 -36t-30 -92t30 -92t82 -36q51 0 81.5 36t30.5 92z" />
    <glyph glyph-name="Racute" unicode="&#x154;" horiz-adv-x="600" 
d="M434 285l175 -285h-188l-145 264h-51v-264h-162v690h248q115 0 182 -49q76 -56 76 -158q0 -61 -24.5 -105.5t-52 -63.5t-58.5 -29zM406 477q0 45 -35 70q-24 18 -83 18h-64v-177h64q58 0 83 19q35 25 35 70zM287 887h137l-103 -145h-113z" />
    <glyph glyph-name="racute" unicode="&#x155;" horiz-adv-x="387" 
d="M386 493l-9 -147h-7q-22 12 -58 12q-47 0 -74 -36q-25 -33 -25 -103v-219h-160v493h160l-1 -70h2q41 79 122 79q15 0 27.5 -2t17.5 -4zM212 690h137l-103 -145h-113z" />
    <glyph glyph-name="Rcommaaccent" unicode="&#x156;" horiz-adv-x="600" 
d="M434 285l175 -285h-188l-145 264h-51v-264h-162v690h248q115 0 182 -49q76 -56 76 -158q0 -61 -24.5 -105.5t-52 -63.5t-58.5 -29zM406 477q0 45 -35 70q-24 18 -83 18h-64v-177h64q58 0 83 19q35 25 35 70zM247 -50h154l-57 -140h-131z" />
    <glyph glyph-name="rcommaaccent" unicode="&#x157;" horiz-adv-x="387" 
d="M386 493l-9 -151q-28 16 -65 16q-47 0 -74 -36q-25 -33 -25 -103v-219h-160v493h160l-1 -70h2q41 79 122 79q15 0 27.5 -2t17.5 -4zM91 -50h154l-57 -140h-131z" />
    <glyph glyph-name="Rcaron" unicode="&#x158;" horiz-adv-x="600" 
d="M434 285l175 -285h-188l-145 264h-51v-264h-162v690h248q115 0 182 -49q76 -56 76 -158q0 -61 -24.5 -105.5t-52 -63.5t-58.5 -29zM406 477q0 45 -35 70q-24 18 -83 18h-64v-177h64q58 0 83 19q35 25 35 70zM338 887h107l-85 -145h-152l-86 145h108l54 -93z" />
    <glyph glyph-name="rcaron" unicode="&#x159;" horiz-adv-x="387" 
d="M386 493l-9 -147h-7q-22 12 -58 12q-47 0 -74 -36q-25 -33 -25 -103v-219h-160v493h160l-1 -70h2q41 79 122 79q15 0 27.5 -2t17.5 -4zM267 690h107l-85 -145h-152l-86 145h108l54 -93z" />
    <glyph glyph-name="Sacute" unicode="&#x15a;" horiz-adv-x="552" 
d="M529 210q0 -102 -81 -165q-72 -57 -187 -57q-133 0 -245 104l80 118q37 -38 88 -62.5t92 -24.5q40 0 66 19t26 52q0 17 -7.5 30t-22.5 22t-24.5 13.5t-26.5 10.5q-98 36 -105 39q-59 28 -82 50q-54 50 -54 133q0 92 72 151q65 55 182 55q59 0 121 -24.5t98 -60.5
l-69 -113q-31 31 -73.5 50.5t-80.5 19.5q-41 0 -65.5 -16t-24.5 -46q0 -15 6 -26.5t18 -20t21.5 -13t24.5 -10.5l53.5 -20.5l49.5 -18.5q63 -23 96 -56q54 -54 54 -133zM289 887h137l-103 -145h-113z" />
    <glyph glyph-name="sacute" unicode="&#x15b;" horiz-adv-x="451" 
d="M429 152q0 -73 -58 -120q-55 -43 -151 -43q-128 0 -208 76l60 95q30 -25 73 -42.5t73 -17.5q68 0 68 42q0 20 -38 36.5t-52 17.5q-43 11 -70 23q-84 37 -84 129q0 70 53.5 112.5t133.5 42.5q115 0 189 -61l-52 -94q-23 18 -59.5 33t-64.5 15q-59 0 -59 -36q0 -27 72 -48
q42 -12 70 -23q40 -15 64 -37q40 -40 40 -100zM225 690h137l-103 -145h-113z" />
    <glyph glyph-name="Scircumflex" unicode="&#x15c;" horiz-adv-x="552" 
d="M529 210q0 -102 -81 -165q-72 -57 -187 -57q-133 0 -245 104l80 118q37 -38 88 -62.5t92 -24.5q40 0 66 19t26 52q0 17 -7.5 30t-22.5 22t-24.5 13.5t-26.5 10.5q-98 36 -105 39q-59 28 -82 50q-54 50 -54 133q0 92 72 151q65 55 182 55q59 0 121 -24.5t98 -60.5
l-69 -113q-31 31 -73.5 50.5t-80.5 19.5q-41 0 -65.5 -16t-24.5 -46q0 -15 6 -26.5t18 -20t21.5 -13t24.5 -10.5l53.5 -20.5l49.5 -18.5q63 -23 96 -56q54 -54 54 -133zM359 887l85 -145h-107l-54 92l-54 -92h-108l86 145h152z" />
    <glyph glyph-name="scircumflex" unicode="&#x15d;" horiz-adv-x="451" 
d="M429 152q0 -73 -58 -120q-55 -43 -151 -43q-128 0 -208 76l60 95q30 -25 73 -42.5t73 -17.5q68 0 68 42q0 20 -38 36.5t-52 17.5q-43 11 -70 23q-84 37 -84 129q0 70 53.5 112.5t133.5 42.5q115 0 189 -61l-52 -94q-23 18 -59.5 33t-64.5 15q-59 0 -59 -36q0 -27 72 -48
q42 -12 70 -23q40 -15 64 -37q40 -40 40 -100zM306 690l85 -145h-107l-54 92l-54 -92h-108l86 145h152z" />
    <glyph glyph-name="Scedilla" unicode="&#x15e;" horiz-adv-x="552" 
d="M529 210q0 -102 -81 -165q-35 -28 -86 -44l-73 -142h-121l84 129q-130 4 -236 104l80 118q37 -38 88 -62.5t92 -24.5q40 0 66 19t26 52q0 17 -7.5 30t-22.5 22t-24.5 13.5t-26.5 10.5q-98 36 -105 39q-59 28 -82 50q-54 50 -54 133q0 92 72 151q65 55 182 55
q59 0 121 -24.5t98 -60.5l-69 -113q-31 31 -73.5 50.5t-80.5 19.5q-41 0 -65.5 -16t-24.5 -46q0 -15 6 -26.5t18 -20t21.5 -13t24.5 -10.5l53.5 -20.5l49.5 -18.5q63 -23 96 -56q54 -54 54 -133z" />
    <glyph glyph-name="scedilla" unicode="&#x15f;" horiz-adv-x="451" 
d="M429 152q0 -73 -58 -120q-28 -21 -60 -31l-71 -139h-121l82 128q-116 5 -189 75l60 95q30 -25 73 -42.5t73 -17.5q68 0 68 42q0 20 -38 36.5t-52 17.5q-43 11 -70 23q-84 37 -84 129q0 70 53.5 112.5t133.5 42.5q115 0 189 -61l-52 -94q-23 18 -59.5 33t-64.5 15
q-59 0 -59 -36q0 -27 72 -48q42 -12 70 -23q40 -15 64 -37q40 -40 40 -100z" />
    <glyph glyph-name="Scaron" unicode="&#x160;" horiz-adv-x="552" 
d="M352 876h107l-85 -145h-152l-86 145h108l54 -92zM529 210q0 -102 -81 -165q-72 -57 -187 -57q-133 0 -245 104l80 118q37 -38 88 -62.5t92 -24.5q40 0 66 19t26 52q0 17 -7.5 30t-22.5 22t-24.5 13.5t-26.5 10.5q-98 36 -105 39q-59 28 -82 50q-54 50 -54 133
q0 92 72 151q65 55 182 55q59 0 121 -24.5t98 -60.5l-69 -113q-31 31 -73.5 50.5t-80.5 19.5q-41 0 -65.5 -16t-24.5 -46q0 -15 6 -26.5t18 -20t21.5 -13t24.5 -10.5l53.5 -20.5l49.5 -18.5q63 -23 96 -56q54 -54 54 -133z" />
    <glyph glyph-name="scaron" unicode="&#x161;" horiz-adv-x="451" 
d="M283 690h108l-86 -145h-152l-85 145h107l54 -93zM429 152q0 -73 -58 -120q-55 -43 -151 -43q-128 0 -208 76l60 95q30 -25 73 -42.5t73 -17.5q68 0 68 42q0 20 -38 36.5t-52 17.5q-43 11 -70 23q-84 37 -84 129q0 70 53.5 112.5t133.5 42.5q115 0 189 -61l-52 -94
q-23 18 -59.5 33t-64.5 15q-59 0 -59 -36q0 -27 72 -48q42 -12 70 -23q40 -15 64 -37q40 -40 40 -100z" />
    <glyph glyph-name="Tcommaaccent" unicode="&#x162;" horiz-adv-x="526" 
d="M522 690v-128h-178v-562h-162v562h-178v128h518zM203 -50h154l-57 -140h-131z" />
    <glyph glyph-name="tcommaaccent" unicode="&#x163;" horiz-adv-x="358" 
d="M347 492v-121h-109v-177q0 -45 14 -61q10 -12 38 -12q11 0 23 2.5t19 4.5l6 2l8 -125q-64 -16 -114 -16q-80 0 -120 46q-35 41 -35 145v191h-70v121h70v134h161v-134h109zM139 -50h154l-57 -140h-131z" />
    <glyph glyph-name="Tcaron" unicode="&#x164;" horiz-adv-x="526" 
d="M522 690v-128h-178v-562h-162v562h-178v128h518zM317 887h107l-85 -145h-152l-86 145h108l54 -93z" />
    <glyph glyph-name="tcaron" unicode="&#x165;" horiz-adv-x="358" 
d="M347 492v-121h-109v-177q0 -45 14 -61q10 -12 38 -12q11 0 23 2.5t19 4.5l6 2l8 -125q-64 -16 -114 -16q-80 0 -120 46q-35 41 -35 145v191h-70v121h70v134h161v-134h109zM362 799h153l-101 -249h-131z" />
    <glyph glyph-name="Tbar" unicode="&#x166;" horiz-adv-x="526" 
d="M522 690v-128h-178v-162h87v-125h-87v-275h-162v275h-88v125h88v162h-178v128h518z" />
    <glyph glyph-name="tbar" unicode="&#x167;" horiz-adv-x="358" 
d="M333 318v-103h-95v-21q0 -45 14 -61q10 -12 38 -12q11 0 23 2.5t19 4.5l6 2l8 -125q-64 -16 -114 -16q-80 0 -120 46q-35 41 -35 145v35h-61v103h61v53h-70v121h70v134h161v-134h109v-121h-109v-53h95z" />
    <glyph glyph-name="Utilde" unicode="&#x168;" horiz-adv-x="694" 
d="M636 690v-402q0 -146 -66 -217q-76 -82 -223 -82t-224 82q-65 72 -65 217v402h163v-402q0 -82 27 -115q36 -43 99 -43t99 43q27 33 27 115v402h163zM459 877l68 -10q-2 -47 -35 -81t-78 -34q-36 0 -77 22q-3 2 -11.5 7t-14.5 8t-14.5 6t-16.5 3q-33 0 -45 -43l-69 10
q1 47 35 81t79 34q38 0 76 -22q40 -24 57 -24q35 0 46 43z" />
    <glyph glyph-name="utilde" unicode="&#x169;" horiz-adv-x="579" 
d="M526 493v-493h-154l-1 56q-18 -26 -56.5 -46.5t-87.5 -20.5q-97 0 -141 58q-36 51 -36 148v298h160v-276q0 -96 73 -96q41 0 62 29.5t21 80.5v262h160zM402 680l68 -10q-2 -47 -35 -81t-78 -34q-36 0 -77 22q-3 2 -11.5 7t-14.5 8t-14.5 6t-16.5 3q-33 0 -45 -43l-69 10
q1 47 35 81t79 34q37 0 76 -22q40 -24 57 -24q35 0 46 43z" />
    <glyph glyph-name="Umacron" unicode="&#x16a;" horiz-adv-x="694" 
d="M636 690v-402q0 -146 -66 -217q-76 -82 -223 -82t-224 82q-65 72 -65 217v402h163v-402q0 -82 27 -115q36 -43 99 -43t99 43q27 33 27 115v402h163zM505 854v-77h-317v77h317z" />
    <glyph glyph-name="umacron" unicode="&#x16b;" horiz-adv-x="579" 
d="M526 493v-493h-154l-1 56q-18 -26 -56.5 -46.5t-87.5 -20.5q-97 0 -141 58q-36 51 -36 148v298h160v-276q0 -96 73 -96q41 0 62 29.5t21 80.5v262h160zM448 657v-77h-317v77h317z" />
    <glyph glyph-name="Ubreve" unicode="&#x16c;" horiz-adv-x="694" 
d="M636 690v-402q0 -146 -66 -217q-76 -82 -223 -82t-224 82q-65 72 -65 217v402h163v-402q0 -82 27 -115q36 -43 99 -43t99 43q27 33 27 115v402h163zM447 881h69q-9 -66 -54 -99.5t-115 -33.5t-115.5 33.5t-54.5 99.5h70q19 -57 100 -57t100 57z" />
    <glyph glyph-name="ubreve" unicode="&#x16d;" horiz-adv-x="579" 
d="M526 493v-493h-154l-1 56q-18 -26 -56.5 -46.5t-87.5 -20.5q-97 0 -141 58q-36 51 -36 148v298h160v-276q0 -96 73 -96q41 0 62 29.5t21 80.5v262h160zM390 684h69q-9 -66 -54 -99.5t-115 -33.5t-115.5 33.5t-54.5 99.5h70q19 -57 100 -57t100 57z" />
    <glyph glyph-name="Uring" unicode="&#x16e;" horiz-adv-x="694" 
d="M636 690v-402q0 -146 -66 -217q-76 -82 -223 -82t-224 82q-65 72 -65 217v402h163v-402q0 -82 27 -115q36 -43 99 -43t99 43q27 33 27 115v402h163zM462 840q0 -47 -33 -74.5t-82 -27.5t-82 27.5t-33 74.5q0 48 33 75.5t82 27.5t82 -27.5t33 -75.5zM398 840
q0 22 -14 35.5t-37 13.5t-37 -13.5t-14 -35.5t14 -35t37 -13t37 13t14 35z" />
    <glyph glyph-name="uring" unicode="&#x16f;" horiz-adv-x="579" 
d="M526 493v-493h-154l-1 56q-18 -26 -56.5 -46.5t-87.5 -20.5q-97 0 -141 58q-36 51 -36 148v298h160v-276q0 -96 73 -96q41 0 62 29.5t21 80.5v262h160zM404 643q0 -47 -33 -74.5t-82 -27.5t-82 27.5t-33 74.5q0 48 33 75.5t82 27.5t82 -27.5t33 -75.5zM340 643
q0 22 -14 35.5t-37 13.5t-37 -13.5t-14 -35.5t14 -35t37 -13t37 13t14 35z" />
    <glyph glyph-name="Uhungarumlaut" unicode="&#x170;" horiz-adv-x="694" 
d="M636 690v-402q0 -146 -66 -217q-76 -82 -223 -82t-224 82q-65 72 -65 217v402h163v-402q0 -82 27 -115q36 -43 99 -43t99 43q27 33 27 115v402h163zM455 887h134l-105 -145h-111zM277 887h133l-105 -145h-111z" />
    <glyph glyph-name="uhungarumlaut" unicode="&#x171;" horiz-adv-x="579" 
d="M526 493v-493h-154l-1 56q-18 -26 -56.5 -46.5t-87.5 -20.5q-97 0 -141 58q-36 51 -36 148v298h160v-276q0 -96 73 -96q41 0 62 29.5t21 80.5v262h160zM370 690h134l-105 -145h-111zM192 690h133l-105 -145h-111z" />
    <glyph glyph-name="Uogonek" unicode="&#x172;" horiz-adv-x="694" 
d="M474 -117l21 -41q-6 -5 -16.5 -12.5t-41.5 -20.5t-59 -13q-51 0 -84 23t-33 67q0 61 59 104q-130 7 -197 81q-65 72 -65 217v402h163v-402q0 -82 27 -115q36 -43 99 -43t99 43q27 33 27 115v402h163v-402q0 -146 -66 -217q-58 -62 -157 -77q-62 -40 -62 -86q0 -24 17 -35
t39 -11q35 0 67 21z" />
    <glyph glyph-name="uogonek" unicode="&#x173;" horiz-adv-x="579" 
d="M511 -117l21 -41q-6 -5 -16.5 -12.5t-41.5 -20.5t-59 -13q-51 0 -84 23t-33 67q0 68 74 114l-1 56q-18 -26 -56.5 -46.5t-87.5 -20.5q-97 0 -141 58q-36 51 -36 148v298h160v-276q0 -96 73 -96q41 0 62 29.5t21 80.5v262h160v-493q-67 0 -102.5 -29.5t-35.5 -62.5
q0 -24 17 -35t39 -11q36 0 67 21z" />
    <glyph glyph-name="Wcircumflex" unicode="&#x174;" horiz-adv-x="982" 
d="M816 690h169l-200 -690h-163l-131 473l-131 -473h-163l-200 690h169l120 -465l124 465h162l125 -465zM567 887l85 -145h-107l-54 92l-54 -92h-108l86 145h152z" />
    <glyph glyph-name="wcircumflex" unicode="&#x175;" horiz-adv-x="823" 
d="M659 493h162l-162 -493h-151l-96 302l-97 -302h-151l-162 493h162l87 -315l95 315h131l95 -315zM488 690l85 -145h-107l-54 92l-54 -92h-108l86 145h152z" />
    <glyph glyph-name="Ycircumflex" unicode="&#x176;" horiz-adv-x="620" 
d="M451 690h180l-240 -411v-279h-162v279l-240 411h180l141 -275zM386 887l85 -145h-107l-54 92l-54 -92h-108l86 145h152z" />
    <glyph glyph-name="ycircumflex" unicode="&#x177;" horiz-adv-x="544" 
d="M386 493h165l-220 -540q-30 -72 -65.5 -107t-94.5 -35q-37 0 -71.5 6t-49.5 12l-16 6l32 118q35 -13 59 -13q12 0 18 1t15 8.5t15 22.5l18 43l-195 478h167l112 -317zM348 690l85 -145h-107l-54 92l-54 -92h-108l86 145h152z" />
    <glyph glyph-name="Ydieresis" unicode="&#x178;" horiz-adv-x="620" 
d="M468 804q0 -30 -19.5 -48.5t-48.5 -18.5t-48 18.5t-19 48.5t19 48.5t48 18.5t48.5 -18.5t19.5 -48.5zM287 804q0 -30 -19 -48.5t-48 -18.5t-48.5 18.5t-19.5 48.5t19.5 48.5t48.5 18.5t48 -18.5t19 -48.5zM451 690h180l-240 -411v-279h-162v279l-240 411h180l141 -275z
" />
    <glyph glyph-name="Zacute" unicode="&#x179;" horiz-adv-x="613" 
d="M588 134v-134h-558v117l338 442h-328v131h537v-110l-341 -446h352zM303 887h137l-103 -145h-113z" />
    <glyph glyph-name="zacute" unicode="&#x17a;" horiz-adv-x="496" 
d="M480 127v-127h-464v92l249 279h-238v121h441v-89l-246 -276h258zM238 690h137l-103 -145h-113z" />
    <glyph glyph-name="Zdotaccent" unicode="&#x17b;" horiz-adv-x="613" 
d="M588 134v-134h-558v117l338 442h-328v131h537v-110l-341 -446h352zM374 816q0 -29 -20 -48.5t-48 -19.5q-29 0 -48.5 19.5t-19.5 48.5t19.5 48t48.5 19q28 0 48 -19t20 -48z" />
    <glyph glyph-name="zdotaccent" unicode="&#x17c;" horiz-adv-x="496" 
d="M480 127v-127h-464v92l249 279h-238v121h441v-89l-246 -276h258zM316 619q0 -29 -20 -48.5t-48 -19.5q-29 0 -48.5 19.5t-19.5 48.5t19.5 48t48.5 19q28 0 48 -19t20 -48z" />
    <glyph glyph-name="Zcaron" unicode="&#x17d;" horiz-adv-x="613" 
d="M363 876h107l-85 -145h-152l-86 145h108l54 -92zM588 134v-134h-558v117l338 442h-328v131h537v-110l-341 -446h352z" />
    <glyph glyph-name="zcaron" unicode="&#x17e;" horiz-adv-x="496" 
d="M302 690h107l-85 -145h-152l-86 145h108l54 -93zM480 127v-127h-464v92l249 279h-238v121h441v-89l-246 -276h258z" />
    <glyph glyph-name="florin" unicode="&#x192;" 
d="M579 694l-36 -111q-25 17 -56 17q-27 0 -40.5 -20t-21.5 -59l-15 -80h107l-20 -108h-107l-51 -275q-18 -93 -62.5 -140t-135.5 -47q-22 0 -45 5.5t-35.5 11t-16.5 8.5l39 115q22 -11 52 -11q38 0 55 50q3 10 17 73l40 210h-94l20 108h94l17 93q13 66 27 93q27 51 58 73
q38 25 89 25q59 0 121 -31z" />
    <glyph glyph-name="AEacute" unicode="&#x1fc;" horiz-adv-x="927" 
d="M891 131v-131h-427v140h-241l-79 -140h-182l417 690h503v-129h-257v-139h241v-129h-241v-162h266zM294 266h170v297h-3zM612 887h137l-103 -145h-113z" />
    <glyph glyph-name="aeacute" unicode="&#x1fd;" horiz-adv-x="865" 
d="M844 261l-3 -53h-351q4 -49 39.5 -76t86.5 -27q79 0 148 47l63 -83q-1 0 -10 -8t-17 -13.5t-23 -15t-33 -16t-40 -13.5t-50.5 -10.5t-59.5 -3.5q-127 0 -198 81q-43 -43 -86.5 -62t-110.5 -19q-76 0 -128 40.5t-52 116.5q0 40 17 70t46 46.5t61 24.5t70 10l122 5v12
q0 38 -26 58t-75 20q-82 0 -151 -44l-42 104q100 50 211 50q89 0 137 -30q14 -9 38 -33q61 63 170 63t178 -67t69 -174zM491 299h203q-1 38 -27.5 68.5t-72.5 30.5q-47 0 -73.5 -30t-29.5 -69zM350 141q-16 40 -16 76l-76 -4q-79 -5 -79 -61q0 -28 20.5 -44.5t53.5 -16.5
q30 0 58 16t39 34zM433 690h137l-103 -145h-113z" />
    <glyph glyph-name="Oslashacute" unicode="&#x1fe;" horiz-adv-x="788" 
d="M417 876h136l-102 -145h-114zM760 344q0 -163 -104 -259.5t-262 -96.5q-127 0 -219 63l-74 -75l-72 70l72 73q-73 92 -73 225q0 163 104 260t262 97q127 0 219 -63l75 76l72 -70l-73 -74q73 -92 73 -226zM217 236l290 295q-49 32 -113 32q-88 0 -145 -59t-57 -156
q0 -62 25 -112zM596 348q0 59 -23 107l-288 -293q49 -30 109 -30q88 0 145 59.5t57 156.5z" />
    <glyph glyph-name="oslashacute" unicode="&#x1ff;" horiz-adv-x="596" 
d="M310 690h137l-102 -145h-114zM511 514l61 -59l-52 -51q51 -67 51 -159q0 -117 -77 -186.5t-196 -69.5q-92 0 -160 42l-55 -53l-61 59l52 51q-50 68 -50 157q0 117 77.5 187t196.5 70q89 0 158 -41zM191 198l167 164q-25 17 -60 17q-52 0 -83.5 -36.5t-31.5 -94.5
q0 -26 8 -50zM414 248q0 26 -8 48l-166 -163q26 -16 58 -16q53 0 84.5 36.5t31.5 94.5z" />
    <glyph glyph-name="dotlessj" unicode="&#x237;" horiz-adv-x="270" 
d="M215 493v-481q0 -103 -41 -148q-50 -55 -137 -55q-24 0 -45 2.5t-30 4.5l-9 2l3 124q20 -6 45 -6q31 0 42.5 20.5t11.5 63.5v473h160z" />
    <glyph glyph-name="circumflex" unicode="&#x2c6;" horiz-adv-x="417" 
d="M285 690l85 -145h-107l-54 92l-54 -92h-108l86 145h152z" />
    <glyph glyph-name="caron" unicode="&#x2c7;" horiz-adv-x="417" 
d="M263 690h107l-85 -145h-152l-86 145h108l54 -93z" />
    <glyph glyph-name="breve" unicode="&#x2d8;" horiz-adv-x="417" 
d="M309 684h69q-9 -66 -54 -99.5t-115 -33.5t-115.5 33.5t-54.5 99.5h70q19 -57 100 -57t100 57z" />
    <glyph glyph-name="dotaccent" unicode="&#x2d9;" horiz-adv-x="417" 
d="M277 619q0 -29 -20 -48.5t-48 -19.5q-29 0 -48.5 19.5t-19.5 48.5t19.5 48t48.5 19q28 0 48 -19t20 -48z" />
    <glyph glyph-name="ring" unicode="&#x2da;" horiz-adv-x="417" 
d="M324 643q0 -47 -33 -74.5t-82 -27.5t-82 27.5t-33 74.5q0 48 33 75.5t82 27.5t82 -27.5t33 -75.5zM260 643q0 22 -14 35.5t-37 13.5t-37 -13.5t-14 -35.5t14 -35t37 -13t37 13t14 35z" />
    <glyph glyph-name="ogonek" unicode="&#x2db;" horiz-adv-x="417" 
d="M305 -117l21 -41q-6 -5 -16.5 -12.5t-41.5 -20.5t-59 -13q-51 0 -84 23t-33 67q0 70 82 119h81v-5q-29 -16 -51 -41.5t-22 -50.5q0 -24 17 -35t39 -11q36 0 67 21z" />
    <glyph glyph-name="tilde" unicode="&#x2dc;" horiz-adv-x="417" 
d="M321 680l68 -10q-2 -47 -35 -81t-78 -34q-36 0 -77 22q-3 2 -11.5 7t-14.5 8t-14.5 6t-16.5 3q-33 0 -45 -43l-69 10q1 47 35 81t79 34q38 0 76 -22q40 -24 57 -24q35 0 46 43z" />
    <glyph glyph-name="hungarumlaut" unicode="&#x2dd;" horiz-adv-x="417" 
d="M272 690h134l-105 -145h-111zM94 690h133l-105 -145h-111z" />
    <glyph glyph-name="Wgrave" unicode="&#x1e80;" horiz-adv-x="982" 
d="M816 690h169l-200 -690h-163l-131 473l-131 -473h-163l-200 690h169l120 -465l124 465h162l125 -465zM519 887l80 -145h-114l-102 145h136z" />
    <glyph glyph-name="wgrave" unicode="&#x1e81;" horiz-adv-x="823" 
d="M659 493h162l-162 -493h-151l-96 302l-97 -302h-151l-162 493h162l87 -315l95 315h131l95 -315zM439 690l80 -145h-114l-102 145h136z" />
    <glyph glyph-name="Wacute" unicode="&#x1e82;" horiz-adv-x="982" 
d="M816 690h169l-200 -690h-163l-131 473l-131 -473h-163l-200 690h169l120 -465l124 465h162l125 -465zM462 887h137l-103 -145h-113z" />
    <glyph glyph-name="wacute" unicode="&#x1e83;" horiz-adv-x="823" 
d="M659 493h162l-162 -493h-151l-96 302l-97 -302h-151l-162 493h162l87 -315l95 315h131l95 -315zM382 690h137l-103 -145h-113z" />
    <glyph glyph-name="Wdieresis" unicode="&#x1e84;" horiz-adv-x="982" 
d="M816 690h169l-200 -690h-163l-131 473l-131 -473h-163l-200 690h169l120 -465l124 465h162l125 -465zM649 814q0 -30 -19 -48t-48 -18t-48.5 18.5t-19.5 47.5q0 30 19.5 48.5t48.5 18.5t48 -18.5t19 -48.5zM467 814q0 -30 -19 -48t-48 -18t-48.5 18.5t-19.5 47.5
q0 30 19.5 48.5t48.5 18.5t48 -18.5t19 -48.5z" />
    <glyph glyph-name="wdieresis" unicode="&#x1e85;" horiz-adv-x="823" 
d="M659 493h162l-162 -493h-151l-96 302l-97 -302h-151l-162 493h162l87 -315l95 315h131l95 -315zM570 617q0 -30 -19 -48t-48 -18t-48.5 18.5t-19.5 47.5q0 30 19.5 48.5t48.5 18.5t48 -18.5t19 -48.5zM388 617q0 -30 -19 -48t-48 -18t-48.5 18.5t-19.5 47.5
q0 30 19.5 48.5t48.5 18.5t48 -18.5t19 -48.5z" />
    <glyph glyph-name="Ygrave" unicode="&#x1ef2;" horiz-adv-x="620" 
d="M451 690h180l-240 -411v-279h-162v279l-240 411h180l141 -275zM308 887l80 -145h-114l-102 145h136z" />
    <glyph glyph-name="ygrave" unicode="&#x1ef3;" horiz-adv-x="544" 
d="M386 493h165l-220 -540q-30 -72 -65.5 -107t-94.5 -35q-37 0 -71.5 6t-49.5 12l-16 6l32 118q35 -13 59 -13q12 0 18 1t15 8.5t15 22.5l18 43l-195 478h167l112 -317zM270 690l80 -145h-114l-102 145h136z" />
    <glyph glyph-name="endash" unicode="&#x2013;" horiz-adv-x="481" 
d="M481 328v-120h-481v120h481z" />
    <glyph glyph-name="emdash" unicode="&#x2014;" horiz-adv-x="925" 
d="M909 328v-120h-893v120h893z" />
    <glyph glyph-name="quoteleft" unicode="&#x2018;" horiz-adv-x="354" 
d="M168 690h131l-79 -249h-154z" />
    <glyph glyph-name="quoteright" unicode="&#x2019;" horiz-adv-x="354" 
d="M134 690h153l-101 -249h-131z" />
    <glyph glyph-name="quotesinglbase" unicode="&#x201a;" horiz-adv-x="354" 
d="M134 131h153l-101 -249h-131z" />
    <glyph glyph-name="quotedblleft" unicode="&#x201c;" horiz-adv-x="569" 
d="M387 690h124l-79 -249h-147zM171 690h125l-79 -249h-148z" />
    <glyph glyph-name="quotedblright" unicode="&#x201d;" horiz-adv-x="569" 
d="M352 690h148l-102 -249h-124zM137 690h147l-102 -249h-124z" />
    <glyph glyph-name="quotedblbase" unicode="&#x201e;" horiz-adv-x="569" 
d="M352 131h148l-102 -249h-124zM137 131h147l-102 -249h-124z" />
    <glyph glyph-name="dagger" unicode="&#x2020;" horiz-adv-x="663" 
d="M592 492v-118h-196v-530h-129v530h-196v118h196v236h129v-236h196z" />
    <glyph glyph-name="daggerdbl" unicode="&#x2021;" horiz-adv-x="663" 
d="M592 186v-118h-196v-224h-129v224h-196v118h196v201h-196v118h196v223h129v-223h196v-118h-196v-201h196z" />
    <glyph glyph-name="bullet" unicode="&#x2022;" horiz-adv-x="603" 
d="M468 365q0 -68 -49 -117.5t-117 -49.5t-117.5 49.5t-49.5 117.5t49.5 117.5t117.5 49.5t117 -49.5t49 -117.5z" />
    <glyph glyph-name="ellipsis" unicode="&#x2026;" horiz-adv-x="972" 
d="M894 75q0 -39 -26 -61.5t-67 -22.5q-42 0 -67.5 22.5t-25.5 61.5t25.5 62t67.5 23q41 0 67 -23t26 -62zM579 75q0 -39 -25.5 -61.5t-67.5 -22.5t-67.5 22.5t-25.5 61.5t25.5 62t67.5 23t67.5 -23t25.5 -62zM264 75q0 -39 -25.5 -61.5t-67.5 -22.5t-67.5 22.5t-25.5 61.5
t25.5 62t67.5 23t67.5 -23t25.5 -62z" />
    <glyph glyph-name="perthousand" unicode="&#x2030;" horiz-adv-x="1259" 
d="M1217 166q0 -80 -50 -129.5t-129 -49.5t-129 49.5t-50 129.5t50 129.5t129 49.5t129 -49.5t50 -129.5zM823 166q0 -80 -50 -129.5t-129 -49.5t-129 49.5t-50 129.5t50 129.5t129 49.5t129 -49.5t50 -129.5zM613 708l68 -41l-429 -691l-69 41zM399 518q0 -81 -50 -130.5
t-129 -49.5t-129 50t-50 130t50 129.5t129 49.5t129 -49.5t50 -129.5zM1114 168q0 39 -20 62.5t-56 23.5q-35 0 -54 -23.5t-19 -62.5t19 -63t54 -24q36 0 56 24t20 63zM719 168q0 39 -19.5 62.5t-55.5 23.5q-35 0 -54.5 -23.5t-19.5 -62.5t19.5 -63t54.5 -24q36 0 55.5 24
t19.5 63zM296 519q0 39 -20 63t-56 24q-35 0 -54 -24t-19 -63t19 -63t54 -24q36 0 56 24t20 63z" />
    <glyph glyph-name="guilsinglleft" unicode="&#x2039;" horiz-adv-x="366" 
d="M183 246l118 -161l-79 -55l-160 216l160 217l79 -56z" />
    <glyph glyph-name="guilsinglright" unicode="&#x203a;" horiz-adv-x="366" 
d="M144 463l160 -217l-160 -216l-79 56l118 160l-118 162z" />
    <glyph glyph-name="fraction" unicode="&#x2044;" horiz-adv-x="274" 
d="M324 731l68 -42l-442 -715l-68 41z" />
    <glyph glyph-name="Euro" unicode="&#x20ac;" 
d="M547 179l48 -114l-6 -6q-6 -6 -11 -10.5t-15.5 -12t-21 -13.5t-27 -12.5t-34 -11t-41 -7.5t-48.5 -3q-107 0 -179 60.5t-98 178.5h-64v93h51q-1 15 -1 29v27h-50v92h66q23 110 101 173q70 58 178 58t179 -46l-37 -127q-53 50 -132 50q-107 0 -126 -108h192v-92h-210
q-1 -15 -1 -27l1 -29h210v-93h-192q7 -51 40 -80t85 -29q73 0 143 60z" />
    <glyph glyph-name="trademark" unicode="&#x2122;" horiz-adv-x="887" 
d="M802 690l27 -409h-87l-16 294h-2l-88 -294h-72l-87 294h-3l-15 -294h-88l28 409h117l83 -282h3l83 282h117zM350 690v-72h-108v-337h-86v337h-109v72h303z" />
    <glyph glyph-name="product" unicode="&#x220f;" horiz-adv-x="873" 
d="M823 309v-110h-97q-28 -69 -85 -117q-97 -82 -266 -82h-234v199h-91v110h91v77h-91v110h91v194h234q167 0 266 -83q56 -48 83 -111h99v-110h-72q2 -26 2 -41q0 -14 -2 -36h72zM589 345q0 21 -3 41h-284v-77h285q2 22 2 36zM302 137h82q92 0 144 50q6 5 12 12h-238v-62z
M538 496l-10 11q-53 49 -144 49h-82v-60h236z" />
    <glyph glyph-name="minus" unicode="&#x2212;" horiz-adv-x="701" 
d="M625 403v-116h-549v116h549z" />
    <glyph glyph-name="notequal" unicode="&#x2260;" horiz-adv-x="701" 
d="M625 293v-117h-247l-24 -114h-120l24 114h-182v117h204l21 104h-225v117h247l24 114h120l-24 -114h182v-117h-204l-21 -104h225z" />
    <glyph glyph-name="lessequal" unicode="&#x2264;" horiz-adv-x="984" 
d="M358 -1q-23 0 -39.5 16.5t-16.5 39.5t16.5 39.5t39.5 16.5t39.5 -16.5t16.5 -39.5t-16.5 -39.5t-39.5 -16.5zM273 114q-23 0 -39.5 16.5t-16.5 39.5t16.5 39.5t39.5 16.5t39.5 -16.5t16.5 -39.5t-16.5 -39.5t-39.5 -16.5zM188 229q-23 0 -39.5 16.5t-16.5 39.5t16.5 39.5
t39.5 16.5t39.5 -16.5t16.5 -39.5t-16.5 -39.5t-39.5 -16.5zM358 801q23 0 39.5 -16.5t16.5 -39.5t-16.5 -39.5t-39.5 -16.5t-39.5 16.5t-16.5 39.5t16.5 39.5t39.5 16.5zM273 686q23 0 39.5 -16.5t16.5 -39.5t-16.5 -39.5t-39.5 -16.5t-39.5 16.5t-16.5 39.5t16.5 39.5
t39.5 16.5zM188 571q23 0 39.5 -16.5t16.5 -39.5t-16.5 -39.5t-39.5 -16.5t-39.5 16.5t-16.5 39.5t16.5 39.5t39.5 16.5zM928 456q23 0 39.5 -16.5t16.5 -39.5t-16.5 -39.5t-39.5 -16.5t-39.5 16.5t-16.5 39.5t16.5 39.5t39.5 16.5zM763 456q23 0 39.5 -16.5t16.5 -39.5
t-16.5 -39.5t-39.5 -16.5t-39.5 16.5t-16.5 39.5t16.5 39.5t39.5 16.5zM268 456q23 0 39.5 -16.5t16.5 -39.5t-16.5 -39.5t-39.5 -16.5t-39.5 16.5t-16.5 39.5t16.5 39.5t39.5 16.5zM103 456q23 0 39.5 -16.5t16.5 -39.5t-16.5 -39.5t-39.5 -16.5t-39.5 16.5t-16.5 39.5
t16.5 39.5t39.5 16.5zM433 456q23 0 39.5 -16.5t16.5 -39.5t-16.5 -39.5t-39.5 -16.5t-39.5 16.5t-16.5 39.5t16.5 39.5t39.5 16.5zM598 456q23 0 39.5 -16.5t16.5 -39.5t-16.5 -39.5t-39.5 -16.5t-39.5 16.5t-16.5 39.5t16.5 39.5t39.5 16.5z" />
    <glyph glyph-name="greaterequal" unicode="&#x2265;" horiz-adv-x="984" 
d="M386 456q23 0 39.5 -16.5t16.5 -39.5t-16.5 -39.5t-39.5 -16.5t-39.5 16.5t-16.5 39.5t16.5 39.5t39.5 16.5zM551 456q23 0 39.5 -16.5t16.5 -39.5t-16.5 -39.5t-39.5 -16.5t-39.5 16.5t-16.5 39.5t16.5 39.5t39.5 16.5zM881 456q23 0 39.5 -16.5t16.5 -39.5t-16.5 -39.5
t-39.5 -16.5t-39.5 16.5t-16.5 39.5t16.5 39.5t39.5 16.5zM716 456q23 0 39.5 -16.5t16.5 -39.5t-16.5 -39.5t-39.5 -16.5t-39.5 16.5t-16.5 39.5t16.5 39.5t39.5 16.5zM221 456q23 0 39.5 -16.5t16.5 -39.5t-16.5 -39.5t-39.5 -16.5t-39.5 16.5t-16.5 39.5t16.5 39.5
t39.5 16.5zM56 456q23 0 39.5 -16.5t16.5 -39.5t-16.5 -39.5t-39.5 -16.5t-39.5 16.5t-16.5 39.5t16.5 39.5t39.5 16.5zM796 571q23 0 39.5 -16.5t16.5 -39.5t-16.5 -39.5t-39.5 -16.5t-39.5 16.5t-16.5 39.5t16.5 39.5t39.5 16.5zM711 686q23 0 39.5 -16.5t16.5 -39.5
t-16.5 -39.5t-39.5 -16.5t-39.5 16.5t-16.5 39.5t16.5 39.5t39.5 16.5zM626 801q23 0 39.5 -16.5t16.5 -39.5t-16.5 -39.5t-39.5 -16.5t-39.5 16.5t-16.5 39.5t16.5 39.5t39.5 16.5zM796 229q-23 0 -39.5 16.5t-16.5 39.5t16.5 39.5t39.5 16.5t39.5 -16.5t16.5 -39.5
t-16.5 -39.5t-39.5 -16.5zM711 114q-23 0 -39.5 16.5t-16.5 39.5t16.5 39.5t39.5 16.5t39.5 -16.5t16.5 -39.5t-16.5 -39.5t-39.5 -16.5zM626 -1q-23 0 -39.5 16.5t-16.5 39.5t16.5 39.5t39.5 16.5t39.5 -16.5t16.5 -39.5t-16.5 -39.5t-39.5 -16.5z" />
    <glyph glyph-name="commaaccent" unicode="&#xf6c3;" horiz-adv-x="326" 
d="M104 -50h154l-57 -140h-131z" />
    <glyph glyph-name="apple" unicode="&#xf8ff;" horiz-adv-x="1439" 
d="M629 -62h-7q25 21 25 45q0 35 -29 41q5 -30 5 -52q0 -38 -32 -58t-72 -20q-26 0 -46.5 14.5t-20.5 39.5q0 23 15.5 32.5t30.5 9.5q9 0 13 -1q14 27 45 40v3q-3 7 -3 23q-20 -41 -55 -41q-19 0 -32 20.5t-13 50.5q0 21 18 66.5t18 59.5q0 23 -9 23q-11 0 -21.5 -12
t-11.5 -18q0 -35 -34 -53q0 -142 -116 -142q-34 0 -57 16t-23 49q0 21 12 38t31 17q25 0 25 -29q0 -21 -11 -37.5t-30 -16.5q-3 0 -8.5 2.5t-7.5 2.5q3 -12 13 -20.5t20 -8.5q16 0 29 10.5t22 33t14 39t12 46.5q-22 9 -35 31q-9 -3 -14 -3q-56 0 -56 58q0 45 32 80.5
t77 35.5q36 0 63.5 -12.5t35.5 -12.5q6 0 16 2v-4q-56 -13 -92 -63q-2 19 -16 30.5t-34 11.5q-29 0 -51.5 -24.5t-22.5 -54.5q0 -42 45 -42q8 0 14 3q-5 10 -5 28q0 20 10.5 34t21.5 14q17 0 17 -20q0 -16 -10.5 -32t-25.5 -25q8 -18 31 -28q17 68 47 105q11 13 31.5 29
t38.5 18v-5q-47 -22 -47 -109q0 -10 2 -38q32 17 32 46q0 24 -12 38v1q13 -6 15 -30q17 32 49 32q23 0 35 -21.5t12 -52.5q0 -11 -17.5 -57t-17.5 -67q0 -17 9 -17q12 0 22 15t17.5 42t13 52t12 57.5l9.5 46.5q16 -8 26 -8q11 0 34 16q-2 -12 -12.5 -57t-16.5 -79t-6 -58v-7
l1 -14q37 -8 37 -50q0 -28 -24 -48zM1393 90l-113 -22l8 -40l-70 56q-25 -57 -64 -98q17 -7 41 -7q53 0 73 41h2q-4 -23 -25.5 -37t-45.5 -14q-25 0 -53 10q-57 -59 -113 -59q-58 0 -58 95q-1 -1 -6 -1q-31 0 -53.5 28.5t-22.5 80.5q0 35 41 78.5t86 43.5q17 0 28.5 -12.5
t11.5 -39.5q0 -34 -32.5 -59t-68.5 -29q-10 -50 -10 -66q0 -17 20 -17q4 0 6 1v1q0 31 19.5 63.5t47.5 32.5q13 0 13 -20q0 -25 -23.5 -53t-49.5 -31q0 -87 56 -87q44 0 98 54q-63 30 -63 96q0 25 14.5 47t38.5 27v-3q-23 -6 -35 -27t-12 -47q0 -58 64 -86q44 49 60 102
l-90 27l39 16l-52 107l42 -13l-9 63l41 -45l24 35l24 -78l34 107l17 -28l62 37v-71h38l-82 -81l81 23l-13 -42l61 -6l-59 -28zM797 -4v-4q-8 0 -15 -5t-7 -13q0 -9 6.5 -15t15.5 -6q29 0 50 30t21 59q0 17 -11 35q-30 -63 -70 -63q-30 0 -30 42q0 27 14.5 43t29.5 19
q11 70 11 109q0 8 -9 8q-5 0 -12.5 -6t-14.5 -21t-7 -35q0 -21 -23 -138t-27 -130q-16 8 -26 8q-9 0 -33 -16l17 90l27.5 151t12.5 84q0 23 -12.5 37t-27 22.5t-27 38t-12.5 79.5q0 27 18.5 86.5t18.5 88.5q0 17 -7 17q-9 0 -23.5 -17t-24.5 -43q-2 -13 -9 -50.5l-13.5 -73
t-7.5 -38.5q-18 9 -26 9q-18 0 -31 -10q1 10 10.5 61t16 93t6.5 54q0 14 -7 14q-13 0 -30 -42h-8q5 16 9.5 25.5t15.5 18t26 8.5q40 0 47 -45l7.5 11.5t9 13t9.5 10.5t13 8.5t15 2.5q23 0 36.5 -27.5t13.5 -63.5q0 -40 -20 -99t-20 -87q0 -29 11.5 -44t26 -18.5t28 -17
t17.5 -37.5q23 38 46 38q27 0 43.5 -34.5t16.5 -64.5q0 -31 -13 -61q15 -22 15 -46q0 -35 -20 -64t-54 -29q-13 0 -22 8t-9 20q0 9 6.5 15.5t15.5 6.5h6zM171 257h-4l3 3q9 0 21 8.5t12 20.5v5q-18 -7 -39 -7t-44.5 8.5t-23.5 25.5q0 12 14 18t27 6q17 0 39.5 -11.5
t31.5 -26.5q35 15 35 46q0 19 -8 28q-27 -16 -56 -16q-47 0 -77.5 33t-30.5 89q0 15 10 43q-26 19 -26 58q0 37 23.5 69.5t56.5 32.5q3 0 7.5 -0.5t5.5 -0.5v-5h-9q-32 0 -55 -30t-23 -65q0 -33 24 -50q27 61 79 121t86 60q31 0 31 -53q0 -43 -35.5 -82.5t-81.5 -56.5v-1
q-1 -1 -1 -2q-22 -90 -22 -116q0 -15 9 -24.5t16 -11.5t12 -2q24 0 49 18q-14 10 -34 10q-22 0 -28 -6v3q9 9 25 9q26 0 42 -12q42 37 42 91q0 44 -28 44q-27 0 -44 -23.5t-17 -50.5q0 -30 18 -30q14 0 22.5 17.5t8.5 34.5q0 4 -2 12h6q2 -4 2 -12q0 -19 -11 -38.5
t-26 -19.5q-24 0 -24 38q0 27 18.5 53t45.5 26q21 0 33.5 -18.5t12.5 -44.5q0 -53 -48 -87q12 -12 12 -34q0 -37 -43 -55q1 -1 1 -4q0 -14 -13 -24.5t-27 -10.5zM1177 457h9q-23 -86 -61 -86q-17 0 -31.5 12.5t-18.5 36.5q-15 -30 -26.5 -40t-25.5 -10q-27 0 -41.5 34
t-14.5 67q0 35 37.5 82.5t67.5 47.5q17 0 24 -19q4 24 9.5 50l9 41.5t3.5 17.5q16 -8 26 -8t35 16q-55 -291 -55 -304t7 -13q13 0 26.5 25.5t19.5 49.5zM949 424h7q-13 -53 -45 -53q-38 0 -48 48q-15 -29 -26.5 -39t-24.5 -10q-27 0 -42 34t-15 67q0 35 37.5 82.5t67.5 47.5
q19 0 26 -23l5 20q19 -7 27 -7t33 15q-38 -195 -38 -211q0 -13 6 -13q14 0 30 42zM1393 424h8q-15 -53 -46 -53q-39 0 -47 48q-16 -30 -27 -39.5t-24 -9.5q-27 0 -42.5 34t-15.5 67q0 35 38 82.5t68 47.5q17 0 26 -23l5 20q19 -7 26 -7q10 0 33 15q-2 -11 -12 -61t-18 -94
t-8 -56q0 -13 7 -13q13 0 29 42zM500 424h7q-13 -53 -46 -53q-16 0 -29.5 12t-17.5 36q-15 -30 -26 -39.5t-26 -9.5q-26 0 -40.5 34t-14.5 67q0 35 38 82.5t68 47.5q15 0 24 -23l5 20q19 -7 26 -7t12.5 2t13 7.5t8.5 5.5q-2 -12 -12.5 -61.5t-18.5 -93.5t-8 -56q0 -13 8 -13
q13 0 29 42zM336 -74h-4q-18 0 -37 9.5t-19 28.5q0 21 26 21q18 0 33.5 -12.5t15.5 -28.5q0 -1 -0.5 -4t-0.5 -4q24 6 42 23t18 44q0 14 -5 29h3q6 -9 6 -29q0 -28 -20 -49t-48 -26q-15 -28 -57 -28q-27 0 -51.5 12.5t-24.5 36.5q0 12 7 20t19 8q7 0 12 -1q-64 56 -144 56
q-26 0 -85 -8q18 7 42 14t31 10q35 13 63 44t28 59q0 33 -22.5 52t-56.5 19q-71 0 -71 -41q0 -12 13.5 -19.5t29.5 -7.5q19 0 52 27v-7q-22 -31 -52 -31q-20 0 -35.5 10.5t-15.5 27.5q0 48 75 48q44 0 68 -22.5t24 -59.5q0 -28 -25 -56t-46 -41l14 -4q42 -9 70 -25.5
t53 -51.5h-1v-1q-3 0 -8.5 1.5t-8.5 1.5q-25 0 -25 -22q0 -21 24.5 -32.5t46.5 -11.5q31 0 47 21zM1091 557q-2 36 -15 36q-5 0 -8.5 -3t-6 -7t-4.5 -10.5t-3 -11l-2.5 -11.5t-1.5 -8q-25 -110 -25 -153q0 -8 7 -8q19 0 30 34t29 142zM506 -24h-12q-33 0 -33 -31
q0 -21 17 -33t39 -12q21 0 40.5 13.5t19.5 35.5q0 10 -3.5 22.5t-9 28.5t-7.5 21q-29 -10 -40 -34q14 -5 22 -16t8 -20q0 -6 -5.5 -12.5t-14.5 -6.5t-16 9.5t-7 19.5t2 15zM1306 452q2 29 17 97q0 44 -14 44q-19 0 -26 -51q-24 -132 -24 -153q0 -8 6 -8q24 0 41 71zM862 452
q1 21 17 97q0 44 -14 44q-6 0 -10 -3.5t-7 -11t-4.5 -12.5t-3 -14t-1.5 -10q-24 -132 -24 -153q0 -8 5 -8q25 0 42 71zM413 452q2 29 17 97q0 44 -14 44q-9 0 -16.5 -18t-9.5 -33q-24 -106 -24 -153q0 -8 6 -8q23 0 41 71zM212 662q0 -1 -4 -10t-9 -23.5l-11 -30.5l-12 -33
l-10 -28q40 18 69 62t29 91q0 20 -14 20q-9 0 -17 -10t-21 -38zM1182 388h2q-5 -31 -26.5 -49.5t-49.5 -22.5q0 -21 -21 -37t-49 -16q-24 0 -43.5 11.5t-19.5 37.5q0 15 12.5 29t29.5 15v-3q-13 -2 -23.5 -12.5t-10.5 -22.5q0 -41 57 -41q61 0 63 39q-2 -1 -6 -1
q-18 0 -30.5 7.5t-12.5 20.5q0 6 6 10.5t12 4.5q12 0 22 -9.5t14 -22.5q25 3 46.5 21t27.5 41zM936 356l8 -4q-6 -27 -33.5 -46.5t-60.5 -19.5h-8q-13 -13 -38 -13q-56 0 -78 42v1q35 -39 76 -39q22 0 33 10q-35 5 -68 25.5t-33 56.5q0 18 8 27l4 -3q-4 -14 -4 -22
q0 -33 32 -51t70 -22q3 6 3 14q0 18 -15 30.5t-35 12.5q-18 0 -31 -8l-3 1q12 12 33 12t38.5 -13.5t17.5 -33.5q0 -7 -2 -15h3q29 0 53 14.5t30 43.5zM960 113q28 4 46 41t18 66q0 17 -8 17q-32 0 -56 -124zM981 26v-2q19 0 42.5 27.5t23.5 51.5q0 11 -7 11
q-22 0 -40.5 -30.5t-18.5 -57.5zM200 304q-9 14 -28 24.5t-35 10.5q-31 0 -31 -18q0 -24 53 -24q21 0 41 7zM630 255l-4 1v2q-3 20 -14.5 29.5t-22.5 9.5q-7 0 -31 -11.5t-48 -11.5q-26 0 -26 20q0 13 11 19t23 6l46 -5q25 0 25 18q0 11 -9 17.5t-21 6.5q-22 0 -22 -14
q0 -11 12 -11q9 0 17 5l1 -6q-8 -4 -17 -4q-19 0 -19 15q0 8 10 14t19 6q15 0 25 -8t10 -20q0 -23 -31 -23l-46 5q-30 0 -30 -21q0 -14 21 -14q13 0 39 12.5t35 12.5q21 0 34 -14t13 -36zM800 109q-16 -1 -27 -19t-11 -38q0 -28 18 -28q4 0 7 6t5 17.5l3.5 20t3 23t1.5 18.5
zM344 -54q0 14 -12.5 23.5t-26.5 9.5q-21 0 -21 -20q0 -13 15 -19.5t30 -6.5t15 13zM306 191q33 23 33 51q0 15 -12 15q-13 0 -19 -14t-6 -29t4 -23zM1099 326h3q-6 26 -27 26q-12 0 -12 -10q0 -16 36 -16zM514 -26q-1 -4 -1 -10q0 -24 12 -24t12 9q0 15 -23 25z" />
    </font>
</defs>
</svg>
