<?xml version="1.0" standalone="no"?>
<!DOCTYPE svg PUBLIC "-//W3C//DTD SVG 1.1//EN" "http://www.w3.org/Graphics/SVG/1.1/DTD/svg11.dtd" >
<svg>
<metadata>
Created by FontForge 20090622 at Mon Oct 23 05:38:09 2017
 By deploy user
Copyright &#194;&#169; 2011 Rod McDonald. Published by Canada Type. All rights reserved.
</metadata>
<defs>
<font id="Gibson-Regular" horiz-adv-x="667" >
  <font-face 
    font-family="Gibson"
    font-weight="400"
    font-stretch="normal"
    units-per-em="1000"
    panose-1="2 0 0 0 0 0 0 0 0 0"
    ascent="800"
    descent="-200"
    x-height="474"
    cap-height="690"
    bbox="-150 -225 1420 946"
    underline-thickness="20"
    underline-position="-113"
    unicode-range="U+0020-U+FB04"
  />
<missing-glyph horiz-adv-x="200" 
 />
    <glyph glyph-name="ff" unicode="ff" horiz-adv-x="548" 
d="M586 690l-6 -71q-27 9 -54 9q-43 0 -58 -26.5t-15 -74.5v-53h113v-77h-113v-397h-95v397h-179v-397h-95v397h-68v77h68v48q0 87 32 127q42 52 114 52q24 0 44.5 -2.5t29.5 -5.5l8 -3l-6 -71q-27 9 -54 9q-43 0 -58 -26.5t-15 -74.5v-53h179v48q0 87 32 127q42 52 114 52
q24 0 44.5 -2.5t29.5 -5.5z" />
    <glyph glyph-name="fi" unicode="fi" horiz-adv-x="519" 
d="M464 631q0 -26 -17.5 -42.5t-45.5 -16.5q-27 0 -44.5 16.5t-17.5 42.5t17.5 42.5t44.5 16.5q28 0 45.5 -16.5t17.5 -42.5zM449 475v-475h-95v475h95zM309 690l-7 -71q-23 9 -50 9q-22 0 -36.5 -8.5t-21.5 -18.5t-10.5 -31t-4 -31.5t-0.5 -35.5v-29h113v-77h-113v-397h-95
v397h-68v77h68v48q0 91 32 127q46 52 118 52q18 0 36.5 -2.5t28.5 -5.5z" />
    <glyph glyph-name="fl" unicode="fl" horiz-adv-x="521" 
d="M450 690v-690h-96v690h96zM309 690l-7 -71q-20 9 -50 9q-43 0 -58 -26.5t-15 -74.5v-53h113v-77h-113v-397h-95v397h-68v77h68v52q0 75 30 120q40 55 120 55q21 0 39.5 -2.5t26.5 -5.5z" />
    <glyph glyph-name="ffi" unicode="ffi" horiz-adv-x="784" 
d="M586 690l-6 -71q-27 9 -54 9q-43 0 -58 -26.5t-15 -74.5v-53h113v-77h-113v-397h-95v397h-179v-397h-95v397h-68v77h68v48q0 87 32 127q42 52 114 52q24 0 44.5 -2.5t29.5 -5.5l8 -3l-6 -71q-27 9 -54 9q-43 0 -58 -26.5t-15 -74.5v-53h179v48q0 87 32 127q42 52 114 52
q24 0 44.5 -2.5t29.5 -5.5zM714 475v-475h-96v475h96zM728 631q0 -26 -17.5 -42.5t-44.5 -16.5q-28 0 -45.5 16.5t-17.5 42.5t17.5 42.5t45.5 16.5q27 0 44.5 -16.5t17.5 -42.5z" />
    <glyph glyph-name="ffl" unicode="ffl" horiz-adv-x="785" 
d="M586 690l-6 -71q-27 9 -54 9q-43 0 -58 -26.5t-15 -74.5v-53h113v-77h-113v-397h-95v397h-179v-397h-95v397h-68v77h68v48q0 87 32 127q42 52 114 52q24 0 44.5 -2.5t29.5 -5.5l8 -3l-6 -71q-27 9 -54 9q-43 0 -58 -26.5t-15 -74.5v-53h179v48q0 87 32 127q42 52 114 52
q24 0 44.5 -2.5t29.5 -5.5zM714 690v-690h-95v690h95z" />
    <glyph glyph-name="f_j" unicode="fj" horiz-adv-x="510" 
d="M312 690l-6 -71q-27 9 -54 9q-43 0 -58 -26.5t-15 -74.5v-53h113v-77h-113v-397h-95v397h-68v77h68v48q0 87 32 127q42 52 114 52q24 0 44.5 -2.5t29.5 -5.5zM454 631q0 -26 -17.5 -42.5t-44.5 -16.5q-28 0 -45.5 16.5t-17.5 42.5t17.5 42.5t45.5 16.5q27 0 44.5 -16.5
t17.5 -42.5zM440 475v-476q0 -94 -30 -136q-44 -59 -120 -59q-17 0 -32 2t-22 4l-6 2l1 76q20 -7 45 -7q42 0 55 30.5t13 90.5v473h96z" />
    <glyph glyph-name="f_t" unicode="ft" horiz-adv-x="585" 
d="M565 82l6 -77q-37 -16 -87 -16q-68 0 -101 49q-24 36 -24 142v217h-180v-397h-95v397h-68v77h68v48q0 87 32 127q42 52 114 52q24 0 44.5 -2.5t29.5 -5.5l8 -3l-6 -71q-27 9 -54 9q-43 0 -58 -26.5t-15 -74.5v-53h180v142h96v-142h114v-77h-114v-215q0 -65 12 -87
q14 -24 49 -24q12 0 24.5 2.5t18.5 5.5z" />
    <glyph glyph-name=".notdef" horiz-adv-x="200" 
 />
    <glyph glyph-name=".null" horiz-adv-x="0" 
 />
    <glyph glyph-name="nonmarkingreturn" horiz-adv-x="333" 
 />
    <glyph glyph-name="space" unicode=" " horiz-adv-x="199" 
 />
    <glyph glyph-name="exclam" unicode="!" horiz-adv-x="301" 
d="M101 690h100l-9 -506h-83zM217 52q0 -28 -18.5 -45t-47.5 -17q-30 0 -48.5 17t-18.5 45q0 29 18.5 46t48.5 17q29 0 47.5 -17t18.5 -46z" />
    <glyph glyph-name="quotedbl" unicode="&#x22;" horiz-adv-x="446" 
d="M258 690h92l-11 -214h-71zM96 690h92l-10 -214h-72z" />
    <glyph glyph-name="numbersign" unicode="#" horiz-adv-x="597" 
d="M560 503v-62h-121l-23 -151h112v-63h-122l-32 -208h-64l32 208h-133l-33 -208h-64l33 208h-108v63h118l23 151h-109v62h119l33 209h63l-32 -209h133l33 209h64l-33 -209h111zM352 290l23 151h-133l-24 -151h134z" />
    <glyph glyph-name="dollar" unicode="$" horiz-adv-x="586" 
d="M519 186q0 -88 -71 -143q-52 -42 -120 -49l-1 -73h-56v72q-64 1 -118.5 34t-85.5 90l58 55q20 -45 63 -73t88 -29l1 247l-37 17q-53 24 -78 44q-66 52 -66 137q0 79 59 131q48 42 127 50l1 68h56v-69q108 -9 162 -93l-49 -57q-43 69 -118 77l-1 -231l60 -28
q126 -56 126 -177zM280 411l1 212q-45 -5 -71.5 -32t-26.5 -70q0 -27 13.5 -48t28.5 -31.5t39 -22.5zM431 175q0 42 -19.5 67t-56.5 43l-25 12l-1 -228q39 2 70.5 32.5t31.5 73.5z" />
    <glyph glyph-name="percent" unicode="%" horiz-adv-x="779" 
d="M748 154q0 -74 -46 -120t-117 -46t-117 46t-46 120t46 120t117 46t117 -46t46 -120zM578 706l50 -30l-427 -699l-50 30zM357 529q0 -74 -46 -120.5t-117 -46.5t-117 46.5t-46 120.5q0 73 46 119.5t117 46.5t117 -46.5t46 -119.5zM678 155q0 46 -25.5 75t-67.5 29
t-67.5 -29t-25.5 -75t25.5 -75t67.5 -29t67.5 29t25.5 75zM287 529q0 46 -25.5 75t-67.5 29t-67.5 -29t-25.5 -75t25.5 -74.5t67.5 -28.5t67.5 28.5t25.5 74.5z" />
    <glyph glyph-name="ampersand" unicode="&#x26;" horiz-adv-x="691" 
d="M684 6v-6h-115l-85 99q-54 -55 -107 -83t-126 -28q-93 0 -153.5 51.5t-60.5 141.5q0 74 47 122.5t134 92.5q-2 2 -13 15t-14 17l-12.5 16.5t-12.5 19t-9.5 19t-9 22.5t-5 23t-2.5 26q0 67 49.5 107t126.5 40q76 0 124 -40t48 -105q0 -99 -137 -176l134 -158
q16 19 44.5 65t41.5 75l75 -34q-14 -28 -48.5 -82t-58.5 -82zM401 554q0 37 -23 57t-61 20q-37 0 -61 -22t-24 -59q0 -41 38 -85l28 -32q20 11 31.5 19t31.5 24t30 36t10 42zM430 157l-159 184l-29 -16q-31 -18 -51 -32.5t-38.5 -43.5t-18.5 -63q0 -53 37 -87.5t92 -34.5
q50 0 95 28.5t72 64.5z" />
    <glyph glyph-name="quotesingle" unicode="'" horiz-adv-x="304" 
d="M106 690h92l-10 -214h-72z" />
    <glyph glyph-name="parenleft" unicode="(" horiz-adv-x="284" 
d="M257 -115l-61 -33q-147 220 -147 459t147 459l61 -33q-45 -67 -83 -186.5t-38 -239.5t38 -239.5t83 -186.5z" />
    <glyph glyph-name="parenright" unicode=")" horiz-adv-x="284" 
d="M235 311q0 -240 -148 -459l-61 33q45 67 83 186.5t38 239.5t-38 239.5t-83 186.5l61 33q148 -219 148 -459z" />
    <glyph glyph-name="asterisk" unicode="*" horiz-adv-x="525" 
d="M427 622l22 -60l-149 -44l98 -129l-52 -36l-84 136l-83 -136l-52 36l98 129l-149 44l22 60l140 -56l-9 144h67l-9 -144z" />
    <glyph glyph-name="plus" unicode="+" 
d="M595 382v-74h-224v-224h-74v224h-225v74h225v224h74v-224h224z" />
    <glyph glyph-name="comma" unicode="," horiz-adv-x="301" 
d="M131 106h98l-92 -246h-76z" />
    <glyph glyph-name="hyphen" unicode="-" horiz-adv-x="292" 
d="M267 314v-80h-242v80h242z" />
    <glyph glyph-name="period" unicode="." horiz-adv-x="301" 
d="M217 52q0 -28 -18.5 -45t-47.5 -17q-30 0 -48.5 17t-18.5 45q0 29 18.5 46t48.5 17q29 0 47.5 -17t18.5 -46z" />
    <glyph glyph-name="slash" unicode="/" horiz-adv-x="520" 
d="M437 789l64 -28l-416 -854l-64 29z" />
    <glyph glyph-name="zero" unicode="0" horiz-adv-x="586" 
d="M557 344q0 -94 -26 -172t-87.5 -130.5t-150.5 -52.5t-150.5 52.5t-87.5 130.5t-26 172q0 95 26.5 173t88 130.5t149.5 52.5q67 0 119 -30t83 -81t46.5 -113t15.5 -132zM459 346q0 123 -42.5 197.5t-123.5 74.5t-123.5 -74.5t-42.5 -197.5q0 -122 42.5 -197t123.5 -75
t123.5 75t42.5 197z" />
    <glyph glyph-name="one" unicode="1" horiz-adv-x="436" 
d="M291 690v-690h-94v619h-135v71h229z" />
    <glyph glyph-name="two" unicode="2" horiz-adv-x="586" 
d="M542 80v-80h-466l-14 65l244 231q52 50 82 94.5t30 96.5q0 59 -38.5 96.5t-103.5 37.5q-101 0 -169 -111l-51 57q21 46 78.5 89.5t147.5 43.5q104 0 167.5 -56t63.5 -147q0 -40 -14 -78t-38 -69.5t-42.5 -51t-42.5 -41.5q-6 -5 -9 -8l-177 -169h352z" />
    <glyph glyph-name="three" unicode="3" horiz-adv-x="586" 
d="M525 193q0 -92 -70.5 -147.5t-178.5 -55.5q-134 0 -224 117l54 59q13 -16 29 -33t57.5 -40.5t81.5 -23.5q69 0 112 33.5t43 94.5q0 60 -40.5 92.5t-102.5 32.5h-51v77h51q56 0 90 29.5t34 82.5t-37.5 82.5t-92.5 29.5q-84 0 -165 -79l-45 58q41 45 91 71.5t127 26.5
q89 0 152.5 -49t63.5 -130q0 -68 -34 -105t-78 -51v-3q49 -9 91 -52.5t42 -116.5z" />
    <glyph glyph-name="four" unicode="4" horiz-adv-x="586" 
d="M566 231v-80h-100v-151h-94v151h-348v71l341 472h101v-463h100zM119 230h254v350z" />
    <glyph glyph-name="five" unicode="5" horiz-adv-x="586" 
d="M527 221q0 -108 -75.5 -170.5t-179.5 -62.5q-87 0 -144.5 36.5t-82.5 79.5l54 56q23 -40 69.5 -66t102.5 -26q65 0 112.5 39.5t47.5 113.5t-47.5 113.5t-112.5 39.5q-80 0 -122 -37l-49 29l60 324h347v-78h-277l-36 -183q41 18 98 18q92 0 163.5 -60t71.5 -166z" />
    <glyph glyph-name="six" unicode="6" horiz-adv-x="586" 
d="M544 226q0 -102 -64.5 -170t-170.5 -68q-138 0 -209 119q-48 79 -48 225q0 177 81 277q73 91 198 91q48 0 94 -16t59.5 -25.5l40.5 -28.5l-41 -65q-71 59 -152 59q-79 0 -128 -64q-59 -77 -59 -220q54 98 187 98q86 0 149 -58.5t63 -153.5zM450 216q0 63 -37.5 107
t-105.5 44t-106.5 -44t-38.5 -107t38.5 -107t106.5 -44t105.5 44t37.5 107z" />
    <glyph glyph-name="seven" unicode="7" horiz-adv-x="586" 
d="M530 690l26 -56l-332 -634h-102l326 612h-388v78h470z" />
    <glyph glyph-name="eight" unicode="8" horiz-adv-x="586" 
d="M531 191q0 -95 -66.5 -148.5t-171.5 -53.5t-171 53.5t-66 148.5q0 64 35 109t94 63v3q-108 41 -108 155q0 82 62.5 130.5t153.5 48.5t153.5 -48.5t62.5 -130.5q0 -113 -107 -156v-2q59 -19 94 -64t35 -108zM415 512q0 52 -34.5 82t-87.5 30t-87.5 -30t-34.5 -82
q0 -53 34 -82.5t88 -29.5t88 29.5t34 82.5zM435 198q0 60 -40 95.5t-102 35.5t-102 -35.5t-40 -95.5t41 -95.5t101 -35.5t101 35.5t41 95.5z" />
    <glyph glyph-name="nine" unicode="9" horiz-adv-x="586" 
d="M534 356q0 -175 -81 -277q-73 -91 -195 -91q-115 0 -200 71l41 64q24 -23 66 -40t91 -17q81 0 127 63q58 77 58 223q-21 -42 -67 -72t-120 -30q-85 0 -148.5 58.5t-63.5 153.5q0 102 64.5 170t170.5 68q136 0 209 -119q48 -77 48 -225zM424 474q0 63 -38.5 107t-106.5 44
t-105.5 -44t-37.5 -107t37.5 -107t105.5 -44t106.5 44t38.5 107z" />
    <glyph glyph-name="colon" unicode=":" horiz-adv-x="301" 
d="M217 420q0 -28 -18.5 -45.5t-47.5 -17.5q-30 0 -48.5 17.5t-18.5 45.5t18.5 45.5t48.5 17.5q29 0 47.5 -17.5t18.5 -45.5zM217 52q0 -28 -18.5 -45t-47.5 -17q-30 0 -48.5 17t-18.5 45q0 29 18.5 46t48.5 17q29 0 47.5 -17t18.5 -46z" />
    <glyph glyph-name="semicolon" unicode=";" horiz-adv-x="301" 
d="M217 420q0 -28 -18.5 -45.5t-47.5 -17.5q-30 0 -48.5 17.5t-18.5 45.5t18.5 45.5t48.5 17.5q29 0 47.5 -17.5t18.5 -45.5zM131 106h98l-92 -246h-76z" />
    <glyph glyph-name="less" unicode="&#x3c;" 
d="M595 161v-81l-523 224v82l523 224v-81l-430 -184z" />
    <glyph glyph-name="equal" unicode="=" 
d="M595 472v-73h-523v73h523zM595 291v-74h-523v74h523z" />
    <glyph glyph-name="greater" unicode="&#x3e;" 
d="M595 386v-82l-523 -224v81l430 184l-430 184v81z" />
    <glyph glyph-name="question" unicode="?" horiz-adv-x="492" 
d="M436 536q0 -38 -13.5 -70t-27 -48t-41.5 -43q-9 -9 -24.5 -23l-23.5 -21.5t-16.5 -18.5t-12.5 -21q-7 -15 -8 -37l-2 -70h-81l-2 71q-1 37 11 67t23.5 43t35.5 35l58 53q32 30 32 73q0 44 -30.5 69t-81.5 25q-46 0 -79.5 -21.5t-51.5 -52.5l-42 60q19 34 64.5 64
t122.5 30q85 0 137.5 -48.5t52.5 -115.5zM293 52q0 -28 -18 -45t-48 -17t-48 17t-18 45q0 29 18 46t48 17t48 -17t18 -46z" />
    <glyph glyph-name="at" unicode="@" horiz-adv-x="800" 
d="M759 282q0 -127 -78 -208q-68 -74 -150 -74q-72 0 -84 63q-63 -63 -128 -63q-19 0 -38 7t-38.5 23t-32 48t-12.5 76q0 63 27.5 124.5t80 103.5t115.5 42q38 0 67 -12.5t38 -25.5l10 -12l10 32h65l-85 -267q-13 -35 -8.5 -58.5t33.5 -23.5q53 0 101.5 65t48.5 158
q0 107 -77.5 178t-204.5 71q-132 0 -224.5 -91.5t-92.5 -231.5t82 -225t212 -85q22 0 44 2t40 5t37 7.5t33 9t29 11l24.5 10.5t21.5 10.5t17 9.5t14 9l8 5l22 -41q-1 -1 -10.5 -7.5l-18 -12t-25 -14.5t-32.5 -16.5t-40 -15t-48.5 -13t-56 -9t-64.5 -3.5q-150 0 -250 100
t-100 263q0 108 53 195.5t139 134t184 46.5q156 0 253 -92q89 -84 89 -208zM475 183l44 137l-2 3q-2 3 -5.5 7l-8.5 9.5t-12.5 10.5t-17 9.5t-23 7t-28.5 2.5q-64 0 -109 -64q-48 -66 -48 -145q0 -55 22.5 -78t54.5 -23q35 0 74 29.5t59 94.5z" />
    <glyph glyph-name="A" unicode="A" horiz-adv-x="650" 
d="M367 692l282 -692h-108l-71 180h-296l-71 -180h-102l281 692h85zM201 261h242l-121 310z" />
    <glyph glyph-name="B" unicode="B" horiz-adv-x="587" 
d="M548 196q0 -92 -74 -151q-57 -45 -174 -45h-224v690h186q113 0 164 -33q74 -48 74 -140q0 -53 -30 -95t-75 -56v-2q71 -15 112 -58t41 -110zM403 506q0 63 -46 88q-34 19 -95 19h-89v-219h81q75 0 103 21q46 34 46 91zM448 200q0 61 -50 95q-37 25 -121 25h-104v-241h104
q86 0 121 24q50 34 50 97z" />
    <glyph glyph-name="C" unicode="C" horiz-adv-x="665" 
d="M600 161l42 -71q-91 -102 -252 -102q-153 0 -253 98.5t-100 257.5t101 257.5t252 98.5q152 0 245 -91l-41 -78q-24 31 -79.5 57.5t-120.5 26.5q-113 0 -185 -74.5t-72 -194.5t72.5 -194.5t184.5 -74.5q129 0 206 84z" />
    <glyph glyph-name="D" unicode="D" horiz-adv-x="686" 
d="M649 345q0 -157 -107 -255q-98 -90 -258 -90h-208v690h208q160 0 258 -90q107 -98 107 -255zM550 345q0 120 -82 198q-68 64 -184 64h-111v-523h111q116 0 184 64q82 78 82 197z" />
    <glyph glyph-name="E" unicode="E" horiz-adv-x="531" 
d="M488 82v-82h-412v690h404v-81h-307v-206h290v-81h-290v-240h315z" />
    <glyph glyph-name="F" unicode="F" horiz-adv-x="494" 
d="M459 690v-81h-286v-230h269v-81h-269v-298h-97v690h383z" />
    <glyph glyph-name="G" unicode="G" horiz-adv-x="747" 
d="M682 368v-268q-112 -112 -293 -112q-150 0 -251 99t-101 258q0 158 100.5 256.5t250.5 98.5q167 0 274 -115l5 -5l-66 -61q-84 98 -213 98q-109 0 -180 -73.5t-71 -198.5q0 -124 73 -198t184 -74q40 0 74.5 6.5t55.5 15.5t36.5 18.5t21.5 16.5l6 6v153h-186v79h280z" />
    <glyph glyph-name="H" unicode="H" horiz-adv-x="714" 
d="M637 690v-690h-97v322h-367v-322h-97v690h97v-285h367v285h97z" />
    <glyph glyph-name="I" unicode="I" horiz-adv-x="249" 
d="M173 690v-690h-97v690h97z" />
    <glyph glyph-name="J" unicode="J" horiz-adv-x="249" 
d="M173 690v-688q0 -98 -31 -146q-41 -56 -111 -56q-18 0 -36 2.5t-27.5 5.5t-11.5 4l2 74q19 -8 53 -8q40 0 52.5 31.5t12.5 89.5v691h97z" />
    <glyph glyph-name="K" unicode="K" horiz-adv-x="579" 
d="M309 418l282 -418h-118l-229 346l-71 -72v-274h-97v690h97v-294l281 294h118z" />
    <glyph glyph-name="L" unicode="L" horiz-adv-x="426" 
d="M416 83v-83h-340v690h97v-607h243z" />
    <glyph glyph-name="M" unicode="M" horiz-adv-x="854" 
d="M746 690l63 -690h-96l-45 545h-3l-211 -551h-55l-211 551h-3l-44 -545h-96l62 690h120l199 -533h2l199 533h119z" />
    <glyph glyph-name="N" unicode="N" horiz-adv-x="740" 
d="M663 690v-690h-95l-398 550q2 -93 2 -183v-367h-96v690h102l391 -542q-1 85 -1 176v366h95z" />
    <glyph glyph-name="O" unicode="O" horiz-adv-x="786" 
d="M749 344q0 -161 -103 -258.5t-253 -97.5t-253 97.5t-103 258.5t103 258.5t253 97.5t253 -97.5t103 -258.5zM650 346q0 123 -74 196.5t-183 73.5t-183 -73.5t-74 -196.5q0 -122 74 -196t183 -74t183 73.5t74 196.5z" />
    <glyph glyph-name="P" unicode="P" horiz-adv-x="531" 
d="M504 493q0 -92 -67 -148q-57 -49 -167 -49h-97v-296h-97v690h194q110 0 167 -49q67 -58 67 -148zM404 493q0 61 -42 91q-38 27 -100 27h-89v-236h89q62 0 100 26q42 31 42 92z" />
    <glyph glyph-name="Q" unicode="Q" horiz-adv-x="786" 
d="M749 344q0 -154 -96 -253l76 -87l-63 -56l-79 91q-87 -51 -194 -51q-150 0 -253 97.5t-103 258.5t103 258.5t253 97.5t253 -97.5t103 -258.5zM650 346q0 123 -74 196.5t-183 73.5t-183 -73.5t-74 -196.5q0 -122 74 -196t183 -74q72 0 132 34l-58 66l63 56l59 -68
q61 74 61 182z" />
    <glyph glyph-name="R" unicode="R" horiz-adv-x="540" 
d="M347 307l197 -307h-117l-180 297h-74v-297h-97v690h195q105 0 166 -48q67 -54 67 -146q0 -83 -46.5 -130t-110.5 -59zM404 494q0 61 -44 92q-34 25 -116 25h-71v-234h71q82 0 116 24q44 33 44 93z" />
    <glyph glyph-name="S" unicode="S" horiz-adv-x="534" 
d="M498 192q0 -91 -72 -150q-66 -54 -169 -54q-42 0 -79.5 11.5t-66.5 33t-44 36t-33 35.5l57 65q30 -40 76.5 -69.5t98.5 -29.5q58 0 96.5 31.5t38.5 84.5q0 25 -11 45t-33.5 34.5t-33.5 20t-34 14.5q-81 32 -110 46q-42 19 -69 49q-45 47 -45 120q0 80 63 133
q61 51 159 51q113 0 198 -89l-51 -66q-70 74 -152 74q-53 0 -86.5 -25t-33.5 -71q0 -23 7.5 -40.5t22 -30t27.5 -19.5t32 -15l127 -53q50 -23 78 -56q42 -52 42 -116z" />
    <glyph glyph-name="T" unicode="T" horiz-adv-x="501" 
d="M493 690v-81h-194v-609h-97v609h-195v81h486z" />
    <glyph glyph-name="U" unicode="U" 
d="M596 690v-408q0 -73 -11 -122t-44 -88q-73 -84 -207 -84q-135 0 -207 84q-33 39 -44.5 88t-11.5 122v408h98v-399q0 -37 1.5 -58.5t8.5 -49.5t22 -47q45 -61 133 -61q86 0 133 61q15 19 22 47t8.5 50t1.5 58v399h97z" />
    <glyph glyph-name="V" unicode="V" horiz-adv-x="596" 
d="M493 690h102l-254 -691h-86l-254 691h104l194 -550z" />
    <glyph glyph-name="W" unicode="W" horiz-adv-x="929" 
d="M822 690h102l-199 -691h-95l-166 558l-165 -558h-95l-199 691h102l149 -544l159 544h99l159 -544z" />
    <glyph glyph-name="X" unicode="X" horiz-adv-x="579" 
d="M352 356l229 -356h-117l-175 293l-174 -293h-116l228 356l-212 334h114l160 -269l161 269h114z" />
    <glyph glyph-name="Y" unicode="Y" horiz-adv-x="575" 
d="M467 690h109l-240 -401v-289h-97v289l-240 401h109l179 -317z" />
    <glyph glyph-name="Z" unicode="Z" horiz-adv-x="566" 
d="M541 83v-83h-511v74l377 534h-366v82h493v-66l-383 -541h390z" />
    <glyph glyph-name="bracketleft" unicode="[" horiz-adv-x="284" 
d="M241 -84v-56h-189v901h189v-57h-106v-788h106z" />
    <glyph glyph-name="backslash" unicode="\" horiz-adv-x="516" 
d="M82 795l413 -800l-61 -29l-412 801z" />
    <glyph glyph-name="bracketright" unicode="]" horiz-adv-x="284" 
d="M239 761v-901h-189v56h106v788h-106v57h189z" />
    <glyph glyph-name="asciicircum" unicode="^" 
d="M375 699l182 -399h-81l-142 317l-143 -317h-81l182 399h83z" />
    <glyph glyph-name="underscore" unicode="_" horiz-adv-x="500" 
d="M500 37v-75h-500v75h500z" />
    <glyph glyph-name="grave" unicode="`" horiz-adv-x="335" 
d="M170 690l89 -145h-73l-110 145h94z" />
    <glyph glyph-name="a" unicode="a" horiz-adv-x="492" 
d="M435 276v-276h-93l-1 60q-67 -71 -151 -71q-69 0 -116.5 40t-47.5 107q0 68 50 104.5t136 40.5l127 5v19q0 52 -32 80t-86 28q-77 0 -143 -41l-29 64q84 48 178 48q103 0 157 -54q51 -53 51 -154zM340 126v102l-111 -7q-108 -6 -108 -82q0 -35 26 -58.5t72 -23.5
q75 0 121 69z" />
    <glyph glyph-name="b" unicode="b" horiz-adv-x="597" 
d="M563 238q0 -108 -63.5 -178.5t-167.5 -70.5q-109 0 -167 86h-2v-75h-92v690h95v-289h2q59 83 166 83q103 0 166 -69.5t63 -176.5zM465 239q0 73 -40.5 120t-110.5 47t-111 -47t-41 -120t41 -120.5t111 -47.5t110.5 47.5t40.5 120.5z" />
    <glyph glyph-name="c" unicode="c" horiz-adv-x="475" 
d="M430 131l34 -70q-41 -41 -89 -57q-45 -15 -101 -15q-99 0 -169.5 68.5t-70.5 179.5t72 179t171 68q57 0 103 -17.5t59.5 -29t21.5 -21.5l-34 -70q-58 58 -142 58q-65 0 -109.5 -45.5t-44.5 -118.5q0 -75 43 -122t112 -47q41 0 77 15t51 30z" />
    <glyph glyph-name="d" unicode="d" horiz-adv-x="597" 
d="M526 690v-690h-92v76h-2q-58 -87 -167 -87q-104 0 -167.5 70.5t-63.5 178.5q0 107 63 176.5t166 69.5q110 0 166 -83h2v289h95zM434 239q0 73 -40.5 120t-110.5 47t-110.5 -47t-40.5 -120t40.5 -120.5t110.5 -47.5t110.5 47.5t40.5 120.5z" />
    <glyph glyph-name="e" unicode="e" horiz-adv-x="529" 
d="M500 257l-3 -42h-366q4 -70 45.5 -110.5t107.5 -40.5q18 0 36 2.5t32.5 7t27 9.5t23.5 11.5l17.5 10.5t13 9t7.5 5l40 -55l-4 -4q-4 -4 -8.5 -7.5l-12.5 -10t-18 -12l-22.5 -12t-28 -11.5t-32.5 -9t-38.5 -6.5t-44.5 -2.5q-106 0 -172 68t-66 181q0 110 69.5 178
t171.5 68q99 0 162 -63.5t63 -163.5zM132 279h277q-1 48 -36.5 92t-100.5 44t-101 -42.5t-39 -93.5z" />
    <glyph glyph-name="f" unicode="f" horiz-adv-x="274" 
d="M312 690l-6 -71q-27 9 -54 9q-43 0 -58 -26.5t-15 -74.5v-53h113v-77h-113v-397h-95v397h-68v77h68v48q0 87 32 127q42 52 114 52q24 0 44.5 -2.5t29.5 -5.5z" />
    <glyph glyph-name="g" unicode="g" horiz-adv-x="593" 
d="M526 475v-375q0 -143 -52 -205q-74 -91 -212 -91q-113 0 -212 71l45 67q23 -20 72.5 -40t97.5 -20q89 0 130 52q36 44 36 133v24h-2q-57 -85 -166 -85q-96 0 -162.5 65t-66.5 174t66.5 174t162.5 65q58 0 100.5 -23.5t65.5 -60.5h3l-1 75h95zM434 245q0 70 -40 116
t-111 46q-70 0 -110.5 -46t-40.5 -116t40 -115.5t111 -45.5t111 45.5t40 115.5z" />
    <glyph glyph-name="h" unicode="h" horiz-adv-x="548" 
d="M484 283v-283h-96v269q0 29 -3.5 50.5t-13 42.5t-30 32t-51.5 11q-62 0 -93 -47t-31 -123v-235h-95v690h95v-290h2q20 37 58 60.5t88 23.5q96 0 133 -53t37 -148z" />
    <glyph glyph-name="i" unicode="i" horiz-adv-x="236" 
d="M180 631q0 -26 -17.5 -42.5t-44.5 -16.5q-28 0 -45.5 16.5t-17.5 42.5t17.5 42.5t45.5 16.5q27 0 44.5 -16.5t17.5 -42.5zM166 475v-475h-96v475h96z" />
    <glyph glyph-name="j" unicode="j" horiz-adv-x="236" 
d="M180 631q0 -26 -17.5 -42.5t-44.5 -16.5q-28 0 -45.5 16.5t-17.5 42.5t17.5 42.5t45.5 16.5q27 0 44.5 -16.5t17.5 -42.5zM166 475v-476q0 -94 -30 -136q-44 -59 -120 -59q-17 0 -32 2t-22 4l-6 2l1 76q20 -7 45 -7q42 0 55 30.5t13 90.5v473h96z" />
    <glyph glyph-name="k" unicode="k" horiz-adv-x="487" 
d="M286 296l210 -296h-112l-163 230l-55 -52v-178h-95v690h95v-405l194 190h112z" />
    <glyph glyph-name="l" unicode="l" horiz-adv-x="237" 
d="M166 690v-690h-95v690h95z" />
    <glyph glyph-name="m" unicode="m" horiz-adv-x="816" 
d="M754 288v-288h-95v277q0 128 -87 128q-54 0 -84 -45t-30 -113v-247h-96v277q0 128 -86 128q-54 0 -84 -45t-30 -113v-247h-96v475h96l-1 -75h3q18 35 55 59.5t82 24.5q108 0 141 -94q50 94 151 94q161 0 161 -196z" />
    <glyph glyph-name="n" unicode="n" horiz-adv-x="541" 
d="M479 281v-281h-96v265q0 69 -20 104.5t-79 35.5q-63 0 -92.5 -46t-29.5 -120v-239h-96v475h96l-1 -75h3q20 37 57.5 60.5t87.5 23.5q94 0 132 -54t38 -149z" />
    <glyph glyph-name="o" unicode="o" horiz-adv-x="571" 
d="M537 236q0 -109 -72 -178t-179 -69q-108 0 -180 69t-72 178t72 178.5t180 69.5q107 0 179 -69.5t72 -178.5zM440 239q0 72 -42 119.5t-112 47.5t-112.5 -47.5t-42.5 -119.5t42.5 -120t112.5 -48t112 48t42 120z" />
    <glyph glyph-name="p" unicode="p" horiz-adv-x="596" 
d="M562 238q0 -108 -63.5 -178.5t-167.5 -70.5q-109 0 -164 85l-1 1v-261h-96v661h92v-75h2q63 84 169 84q103 0 166 -69.5t63 -176.5zM464 239q0 73 -40.5 120t-110.5 47t-110.5 -47t-40.5 -120t40.5 -120.5t110.5 -47.5t110.5 47.5t40.5 120.5z" />
    <glyph glyph-name="q" unicode="q" horiz-adv-x="592" 
d="M526 475v-661h-95v260h-2q-56 -85 -164 -85q-104 0 -167.5 70.5t-63.5 178.5q0 107 63 176.5t166 69.5q107 0 169 -84h3l-1 75h92zM434 239q0 73 -40.5 120t-110.5 47t-110.5 -47t-40.5 -120t40.5 -120.5t110.5 -47.5t110.5 47.5t40.5 120.5z" />
    <glyph glyph-name="r" unicode="r" horiz-adv-x="335" 
d="M331 476l-6 -89h-4q-22 10 -52 10q-47 0 -78 -40q-29 -42 -29 -120v-237h-96v475h96l-1 -73h3q35 82 117 82q14 0 26.5 -2t18.5 -4z" />
    <glyph glyph-name="s" unicode="s" horiz-adv-x="414" 
d="M386 139q0 -67 -49 -108q-51 -42 -132 -42q-120 0 -185 85l46 56q26 -32 65.5 -50t74.5 -18q38 0 64.5 16t26.5 52q0 12 -6 23t-14 18t-22 14t-22.5 10t-24 8l-18.5 6q-52 18 -65 25q-75 38 -75 114q0 63 46.5 99.5t113.5 36.5q104 0 162 -62l-40 -59q-49 51 -120 51
q-35 0 -55.5 -15t-20.5 -44q0 -26 24 -41.5t69 -29.5l64 -23q36 -15 55 -34q38 -36 38 -88z" />
    <glyph glyph-name="t" unicode="t" horiz-adv-x="311" 
d="M291 82l6 -77q-37 -16 -87 -16q-68 0 -101 49q-24 36 -24 142v217h-70v77h70v142h96v-142h114v-77h-114v-215q0 -65 12 -87q14 -24 49 -24q12 0 24.5 2.5t18.5 5.5z" />
    <glyph glyph-name="u" unicode="u" horiz-adv-x="536" 
d="M470 476v-476h-93l-1 68q-20 -36 -59 -57.5t-88 -21.5q-89 0 -132 55q-35 47 -35 147v285h95v-281q0 -58 20.5 -92t78.5 -34q59 0 88.5 43.5t29.5 108.5v255h96z" />
    <glyph glyph-name="v" unicode="v" horiz-adv-x="482" 
d="M382 475h99l-198 -475h-84l-198 475h100l141 -358z" />
    <glyph glyph-name="w" unicode="w" horiz-adv-x="761" 
d="M654 475h97l-157 -475h-88l-125 355l-126 -355h-88l-157 475h97l110 -359l125 360h77l125 -360z" />
    <glyph glyph-name="x" unicode="x" horiz-adv-x="496" 
d="M304 250l193 -250h-108l-141 193l-141 -193h-108l193 250l-171 225h106l121 -171l121 171h107z" />
    <glyph glyph-name="y" unicode="y" horiz-adv-x="479" 
d="M382 476l99 -1l-229 -558q-24 -60 -54 -85t-71 -25q-24 0 -46.5 4.5t-32.5 8.5l-11 4l19 78q26 -11 50 -11q11 0 16 1t14 5.5t17 16.5t15 33l23 63l-190 466l100 -1l141 -369z" />
    <glyph glyph-name="z" unicode="z" horiz-adv-x="456" 
d="M435 79v-79h-414v59l278 338h-264v77h386v-58l-277 -337h291z" />
    <glyph glyph-name="braceleft" unicode="{" horiz-adv-x="284" 
d="M246 -84v-56h-44q-73 0 -100 35t-27 114v182q0 83 -64 83v72q64 0 64 84v181q0 80 27 115t100 35h44v-57h-22q-38 0 -52.5 -14.5t-14.5 -51.5v-199q0 -63 -17 -89t-55 -38v-4q38 -12 55 -37.5t17 -88.5v-200q0 -37 14.5 -51.5t52.5 -14.5h22z" />
    <glyph glyph-name="bar" unicode="|" horiz-adv-x="284" 
d="M177 800v-919h-70v919h70z" />
    <glyph glyph-name="braceright" unicode="}" horiz-adv-x="284" 
d="M272 346v-72q-63 0 -63 -83v-182q0 -79 -27 -114t-100 -35h-45v56h23q38 0 52 14t14 52v200q0 63 17 88.5t56 37.5v4q-39 12 -56 38t-17 89v199q0 38 -14 52t-52 14h-23v57h45q73 0 100 -35t27 -115v-181q0 -84 63 -84z" />
    <glyph glyph-name="asciitilde" unicode="~" 
d="M539 369l51 -49q-61 -101 -149 -101q-45 0 -119 37q-70 34 -98 34q-52 0 -96 -70l-51 49q62 101 149 101q47 0 119 -37q66 -34 98 -34q54 0 96 70z" />
    <glyph glyph-name="nbspace" unicode="&#xa0;" horiz-adv-x="199" 
 />
    <glyph glyph-name="exclamdown" unicode="&#xa1;" horiz-adv-x="301" 
d="M217 423q0 -28 -18.5 -45.5t-47.5 -17.5q-30 0 -48.5 17.5t-18.5 45.5t18.5 45.5t48.5 17.5q29 0 47.5 -17.5t18.5 -45.5zM192 292l9 -507h-100l8 507h83z" />
    <glyph glyph-name="cent" unicode="&#xa2;" horiz-adv-x="586" 
d="M482 189l28 -68q-17 -19 -63 -40t-91 -22v-89h-59v90q-97 10 -159 77t-62 168q0 100 62 167.5t159 78.5v89h59v-88q47 -3 90 -21.5t61 -38.5l-30 -70q-44 46 -121 53v-337q35 1 72 17t54 34zM297 142v330q-58 -10 -93 -57t-35 -109t34 -107.5t94 -56.5z" />
    <glyph glyph-name="sterling" unicode="&#xa3;" horiz-adv-x="586" 
d="M537 77v-77h-475v77h117q14 23 24.5 61.5t10.5 67.5l-7 79h-115v64h104l-22 62q-23 65 -23 114q0 75 53 125q52 50 138 50q117 0 173 -83l-46 -55l-4 6l-7 8.5t-10 10.5t-13 11.5t-16 10.5t-19.5 9.5t-23 6t-27.5 2.5q-55 0 -81.5 -31.5t-26.5 -73.5q0 -48 25 -116
l20 -57h150v-64h-139q7 -41 7 -79q0 -29 -10.5 -67.5t-24.5 -61.5h268z" />
    <glyph glyph-name="currency" unicode="&#xa4;" horiz-adv-x="586" 
d="M510 144l40 -64l-4 -5q-3 -5 -6 -8.5t-9.5 -10.5t-13 -12.5t-16.5 -13t-20.5 -13t-24.5 -11.5t-28.5 -9.5t-33 -6t-37.5 -2.5q-100 0 -167.5 69t-87.5 192h-67v65l60 1q-1 19 -1 35v34h-59v65h68q17 109 86 180q68 71 170 71q98 0 176 -68l-33 -75q-51 65 -141 65
q-60 0 -102.5 -43t-55.5 -130h249v-65h-258v-34l1 -36h257v-65h-249q10 -84 52.5 -130.5t106.5 -46.5q81 0 145 69z" />
    <glyph glyph-name="yen" unicode="&#xa5;" horiz-adv-x="586" 
d="M461 690h108l-172 -293h122v-65h-158l-20 -40v-34h178v-65h-178v-193h-96v193h-178v65h178v33l-19 41h-159v65h122l-172 293h109l167 -313z" />
    <glyph glyph-name="brokenbar" unicode="&#xa6;" horiz-adv-x="284" 
d="M177 800v-313h-70v313h70zM177 312v-312h-70v312h70z" />
    <glyph glyph-name="section" unicode="&#xa7;" horiz-adv-x="611" 
d="M515 251q0 -28 -10 -52.5t-24.5 -40t-29.5 -27t-25 -15.5l-10 -5q34 -18 59.5 -55t25.5 -87q0 -75 -57.5 -120t-141.5 -45q-152 0 -206 121l63 44q18 -45 57.5 -70t88.5 -25q48 0 77 23.5t29 67.5q0 41 -29 65.5t-88 51.5l-86 40q-99 47 -99 146q0 33 12.5 61t31 45
t33 26.5t25.5 13.5q-3 2 -8 5t-17 15t-21.5 25.5t-17.5 36t-8 46.5q0 72 51.5 115t130.5 43q137 0 193 -106l-54 -47q-45 86 -136 86q-44 0 -70.5 -22t-26.5 -63q0 -37 28 -61t85 -50l69 -31q106 -50 106 -155zM432 244q0 60 -67 92l-103 45q-71 -24 -71 -102q0 -56 66 -91
l103 -45q72 25 72 101z" />
    <glyph glyph-name="dieresis" unicode="&#xa8;" horiz-adv-x="335" 
d="M297 617q0 -23 -15.5 -38t-37.5 -15t-37 15t-15 38q0 24 15 39t37 15t37.5 -15t15.5 -39zM143 617q0 -23 -15 -38t-37 -15t-37.5 15t-15.5 38q0 24 15.5 39t37.5 15t37 -15t15 -39z" />
    <glyph glyph-name="copyright" unicode="&#xa9;" horiz-adv-x="787" 
d="M750 345q0 -150 -103.5 -253t-252.5 -103q-150 0 -253 103t-103 253t103 253t253 103q149 0 252.5 -103t103.5 -253zM703 345q0 128 -90.5 218.5t-218.5 90.5t-218.5 -90.5t-90.5 -218.5t90.5 -218.5t218.5 -90.5t218.5 90.5t90.5 218.5zM533 240l31 -44
q-20 -24 -60 -43.5t-95 -19.5q-89 0 -149 59.5t-60 152.5t60 152.5t149 59.5q100 0 151 -58l-32 -48q-15 19 -46 34.5t-71 15.5q-61 0 -102.5 -40.5t-41.5 -113.5t40.5 -114t103.5 -41q72 0 122 48z" />
    <glyph glyph-name="ordfeminine" unicode="&#xaa;" horiz-adv-x="351" 
d="M299 351v-163h-69l-1 36q-13 -15 -38.5 -28t-55.5 -13q-41 0 -72.5 23.5t-31.5 67.5q0 83 116 87l81 3v6q0 31 -20 47t-52 16q-27 0 -53 -9t-35 -17l-23 45q50 32 117 32q70 0 104 -34q33 -32 33 -99zM228 264v59l-66 -2q-57 -4 -57 -44q0 -46 56 -46q23 0 41.5 11.5
t25.5 21.5z" />
    <glyph glyph-name="guillemotleft" unicode="&#xab;" horiz-adv-x="489" 
d="M303 238l119 -161l-53 -37l-148 198l148 198l53 -39zM137 238l119 -161l-53 -37l-149 198l149 198l52 -39z" />
    <glyph glyph-name="logicalnot" unicode="&#xac;" horiz-adv-x="669" 
d="M595 466v-299h-74v225h-449v74h523z" />
    <glyph glyph-name="uni00AD" unicode="&#xad;" horiz-adv-x="292" 
d="M267 314v-80h-242v80h242z" />
    <glyph glyph-name="registered" unicode="&#xae;" horiz-adv-x="787" 
d="M750 345q0 -150 -103.5 -253t-252.5 -103q-150 0 -253 103t-103 253t103 253t253 103q149 0 252.5 -103t103.5 -253zM703 345q0 128 -90.5 218.5t-218.5 90.5t-218.5 -90.5t-90.5 -218.5t90.5 -218.5t218.5 -90.5t218.5 90.5t90.5 218.5zM444 317l111 -178h-77l-99 171
h-51v-171h-64v412l142 -1q54 0 91.5 -32t37.5 -87q0 -52 -27.5 -79t-63.5 -35zM469 430q0 67 -86 67h-55v-134h55q86 0 86 67z" />
    <glyph glyph-name="macron" unicode="&#xaf;" horiz-adv-x="335" 
d="M297 647v-55h-259v55h259z" />
    <glyph glyph-name="degree" unicode="&#xb0;" horiz-adv-x="412" 
d="M360 584q0 -65 -45 -108.5t-109 -43.5t-109 43.5t-45 108.5q0 64 45 107.5t109 43.5t109 -43.5t45 -107.5zM304 584q0 40 -28.5 68.5t-69.5 28.5t-69 -28.5t-28 -68.5t28 -69t69 -29t69.5 29t28.5 69z" />
    <glyph glyph-name="plusminus" unicode="&#xb1;" 
d="M595 469v-73h-224v-195h-75v195h-224v73h224v195h75v-195h224zM595 159v-73h-523v73h523z" />
    <glyph glyph-name="twosuperior" unicode="&#xb2;" horiz-adv-x="379" 
d="M342 349v-60h-296l-5 52l158 154q35 35 49.5 57.5t14.5 48.5q0 30 -22 48.5t-60 18.5q-72 0 -99 -76l-46 29q6 44 47 75.5t103 31.5q65 0 106.5 -34t41.5 -87q0 -13 -3 -26t-6 -22.5t-11.5 -22.5t-12 -19t-15.5 -19t-15 -16l-17 -16.5l-15 -14.5l-103 -102h206z" />
    <glyph glyph-name="threesuperior" unicode="&#xb3;" horiz-adv-x="379" 
d="M346 413q0 -58 -45 -93.5t-109 -35.5q-56 0 -95.5 24t-55.5 70l48 31q11 -31 37.5 -48.5t61.5 -17.5q36 0 61.5 19.5t25.5 51.5q0 34 -24.5 53.5t-62.5 20.5h-25v56h29q31 1 52 19t21 48q0 26 -20 43t-53 17q-65 0 -93 -59l-40 34q16 37 51.5 59.5t84.5 22.5
q58 0 99 -31.5t41 -81.5q0 -69 -70 -96v-2q36 -10 58.5 -38.5t22.5 -65.5z" />
    <glyph glyph-name="acute" unicode="&#xb4;" horiz-adv-x="335" 
d="M165 690h94l-110 -145h-73z" />
    <glyph glyph-name="mu" unicode="&#xb5;" horiz-adv-x="541" 
d="M475 474v-474h-93l-1 64q-17 -26 -54.5 -48.5t-78.5 -22.5q-34 0 -58 11.5t-32 26.5l2 -217h-94v660h95v-268q0 -64 22 -99.5t79 -35.5q60 0 88.5 37.5t28.5 101.5v264h96z" />
    <glyph glyph-name="paragraph" unicode="&#xb6;" horiz-adv-x="601" 
d="M544 690v-69h-52v-807h-72v807h-91v-807h-73v463q-92 2 -148.5 55.5t-56.5 151.5q0 100 58.5 153t166.5 53h268z" />
    <glyph glyph-name="periodcentered" unicode="&#xb7;" horiz-adv-x="339" 
d="M235 289q0 -28 -18.5 -45.5t-47.5 -17.5t-47 17.5t-18 45.5t18 45t47 17t47.5 -17t18.5 -45z" />
    <glyph glyph-name="cedilla" unicode="&#xb8;" horiz-adv-x="350" 
d="M192 0h67l-81 -146h-87z" />
    <glyph glyph-name="onesuperior" unicode="&#xb9;" horiz-adv-x="379" 
d="M261 718v-430h-72v376h-83v54h155z" />
    <glyph glyph-name="ordmasculine" unicode="&#xba;" horiz-adv-x="394" 
d="M353 333q0 -65 -44.5 -107.5t-111.5 -42.5t-111.5 42.5t-44.5 107.5q0 66 44.5 108.5t111.5 42.5t111.5 -42.5t44.5 -108.5zM281 336q0 42 -24.5 66.5t-59.5 24.5q-36 0 -60.5 -24t-24.5 -67t24.5 -68.5t60.5 -25.5q35 0 59.5 25.5t24.5 68.5z" />
    <glyph glyph-name="guillemotright" unicode="&#xbb;" horiz-adv-x="489" 
d="M286 436l148 -198l-148 -198l-52 38l118 160l-119 160zM119 436l149 -198l-149 -198l-52 38l118 160l-119 160z" />
    <glyph glyph-name="onequarter" unicode="&#xbc;" horiz-adv-x="890" 
d="M817 146v-58h-63v-88h-71v88h-226v44l230 305h67v-291h63zM579 706l50 -30l-427 -699l-50 30zM223 690v-400h-72v346h-84v54h156zM536 146h147v201z" />
    <glyph glyph-name="onehalf" unicode="&#xbd;" horiz-adv-x="891" 
d="M830 61v-61h-293l-10 46l144 135q72 68 72 114q0 33 -22 52.5t-57 19.5q-58 0 -100 -68l-40 42q43 87 149 87q60 0 100.5 -34.5t40.5 -87.5q0 -33 -15.5 -64t-30 -46.5t-42.5 -41.5l-99 -93h203zM575 706l50 -30l-427 -699l-50 30zM221 690v-415h-72v361h-84v54h156z" />
    <glyph glyph-name="threequarters" unicode="&#xbe;" horiz-adv-x="890" 
d="M817 146v-58h-63v-88h-71v88h-226v44l230 305h67v-291h63zM346 413q0 -58 -45 -93.5t-109 -35.5q-56 0 -95.5 24t-55.5 70l48 31q11 -31 37.5 -48.5t61.5 -17.5q36 0 61.5 19.5t25.5 51.5q0 34 -24.5 53.5t-62.5 20.5h-25v56h29q31 1 52 19t21 48q0 26 -20 43t-53 17
q-65 0 -93 -59l-40 34q16 37 51.5 59.5t84.5 22.5q58 0 99 -31.5t41 -81.5q0 -69 -70 -96v-2q36 -10 58.5 -38.5t22.5 -65.5zM623 706l50 -30l-427 -699l-50 30zM536 146h147v201z" />
    <glyph glyph-name="questiondown" unicode="&#xbf;" horiz-adv-x="492" 
d="M332 422q0 -28 -18.5 -45.5t-47.5 -17.5q-30 0 -48.5 17.5t-18.5 45.5t18.5 45.5t48.5 17.5q29 0 47.5 -17.5t18.5 -45.5zM391 -72l43 -60q-56 -93 -188 -93q-85 0 -137 48t-52 115q0 38 13 70t27.5 49t41.5 43q9 9 24 22.5l23 21t16.5 18.5t13.5 21q7 19 7 38l2 70h81
l2 -71q1 -37 -11 -66.5t-24 -43.5t-35 -35l-58 -54q-32 -29 -32 -73q0 -43 31 -68t81 -25q88 0 131 73z" />
    <glyph glyph-name="Agrave" unicode="&#xc0;" horiz-adv-x="650" 
d="M275 887l89 -145h-73l-110 145h94zM367 692l282 -692h-108l-71 180h-296l-71 -180h-102l281 692h85zM201 261h242l-121 310z" />
    <glyph glyph-name="Aacute" unicode="&#xc1;" horiz-adv-x="650" 
d="M375 887h94l-110 -145h-73zM367 692l282 -692h-108l-71 180h-296l-71 -180h-102l281 692h85zM201 261h242l-121 310z" />
    <glyph glyph-name="Acircumflex" unicode="&#xc2;" horiz-adv-x="650" 
d="M364 887l92 -145h-70l-61 99l-61 -99h-70l92 145h78zM367 692l282 -692h-108l-71 180h-296l-71 -180h-102l281 692h85zM201 261h242l-121 310z" />
    <glyph glyph-name="Atilde" unicode="&#xc3;" horiz-adv-x="650" 
d="M434 863l47 -10q-3 -40 -30 -66t-62 -26q-10 0 -20 1.5t-18 4.5t-13 5.5l-12 6t-8 4.5q-1 0 -13.5 8t-23.5 12t-22 4q-16 0 -28 -12.5t-15 -29.5l-47 10q2 40 29.5 66t62.5 26q10 0 20 -1.5t18 -4.5t13 -5.5l12 -6t8 -4.5q1 0 13.5 -8t23.5 -12t22 -4q16 0 28 12.5
t15 29.5zM367 692l282 -692h-108l-71 180h-296l-71 -180h-102l281 692h85zM201 261h242l-121 310z" />
    <glyph glyph-name="Adieresis" unicode="&#xc4;" horiz-adv-x="650" 
d="M454 811q0 -24 -15.5 -39t-37.5 -15t-37 15t-15 39t15 38.5t37 14.5t37.5 -15t15.5 -38zM301 811q0 -24 -15 -39t-37 -15t-37.5 15t-15.5 39q0 23 15.5 38t37.5 15t37 -15t15 -38zM367 692l282 -692h-108l-71 180h-296l-71 -180h-102l281 692h85zM201 261h242l-121 310z
" />
    <glyph glyph-name="Aring" unicode="&#xc5;" horiz-adv-x="650" 
d="M425 822q0 -41 -29 -68t-71 -27t-71 27t-29 68t29 68t71 27t71 -27t29 -68zM367 692l282 -692h-108l-71 180h-296l-71 -180h-102l281 692h85zM377 822q0 22 -14.5 37t-37.5 15t-37.5 -15t-14.5 -37q0 -23 15 -38t37 -15t37 15t15 38zM201 261h242l-121 310z" />
    <glyph glyph-name="AE" unicode="&#xc6;" horiz-adv-x="879" 
d="M836 82v-82h-384v182h-263l-110 -182h-109l434 690h424v-81h-279v-202h262v-81h-262v-244h287zM238 262h214v349h-2z" />
    <glyph glyph-name="Ccedilla" unicode="&#xc7;" horiz-adv-x="665" 
d="M600 161l42 -71q-87 -97 -232 -101l-64 -139h-98l83 143q-120 15 -207 107t-87 244q0 159 101 257.5t252 98.5q152 0 245 -91l-41 -78q-24 31 -79.5 57.5t-120.5 26.5q-113 0 -185 -74.5t-72 -194.5t72.5 -194.5t184.5 -74.5q129 0 206 84z" />
    <glyph glyph-name="Egrave" unicode="&#xc8;" horiz-adv-x="531" 
d="M245 887l88 -145h-72l-110 145h94zM488 82v-82h-412v690h404v-81h-307v-206h290v-81h-290v-240h315z" />
    <glyph glyph-name="Eacute" unicode="&#xc9;" horiz-adv-x="531" 
d="M300 887h93l-110 -145h-72zM488 82v-82h-412v690h404v-81h-307v-206h290v-81h-290v-240h315z" />
    <glyph glyph-name="Ecircumflex" unicode="&#xca;" horiz-adv-x="531" 
d="M317 887l92 -145h-70l-61 99l-61 -99h-70l92 145h78zM488 82v-82h-412v690h404v-81h-307v-206h290v-81h-290v-240h315z" />
    <glyph glyph-name="Edieresis" unicode="&#xcb;" horiz-adv-x="531" 
d="M407 811q0 -24 -15 -39t-37 -15t-37.5 15t-15.5 39q0 23 15.5 38t37.5 15t37 -14.5t15 -38.5zM254 811q0 -24 -15 -39t-37 -15t-37.5 15t-15.5 39q0 23 15.5 38t37.5 15t37 -14.5t15 -38.5zM488 82v-82h-412v690h404v-81h-307v-206h290v-81h-290v-240h315z" />
    <glyph glyph-name="Igrave" unicode="&#xcc;" horiz-adv-x="249" 
d="M84 887l89 -145h-73l-110 145h94zM173 690v-690h-97v690h97z" />
    <glyph glyph-name="Iacute" unicode="&#xcd;" horiz-adv-x="249" 
d="M166 887h93l-110 -145h-72zM173 690v-690h-97v690h97z" />
    <glyph glyph-name="Icircumflex" unicode="&#xce;" horiz-adv-x="249" 
d="M164 887l91 -145h-70l-60 99l-61 -99h-70l91 145h79zM173 690v-690h-97v690h97z" />
    <glyph glyph-name="Idieresis" unicode="&#xcf;" horiz-adv-x="249" 
d="M254 814q0 -23 -15.5 -38t-37.5 -15t-37 15t-15 38q0 24 15 39t37 15t37.5 -15t15.5 -39zM101 814q0 -23 -15.5 -38t-37.5 -15t-37 14.5t-15 38.5t15 39t37 15t37.5 -15t15.5 -39zM173 690v-690h-97v690h97z" />
    <glyph glyph-name="Eth" unicode="&#xd0;" horiz-adv-x="686" 
d="M649 345q0 -157 -107 -255q-98 -90 -258 -90h-208v325h-65v72h65v293h208q160 0 258 -90q107 -98 107 -255zM550 345q0 120 -82 198q-68 64 -184 64h-111v-210h175v-71h-175v-242h111q116 0 184 64q82 78 82 197z" />
    <glyph glyph-name="Ntilde" unicode="&#xd1;" horiz-adv-x="740" 
d="M479 863l47 -10q-3 -40 -30 -66t-62 -26q-10 0 -20 1.5t-18 4.5t-13 5.5l-12 6t-8 4.5q-1 0 -13.5 8t-23.5 12t-22 4q-34 0 -44 -42l-46 10q2 40 29 66t62 26q11 0 20.5 -1.5t18 -4.5t13.5 -5.5l12 -6t8 -4.5t13.5 -8.5t23.5 -11.5t21 -4q17 0 29 12t15 30zM663 690v-690
h-95l-398 550q2 -93 2 -183v-367h-96v690h102l391 -542q-1 85 -1 176v366h95z" />
    <glyph glyph-name="Ograve" unicode="&#xd2;" horiz-adv-x="786" 
d="M341 887l88 -145h-72l-110 145h94zM749 344q0 -161 -103 -258.5t-253 -97.5t-253 97.5t-103 258.5t103 258.5t253 97.5t253 -97.5t103 -258.5zM650 346q0 123 -74 196.5t-183 73.5t-183 -73.5t-74 -196.5q0 -122 74 -196t183 -74t183 73.5t74 196.5z" />
    <glyph glyph-name="Oacute" unicode="&#xd3;" horiz-adv-x="786" 
d="M446 887h93l-110 -145h-72zM749 344q0 -161 -103 -258.5t-253 -97.5t-253 97.5t-103 258.5t103 258.5t253 97.5t253 -97.5t103 -258.5zM650 346q0 123 -74 196.5t-183 73.5t-183 -73.5t-74 -196.5q0 -122 74 -196t183 -74t183 73.5t74 196.5z" />
    <glyph glyph-name="Ocircumflex" unicode="&#xd4;" horiz-adv-x="786" 
d="M432 887l92 -145h-70l-61 99l-61 -99h-70l92 145h78zM749 344q0 -161 -103 -258.5t-253 -97.5t-253 97.5t-103 258.5t103 258.5t253 97.5t253 -97.5t103 -258.5zM650 346q0 123 -74 196.5t-183 73.5t-183 -73.5t-74 -196.5q0 -122 74 -196t183 -74t183 73.5t74 196.5z
" />
    <glyph glyph-name="Otilde" unicode="&#xd5;" horiz-adv-x="786" 
d="M502 863l47 -10q-2 -40 -29.5 -66t-62.5 -26q-10 0 -20 1.5t-18 4.5t-13 5.5l-12 6t-8 4.5q-1 0 -13.5 8t-23.5 12t-22 4q-16 0 -28 -12.5t-15 -29.5l-47 10q3 40 30 66t62 26q10 0 20 -1.5t18 -4.5t13 -5.5l12 -6t8 -4.5q1 0 13.5 -8t23.5 -12t22 -4q16 0 28 12.5
t15 29.5zM749 344q0 -161 -103 -258.5t-253 -97.5t-253 97.5t-103 258.5t103 258.5t253 97.5t253 -97.5t103 -258.5zM650 346q0 123 -74 196.5t-183 73.5t-183 -73.5t-74 -196.5q0 -122 74 -196t183 -74t183 73.5t74 196.5z" />
    <glyph glyph-name="Odieresis" unicode="&#xd6;" horiz-adv-x="786" 
d="M522 811q0 -24 -15 -39t-37 -15t-37.5 15t-15.5 39q0 23 15.5 38t37.5 15t37 -15t15 -38zM369 811q0 -24 -15 -39t-37 -15t-37.5 15t-15.5 39q0 23 15.5 38t37.5 15t37 -15t15 -38zM749 344q0 -161 -103 -258.5t-253 -97.5t-253 97.5t-103 258.5t103 258.5t253 97.5
t253 -97.5t103 -258.5zM650 346q0 123 -74 196.5t-183 73.5t-183 -73.5t-74 -196.5q0 -122 74 -196t183 -74t183 73.5t74 196.5z" />
    <glyph glyph-name="multiply" unicode="&#xd7;" 
d="M387 344l200 -200l-52 -54l-201 201l-202 -201l-51 54l200 200l-200 200l51 54l202 -201l201 201l52 -54z" />
    <glyph glyph-name="Oslash" unicode="&#xd8;" horiz-adv-x="786" 
d="M749 344q0 -161 -102.5 -258.5t-253.5 -97.5q-132 0 -228 76l-78 -80l-48 48l77 79q-79 95 -79 233q0 161 103 258.5t253 97.5q133 0 229 -75l79 81l48 -48l-79 -81q79 -93 79 -233zM185 181l373 379q-70 56 -165 56q-109 0 -183 -73.5t-74 -196.5q0 -97 49 -165z
M650 346q0 95 -47 164l-372 -379q71 -55 162 -55q109 0 183 73.5t74 196.5z" />
    <glyph glyph-name="Ugrave" unicode="&#xd9;" 
d="M300 887l89 -145h-73l-110 145h94zM596 690v-408q0 -73 -11 -122t-44 -88q-73 -84 -207 -84q-135 0 -207 84q-33 39 -44.5 88t-11.5 122v408h98v-399q0 -37 1.5 -58.5t8.5 -49.5t22 -47q45 -61 133 -61q86 0 133 61q15 19 22 47t8.5 50t1.5 58v399h97z" />
    <glyph glyph-name="Uacute" unicode="&#xda;" 
d="M367 887h94l-110 -145h-72zM596 690v-408q0 -73 -11 -122t-44 -88q-73 -84 -207 -84q-135 0 -207 84q-33 39 -44.5 88t-11.5 122v408h98v-399q0 -37 1.5 -58.5t8.5 -49.5t22 -47q45 -61 133 -61q86 0 133 61q15 19 22 47t8.5 50t1.5 58v399h97z" />
    <glyph glyph-name="Ucircumflex" unicode="&#xdb;" 
d="M373 887l91 -145h-70l-60 99l-61 -99h-70l91 145h79zM596 690v-408q0 -73 -11 -122t-44 -88q-73 -84 -207 -84q-135 0 -207 84q-33 39 -44.5 88t-11.5 122v408h98v-399q0 -37 1.5 -58.5t8.5 -49.5t22 -47q45 -61 133 -61q86 0 133 61q15 19 22 47t8.5 50t1.5 58v399h97z
" />
    <glyph glyph-name="Udieresis" unicode="&#xdc;" 
d="M463 811q0 -24 -15.5 -39t-37.5 -15t-37 15t-15 39q0 23 15 38t37 15t37.5 -15t15.5 -38zM310 811q0 -24 -15.5 -39t-37.5 -15t-37 15t-15 39t15 38.5t37 14.5t37.5 -15t15.5 -38zM596 690v-408q0 -73 -11 -122t-44 -88q-73 -84 -207 -84q-135 0 -207 84q-33 39 -44.5 88
t-11.5 122v408h98v-399q0 -37 1.5 -58.5t8.5 -49.5t22 -47q45 -61 133 -61q86 0 133 61q15 19 22 47t8.5 50t1.5 58v399h97z" />
    <glyph glyph-name="Yacute" unicode="&#xdd;" horiz-adv-x="575" 
d="M321 887h93l-110 -145h-72zM467 690h109l-240 -401v-289h-97v289l-240 401h109l179 -317z" />
    <glyph glyph-name="Thorn" unicode="&#xde;" horiz-adv-x="527" 
d="M495 363q0 -91 -66 -148q-59 -49 -168 -49h-88v-166h-97v690h97v-130h88q109 0 168 -49q66 -58 66 -148zM395 363q0 62 -43 91q-36 27 -100 27h-79v-237h79q62 0 100 27q43 31 43 92z" />
    <glyph glyph-name="germandbls" unicode="&#xdf;" horiz-adv-x="559" 
d="M525 207q0 -98 -66.5 -156t-177.5 -58l-57 6l6 75q19 -5 47 -5q62 0 107 36t45 106q0 72 -44.5 110t-118.5 38h-30v73h28q52 0 79.5 27.5t27.5 76.5q0 45 -31.5 69.5t-72.5 24.5q-54 0 -81 -38q-20 -32 -20 -101v-491h-95v447q0 101 15 140q19 50 60 78q50 35 129 35
q83 0 133.5 -44.5t50.5 -109.5q0 -57 -30.5 -95t-62.5 -43v-2q64 -10 111.5 -63.5t47.5 -135.5z" />
    <glyph glyph-name="agrave" unicode="&#xe0;" horiz-adv-x="492" 
d="M201 690l88 -145h-72l-110 145h94zM435 276v-276h-93l-1 60q-67 -71 -151 -71q-69 0 -116.5 40t-47.5 107q0 68 50 104.5t136 40.5l127 5v19q0 52 -32 80t-86 28q-77 0 -143 -41l-29 64q84 48 178 48q103 0 157 -54q51 -53 51 -154zM340 126v102l-111 -7
q-108 -6 -108 -82q0 -35 26 -58.5t72 -23.5q75 0 121 69z" />
    <glyph glyph-name="aacute" unicode="&#xe1;" horiz-adv-x="492" 
d="M264 690h93l-110 -145h-72zM435 276v-276h-93l-1 60q-67 -71 -151 -71q-69 0 -116.5 40t-47.5 107q0 68 50 104.5t136 40.5l127 5v19q0 52 -32 80t-86 28q-77 0 -143 -41l-29 64q84 48 178 48q103 0 157 -54q51 -53 51 -154zM340 126v102l-111 -7q-108 -6 -108 -82
q0 -35 26 -58.5t72 -23.5q75 0 121 69z" />
    <glyph glyph-name="acircumflex" unicode="&#xe2;" horiz-adv-x="492" 
d="M274 690l91 -145h-70l-61 100l-60 -100h-70l91 145h79zM435 276v-276h-93l-1 60q-67 -71 -151 -71q-69 0 -116.5 40t-47.5 107q0 68 50 104.5t136 40.5l127 5v19q0 52 -32 80t-86 28q-77 0 -143 -41l-29 64q84 48 178 48q103 0 157 -54q51 -53 51 -154zM340 126v102
l-111 -7q-108 -6 -108 -82q0 -35 26 -58.5t72 -23.5q75 0 121 69z" />
    <glyph glyph-name="atilde" unicode="&#xe3;" horiz-adv-x="492" 
d="M358 669l47 -10q-3 -40 -30 -66t-62 -26q-10 0 -20 1.5t-18 4.5t-13 5.5l-12 6t-8 4.5t-10.5 6.5l-15 8.5t-15.5 6.5t-18 3.5q-17 0 -28.5 -12t-15.5 -31l-47 10q3 40 30 66.5t62 26.5q13 0 26 -3t19.5 -6t16.5 -9l10 -5q1 -1 10 -6l15 -8.5t15.5 -6.5t17.5 -3
q17 0 29 12t15 30zM435 276v-276h-93l-1 60q-67 -71 -151 -71q-69 0 -116.5 40t-47.5 107q0 68 50 104.5t136 40.5l127 5v19q0 52 -32 80t-86 28q-77 0 -143 -41l-29 64q84 48 178 48q103 0 157 -54q51 -53 51 -154zM340 126v102l-111 -7q-108 -6 -108 -82q0 -35 26 -58.5
t72 -23.5q75 0 121 69z" />
    <glyph glyph-name="adieresis" unicode="&#xe4;" horiz-adv-x="492" 
d="M362 617q0 -23 -15.5 -38t-37.5 -15t-37 15t-15 38q0 24 15 39t37 15t37.5 -15t15.5 -39zM209 617q0 -24 -15 -38.5t-37 -14.5t-37.5 15t-15.5 38q0 24 15.5 39t37.5 15t37 -15t15 -39zM435 276v-276h-93l-1 60q-67 -71 -151 -71q-69 0 -116.5 40t-47.5 107
q0 68 50 104.5t136 40.5l127 5v19q0 52 -32 80t-86 28q-77 0 -143 -41l-29 64q84 48 178 48q103 0 157 -54q51 -53 51 -154zM340 126v102l-111 -7q-108 -6 -108 -82q0 -35 26 -58.5t72 -23.5q75 0 121 69z" />
    <glyph glyph-name="aring" unicode="&#xe5;" horiz-adv-x="492" 
d="M333 637q0 -41 -28.5 -68t-70.5 -27t-71 27t-29 68t29 68t71 27t70.5 -27t28.5 -68zM435 276v-276h-93l-1 60q-67 -71 -151 -71q-69 0 -116.5 40t-47.5 107q0 68 50 104.5t136 40.5l127 5v19q0 52 -32 80t-86 28q-77 0 -143 -41l-29 64q84 48 178 48q103 0 157 -54
q51 -53 51 -154zM285 637q0 22 -14.5 37t-36.5 15q-23 0 -37.5 -15t-14.5 -37t14.5 -37.5t37.5 -15.5q22 0 36.5 15.5t14.5 37.5zM340 126v102l-111 -7q-108 -6 -108 -82q0 -35 26 -58.5t72 -23.5q75 0 121 69z" />
    <glyph glyph-name="ae" unicode="&#xe6;" horiz-adv-x="832" 
d="M802 257l-2 -42h-367q4 -70 45.5 -110.5t108.5 -40.5q25 0 48.5 4.5t42 13t30.5 15t24 14.5l12 8l40 -55l-6 -6q-6 -5 -14 -11t-20.5 -14.5t-29 -15.5t-37 -13.5t-47 -10.5t-55.5 -4q-119 0 -190 92q-2 3 -3 4q-40 -48 -83.5 -72t-107.5 -24q-71 0 -118 40t-47 107
q0 68 50.5 105t137.5 40l125 5v20q0 52 -32 79.5t-86 27.5q-77 0 -143 -41l-29 64q84 48 178 48q92 0 138 -43q12 -11 20.5 -22t10.5 -17l3 -5q60 87 179 87q99 0 161.5 -64t62.5 -163zM435 279h276q0 48 -35.5 92t-100.5 44q-66 0 -102 -43t-38 -93zM354 137q-15 37 -15 91
l-110 -7q-108 -5 -108 -82q0 -35 26 -58.5t71 -23.5q44 0 82.5 25t53.5 55z" />
    <glyph glyph-name="ccedilla" unicode="&#xe7;" horiz-adv-x="475" 
d="M430 131l34 -70q-1 -1 -6.5 -6t-9 -8.5t-12 -10t-16.5 -11l-20.5 -11t-25 -10.5t-29.5 -7.5t-35 -5.5l-74 -136h-94l95 137q-87 12 -145 78.5t-58 166.5q0 111 72 179t171 68q57 0 103 -17.5t59.5 -29t21.5 -21.5l-34 -70q-58 58 -142 58q-65 0 -109.5 -45.5
t-44.5 -118.5q0 -75 43 -122t112 -47q41 0 77 15t51 30z" />
    <glyph glyph-name="egrave" unicode="&#xe8;" horiz-adv-x="529" 
d="M240 690l89 -145h-73l-110 145h94zM500 257l-3 -42h-366q4 -70 45.5 -110.5t107.5 -40.5q18 0 36 2.5t32.5 7t27 9.5t23.5 11.5l17.5 10.5t13 9t7.5 5l40 -55l-4 -4q-4 -4 -8.5 -7.5l-12.5 -10t-18 -12l-22.5 -12t-28 -11.5t-32.5 -9t-38.5 -6.5t-44.5 -2.5
q-106 0 -172 68t-66 181q0 110 69.5 178t171.5 68q99 0 162 -63.5t63 -163.5zM132 279h277q-1 48 -36.5 92t-100.5 44t-101 -42.5t-39 -93.5z" />
    <glyph glyph-name="eacute" unicode="&#xe9;" horiz-adv-x="529" 
d="M307 690h94l-110 -145h-73zM500 257l-3 -42h-366q4 -70 45.5 -110.5t107.5 -40.5q18 0 36 2.5t32.5 7t27 9.5t23.5 11.5l17.5 10.5t13 9t7.5 5l40 -55l-4 -4q-4 -4 -8.5 -7.5l-12.5 -10t-18 -12l-22.5 -12t-28 -11.5t-32.5 -9t-38.5 -6.5t-44.5 -2.5q-106 0 -172 68
t-66 181q0 110 69.5 178t171.5 68q99 0 162 -63.5t63 -163.5zM132 279h277q-1 48 -36.5 92t-100.5 44t-101 -42.5t-39 -93.5z" />
    <glyph glyph-name="ecircumflex" unicode="&#xea;" horiz-adv-x="529" 
d="M313 690l91 -145h-70l-60 100l-61 -100h-70l91 145h79zM500 257l-3 -42h-366q4 -70 45.5 -110.5t107.5 -40.5q18 0 36 2.5t32.5 7t27 9.5t23.5 11.5l17.5 10.5t13 9t7.5 5l40 -55l-4 -4q-4 -4 -8.5 -7.5l-12.5 -10t-18 -12l-22.5 -12t-28 -11.5t-32.5 -9t-38.5 -6.5
t-44.5 -2.5q-106 0 -172 68t-66 181q0 110 69.5 178t171.5 68q99 0 162 -63.5t63 -163.5zM132 279h277q-1 48 -36.5 92t-100.5 44t-101 -42.5t-39 -93.5z" />
    <glyph glyph-name="edieresis" unicode="&#xeb;" horiz-adv-x="529" 
d="M404 617q0 -23 -15.5 -38t-37.5 -15t-37 15t-15 38q0 24 15 39t37 15t37.5 -15t15.5 -39zM251 617q0 -24 -15 -38.5t-37 -14.5t-37.5 15t-15.5 38q0 24 15.5 39t37.5 15t37 -15t15 -39zM500 257l-3 -42h-366q4 -70 45.5 -110.5t107.5 -40.5q18 0 36 2.5t32.5 7t27 9.5
t23.5 11.5l17.5 10.5t13 9t7.5 5l40 -55l-4 -4q-4 -4 -8.5 -7.5l-12.5 -10t-18 -12l-22.5 -12t-28 -11.5t-32.5 -9t-38.5 -6.5t-44.5 -2.5q-106 0 -172 68t-66 181q0 110 69.5 178t171.5 68q99 0 162 -63.5t63 -163.5zM132 279h277q-1 48 -36.5 92t-100.5 44t-101 -42.5
t-39 -93.5z" />
    <glyph glyph-name="igrave" unicode="&#xec;" horiz-adv-x="236" 
d="M77 690l89 -145h-73l-110 145h94zM166 475v-475h-96v475h96z" />
    <glyph glyph-name="iacute" unicode="&#xed;" horiz-adv-x="236" 
d="M159 690h93l-110 -145h-72zM166 475v-475h-96v475h96z" />
    <glyph glyph-name="icircumflex" unicode="&#xee;" horiz-adv-x="236" 
d="M157 690l92 -145h-70l-61 100l-61 -100h-70l92 145h78zM166 475v-475h-96v475h96z" />
    <glyph glyph-name="idieresis" unicode="&#xef;" horiz-adv-x="236" 
d="M247 617q0 -23 -15.5 -38t-37.5 -15t-37 14.5t-15 38.5t15 39t37 15t37.5 -15t15.5 -39zM94 617q0 -23 -15 -38t-37 -15t-37.5 15t-15.5 38q0 24 15.5 39t37.5 15t37 -15t15 -39zM166 475v-475h-96v475h96z" />
    <glyph glyph-name="eth" unicode="&#xf0;" horiz-adv-x="571" 
d="M536 232q0 -105 -72.5 -174t-180.5 -69q-107 0 -178 69t-71 174q0 101 71.5 169.5t165.5 68.5q82 0 133 -47q-44 88 -137 170l-116 -72l-28 45l101 63q-54 42 -98 69l63 43q55 -33 105 -73l121 75l28 -46l-106 -66q60 -51 100 -109q99 -137 99 -290zM439 234
q0 70 -43 117t-111 47t-111 -47t-43 -117t43 -116.5t111 -46.5t111 46.5t43 116.5z" />
    <glyph glyph-name="ntilde" unicode="&#xf1;" horiz-adv-x="541" 
d="M379 669l47 -10q-3 -40 -30 -66t-62 -26q-11 0 -20.5 1.5t-18 4.5t-13.5 5.5l-12 6t-8 4.5q-39 25 -58 25q-17 0 -29 -12.5t-15 -30.5l-47 10q3 40 30 66.5t62 26.5q13 0 25.5 -3t19 -6t16 -8.5t10.5 -5.5t13.5 -8t23.5 -12t22 -4q34 0 44 42zM479 281v-281h-96v265
q0 69 -20 104.5t-79 35.5q-63 0 -92.5 -46t-29.5 -120v-239h-96v475h96l-1 -75h3q20 37 57.5 60.5t87.5 23.5q94 0 132 -54t38 -149z" />
    <glyph glyph-name="ograve" unicode="&#xf2;" horiz-adv-x="571" 
d="M251 690l88 -145h-72l-110 145h94zM537 236q0 -109 -72 -178t-179 -69q-108 0 -180 69t-72 178t72 178.5t180 69.5q107 0 179 -69.5t72 -178.5zM440 239q0 72 -42 119.5t-112 47.5t-112.5 -47.5t-42.5 -119.5t42.5 -120t112.5 -48t112 48t42 120z" />
    <glyph glyph-name="oacute" unicode="&#xf3;" horiz-adv-x="571" 
d="M321 690h93l-110 -145h-72zM537 236q0 -109 -72 -178t-179 -69q-108 0 -180 69t-72 178t72 178.5t180 69.5q107 0 179 -69.5t72 -178.5zM440 239q0 72 -42 119.5t-112 47.5t-112.5 -47.5t-42.5 -119.5t42.5 -120t112.5 -48t112 48t42 120z" />
    <glyph glyph-name="ocircumflex" unicode="&#xf4;" horiz-adv-x="571" 
d="M325 690l91 -145h-70l-60 100l-61 -100h-70l91 145h79zM537 236q0 -109 -72 -178t-179 -69q-108 0 -180 69t-72 178t72 178.5t180 69.5q107 0 179 -69.5t72 -178.5zM440 239q0 72 -42 119.5t-112 47.5t-112.5 -47.5t-42.5 -119.5t42.5 -120t112.5 -48t112 48t42 120z" />
    <glyph glyph-name="otilde" unicode="&#xf5;" horiz-adv-x="571" 
d="M395 669l47 -10q-3 -40 -30 -66t-62 -26q-11 0 -20.5 1.5t-17.5 4.5t-13.5 5.5t-11.5 6t-8 4.5q-1 1 -10.5 6.5l-15 8.5t-15.5 6.5t-18 3.5q-17 0 -28.5 -12t-15.5 -31l-47 10q3 40 30 66.5t62 26.5q29 0 71 -23q1 0 13.5 -8t23.5 -12t22 -4q17 0 29 12t15 30zM537 236
q0 -109 -72 -178t-179 -69q-108 0 -180 69t-72 178t72 178.5t180 69.5q107 0 179 -69.5t72 -178.5zM440 239q0 72 -42 119.5t-112 47.5t-112.5 -47.5t-42.5 -119.5t42.5 -120t112.5 -48t112 48t42 120z" />
    <glyph glyph-name="odieresis" unicode="&#xf6;" horiz-adv-x="571" 
d="M414 617q0 -24 -15 -38.5t-37 -14.5t-37.5 15t-15.5 38q0 24 15.5 39t37.5 15t37 -15t15 -39zM262 617q0 -23 -15.5 -38t-37.5 -15t-37 15t-15 38q0 24 15 39t37 15t37.5 -15t15.5 -39zM537 236q0 -109 -72 -178t-179 -69q-108 0 -180 69t-72 178t72 178.5t180 69.5
q107 0 179 -69.5t72 -178.5zM440 239q0 72 -42 119.5t-112 47.5t-112.5 -47.5t-42.5 -119.5t42.5 -120t112.5 -48t112 48t42 120z" />
    <glyph glyph-name="divide" unicode="&#xf7;" 
d="M395 510q0 -26 -18 -44t-43 -18q-26 0 -44 18t-18 44q0 25 18.5 43t43.5 18t43 -18t18 -43zM595 382v-74h-523v74h523zM395 180q0 -26 -17.5 -43.5t-43.5 -17.5t-44 18t-18 43q0 26 18 44t44 18q25 0 43 -18t18 -44z" />
    <glyph glyph-name="oslash" unicode="&#xf8;" horiz-adv-x="571" 
d="M501 494l43 -42l-59 -59q52 -65 52 -157q0 -110 -71.5 -178.5t-179.5 -68.5q-91 0 -158 50l-59 -58l-42 41l58 59q-51 65 -51 155q0 109 72 178.5t180 69.5q88 0 156 -49zM153 148l228 227q-39 31 -95 31q-70 0 -112.5 -47.5t-42.5 -119.5q0 -50 22 -91zM440 239
q0 50 -21 89l-228 -226q39 -31 95 -31q70 0 112 48t42 120z" />
    <glyph glyph-name="ugrave" unicode="&#xf9;" horiz-adv-x="536" 
d="M226 690l88 -145h-72l-110 145h94zM470 476v-476h-93l-1 68q-20 -36 -59 -57.5t-88 -21.5q-89 0 -132 55q-35 47 -35 147v285h95v-281q0 -58 20.5 -92t78.5 -34q59 0 88.5 43.5t29.5 108.5v255h96z" />
    <glyph glyph-name="uacute" unicode="&#xfa;" horiz-adv-x="536" 
d="M305 690h94l-110 -145h-73zM470 476v-476h-93l-1 68q-20 -36 -59 -57.5t-88 -21.5q-89 0 -132 55q-35 47 -35 147v285h95v-281q0 -58 20.5 -92t78.5 -34q59 0 88.5 43.5t29.5 108.5v255h96z" />
    <glyph glyph-name="ucircumflex" unicode="&#xfb;" horiz-adv-x="536" 
d="M305 690l92 -145h-70l-61 100l-61 -100h-70l92 145h78zM470 476v-476h-93l-1 68q-20 -36 -59 -57.5t-88 -21.5q-89 0 -132 55q-35 47 -35 147v285h95v-281q0 -58 20.5 -92t78.5 -34q59 0 88.5 43.5t29.5 108.5v255h96z" />
    <glyph glyph-name="udieresis" unicode="&#xfc;" horiz-adv-x="536" 
d="M395 617q0 -23 -15.5 -38t-37.5 -15t-37 15t-15 38q0 24 15 39t37 15t37.5 -15t15.5 -39zM242 617q0 -24 -15 -38.5t-37 -14.5t-37.5 15t-15.5 38q0 24 15.5 39t37.5 15t37 -15t15 -39zM470 476v-476h-93l-1 68q-20 -36 -59 -57.5t-88 -21.5q-89 0 -132 55
q-35 47 -35 147v285h95v-281q0 -58 20.5 -92t78.5 -34q59 0 88.5 43.5t29.5 108.5v255h96z" />
    <glyph glyph-name="yacute" unicode="&#xfd;" horiz-adv-x="479" 
d="M276 690h94l-110 -145h-73zM382 476l99 -1l-229 -558q-24 -60 -54 -85t-71 -25q-24 0 -46.5 4.5t-32.5 8.5l-11 4l19 78q26 -11 50 -11q11 0 16 1t14 5.5t17 16.5t15 33l23 63l-190 466l100 -1l141 -369z" />
    <glyph glyph-name="thorn" unicode="&#xfe;" horiz-adv-x="597" 
d="M563 238q0 -108 -63.5 -178.5t-167.5 -70.5q-108 0 -164 85h-2v-260h-95v876h95v-289h2q58 83 166 83q103 0 166 -69.5t63 -176.5zM465 239q0 73 -40.5 120t-110.5 47t-111 -47t-41 -120t41 -120.5t111 -47.5t110.5 47.5t40.5 120.5z" />
    <glyph glyph-name="ydieresis" unicode="&#xff;" horiz-adv-x="479" 
d="M371 621q0 -24 -15.5 -39t-37.5 -15t-37 15t-15 39t15 39t37 15t37.5 -15t15.5 -39zM218 621q0 -23 -15 -38.5t-37 -15.5t-37.5 15t-15.5 39t15.5 39t37.5 15t37 -15t15 -39zM382 476l99 -1l-229 -558q-24 -60 -54 -85t-71 -25q-24 0 -46.5 4.5t-32.5 8.5l-11 4l19 78
q26 -11 50 -11q11 0 16 1t14 5.5t17 16.5t15 33l23 63l-190 466l100 -1l141 -369z" />
    <glyph glyph-name="Amacron" unicode="&#x100;" horiz-adv-x="650" 
d="M367 692l282 -692h-108l-71 180h-296l-71 -180h-102l281 692h85zM201 261h242l-121 310zM452 861v-55h-259v55h259z" />
    <glyph glyph-name="amacron" unicode="&#x101;" horiz-adv-x="492" 
d="M435 276v-276h-93l-1 60q-67 -71 -151 -71q-69 0 -116.5 40t-47.5 107q0 68 50 104.5t136 40.5l127 5v19q0 52 -32 80t-86 28q-77 0 -143 -41l-29 64q84 48 178 48q103 0 157 -54q51 -53 51 -154zM340 126v102l-111 -7q-108 -6 -108 -82q0 -35 26 -58.5t72 -23.5
q75 0 121 69zM368 647v-55h-259v55h259z" />
    <glyph glyph-name="Abreve" unicode="&#x102;" horiz-adv-x="650" 
d="M367 692l282 -692h-108l-71 180h-296l-71 -180h-102l281 692h85zM201 261h242l-121 310zM422 893h49q-8 -60 -47 -91.5t-102 -31.5q-62 0 -101 31.5t-47 91.5h48q17 -65 100 -65q85 0 100 65z" />
    <glyph glyph-name="abreve" unicode="&#x103;" horiz-adv-x="492" 
d="M435 276v-276h-93l-1 60q-67 -71 -151 -71q-69 0 -116.5 40t-47.5 107q0 68 50 104.5t136 40.5l127 5v19q0 52 -32 80t-86 28q-77 0 -143 -41l-29 64q84 48 178 48q103 0 157 -54q51 -53 51 -154zM340 126v102l-111 -7q-108 -6 -108 -82q0 -35 26 -58.5t72 -23.5
q75 0 121 69zM335 679h49q-8 -60 -47 -91.5t-102 -31.5q-62 0 -101 31.5t-47 91.5h48q17 -65 100 -65q85 0 100 65z" />
    <glyph glyph-name="Aogonek" unicode="&#x104;" horiz-adv-x="650" 
d="M656 -134l15 -31q-45 -43 -104 -43q-45 0 -74 24t-29 66q0 64 77 118l-71 180h-296l-71 -180h-102l281 692h85l282 -692q-57 -10 -89 -41.5t-32 -62.5q0 -26 17 -39t42 -13q32 0 69 22zM201 261h242l-121 310z" />
    <glyph glyph-name="aogonek" unicode="&#x105;" horiz-adv-x="492" 
d="M458 -134l15 -31q-45 -43 -104 -43q-45 0 -74 24t-29 66q0 63 76 118l-1 60q-67 -71 -151 -71q-69 0 -116.5 40t-47.5 107q0 68 50 104.5t136 40.5l127 5v19q0 52 -32 80t-86 28q-77 0 -143 -41l-29 64q84 48 178 48q103 0 157 -54q51 -53 51 -154v-276q-47 -13 -76 -44
t-29 -60q0 -26 17 -39t42 -13q32 0 69 22zM340 126v102l-111 -7q-108 -6 -108 -82q0 -35 26 -58.5t72 -23.5q75 0 121 69z" />
    <glyph glyph-name="Cacute" unicode="&#x106;" horiz-adv-x="665" 
d="M600 161l42 -71q-91 -102 -252 -102q-153 0 -253 98.5t-100 257.5t101 257.5t252 98.5q152 0 245 -91l-41 -78q-24 31 -79.5 57.5t-120.5 26.5q-113 0 -185 -74.5t-72 -194.5t72.5 -194.5t184.5 -74.5q129 0 206 84zM396 904h94l-110 -145h-73z" />
    <glyph glyph-name="cacute" unicode="&#x107;" horiz-adv-x="475" 
d="M430 131l34 -70q-41 -41 -89 -57q-45 -15 -101 -15q-99 0 -169.5 68.5t-70.5 179.5t72 179t171 68q57 0 103 -17.5t59.5 -29t21.5 -21.5l-34 -70q-58 58 -142 58q-65 0 -109.5 -45.5t-44.5 -118.5q0 -75 43 -122t112 -47q41 0 77 15t51 30zM276 690h94l-110 -145h-73z
" />
    <glyph glyph-name="Ccircumflex" unicode="&#x108;" horiz-adv-x="665" 
d="M600 161l42 -71q-91 -102 -252 -102q-153 0 -253 98.5t-100 257.5t101 257.5t252 98.5q152 0 245 -91l-41 -78q-24 31 -79.5 57.5t-120.5 26.5q-113 0 -185 -74.5t-72 -194.5t72.5 -194.5t184.5 -74.5q129 0 206 84zM408 904l91 -145h-70l-61 100l-60 -100h-70l91 145h79
z" />
    <glyph glyph-name="ccircumflex" unicode="&#x109;" horiz-adv-x="475" 
d="M430 131l34 -70q-41 -41 -89 -57q-45 -15 -101 -15q-99 0 -169.5 68.5t-70.5 179.5t72 179t171 68q57 0 103 -17.5t59.5 -29t21.5 -21.5l-34 -70q-58 58 -142 58q-65 0 -109.5 -45.5t-44.5 -118.5q0 -75 43 -122t112 -47q41 0 77 15t51 30zM306 690l91 -145h-70l-61 100
l-60 -100h-70l91 145h79z" />
    <glyph glyph-name="Cdotaccent" unicode="&#x10a;" horiz-adv-x="665" 
d="M600 161l42 -71q-91 -102 -252 -102q-153 0 -253 98.5t-100 257.5t101 257.5t252 98.5q152 0 245 -91l-41 -78q-24 31 -79.5 57.5t-120.5 26.5q-113 0 -185 -74.5t-72 -194.5t72.5 -194.5t184.5 -74.5q129 0 206 84zM414 832q0 -22 -15.5 -37.5t-38.5 -15.5
q-22 0 -37.5 15.5t-15.5 37.5q0 23 15 38t38 15t38.5 -15t15.5 -38z" />
    <glyph glyph-name="cdotaccent" unicode="&#x10b;" horiz-adv-x="475" 
d="M430 131l34 -70q-41 -41 -89 -57q-45 -15 -101 -15q-99 0 -169.5 68.5t-70.5 179.5t72 179t171 68q57 0 103 -17.5t59.5 -29t21.5 -21.5l-34 -70q-58 58 -142 58q-65 0 -109.5 -45.5t-44.5 -118.5q0 -75 43 -122t112 -47q41 0 77 15t51 30zM312 618q0 -22 -15.5 -37.5
t-38.5 -15.5q-22 0 -37.5 15.5t-15.5 37.5q0 23 15 38t38 15t38.5 -15t15.5 -38z" />
    <glyph glyph-name="Ccaron" unicode="&#x10c;" horiz-adv-x="665" 
d="M600 161l42 -71q-91 -102 -252 -102q-153 0 -253 98.5t-100 257.5t101 257.5t252 98.5q152 0 245 -91l-41 -78q-24 31 -79.5 57.5t-120.5 26.5q-113 0 -185 -74.5t-72 -194.5t72.5 -194.5t184.5 -74.5q129 0 206 84zM428 904h70l-91 -145h-79l-91 145h70l60 -100z" />
    <glyph glyph-name="ccaron" unicode="&#x10d;" horiz-adv-x="475" 
d="M430 131l34 -70q-41 -41 -89 -57q-45 -15 -101 -15q-99 0 -169.5 68.5t-70.5 179.5t72 179t171 68q57 0 103 -17.5t59.5 -29t21.5 -21.5l-34 -70q-58 58 -142 58q-65 0 -109.5 -45.5t-44.5 -118.5q0 -75 43 -122t112 -47q41 0 77 15t51 30zM328 690h70l-91 -145h-79
l-91 145h70l60 -100z" />
    <glyph glyph-name="Dcaron" unicode="&#x10e;" horiz-adv-x="686" 
d="M649 345q0 -157 -107 -255q-98 -90 -258 -90h-208v690h208q160 0 258 -90q107 -98 107 -255zM550 345q0 120 -82 198q-68 64 -184 64h-111v-523h111q116 0 184 64q82 78 82 197zM370 904h70l-91 -145h-79l-91 145h70l60 -100z" />
    <glyph glyph-name="dcaron" unicode="&#x10f;" horiz-adv-x="680" 
d="M526 690v-690h-92v76h-2q-58 -87 -167 -87q-104 0 -167.5 70.5t-63.5 178.5q0 107 63 176.5t166 69.5q110 0 166 -83h2v289h95zM434 239q0 73 -40.5 120t-110.5 47t-110.5 -47t-40.5 -120t40.5 -120.5t110.5 -47.5t110.5 47.5t40.5 120.5zM627 690h98l-89 -214h-76z" />
    <glyph glyph-name="Dcroat" unicode="&#x110;" horiz-adv-x="686" 
d="M649 345q0 -157 -107 -255q-98 -90 -258 -90h-208v325h-65v72h65v293h208q160 0 258 -90q107 -98 107 -255zM550 345q0 120 -82 198q-68 64 -184 64h-111v-210h175v-71h-175v-242h111q116 0 184 64q82 78 82 197z" />
    <glyph glyph-name="dcroat" unicode="&#x111;" horiz-adv-x="597" 
d="M592 633v-80h-66v-553h-92v76h-2q-58 -87 -167 -87q-104 0 -167.5 70.5t-63.5 178.5q0 107 63 176.5t166 69.5q110 0 166 -83h2v152h-191v80h191v57h95v-57h66zM434 239q0 73 -40.5 120t-110.5 47t-110.5 -47t-40.5 -120t40.5 -120.5t110.5 -47.5t110.5 47.5t40.5 120.5z
" />
    <glyph glyph-name="Emacron" unicode="&#x112;" horiz-adv-x="531" 
d="M488 82v-82h-412v690h404v-81h-307v-206h290v-81h-290v-240h315zM415 861v-55h-259v55h259z" />
    <glyph glyph-name="emacron" unicode="&#x113;" horiz-adv-x="529" 
d="M500 257l-3 -42h-366q4 -70 45.5 -110.5t107.5 -40.5q18 0 36 2.5t32.5 7t27 9.5t23.5 11.5l17.5 10.5t13 9t7.5 5l40 -55l-4 -4q-4 -4 -8.5 -7.5l-12.5 -10t-18 -12l-22.5 -12t-28 -11.5t-32.5 -9t-38.5 -6.5t-44.5 -2.5q-106 0 -172 68t-66 181q0 110 69.5 178
t171.5 68q99 0 162 -63.5t63 -163.5zM132 279h277q-1 48 -36.5 92t-100.5 44t-101 -42.5t-39 -93.5zM403 647v-55h-259v55h259z" />
    <glyph glyph-name="Ebreve" unicode="&#x114;" horiz-adv-x="531" 
d="M488 82v-82h-412v690h404v-81h-307v-206h290v-81h-290v-240h315zM391 893h49q-8 -60 -47 -91.5t-102 -31.5q-62 0 -101 31.5t-47 91.5h48q17 -65 100 -65q85 0 100 65z" />
    <glyph glyph-name="ebreve" unicode="&#x115;" horiz-adv-x="529" 
d="M500 257l-3 -42h-366q4 -70 45.5 -110.5t107.5 -40.5q18 0 36 2.5t32.5 7t27 9.5t23.5 11.5l17.5 10.5t13 9t7.5 5l40 -55l-4 -4q-4 -4 -8.5 -7.5l-12.5 -10t-18 -12l-22.5 -12t-28 -11.5t-32.5 -9t-38.5 -6.5t-44.5 -2.5q-106 0 -172 68t-66 181q0 110 69.5 178
t171.5 68q99 0 162 -63.5t63 -163.5zM132 279h277q-1 48 -36.5 92t-100.5 44t-101 -42.5t-39 -93.5zM364 679h49q-8 -60 -47 -91.5t-102 -31.5q-62 0 -101 31.5t-47 91.5h48q17 -65 100 -65q85 0 100 65z" />
    <glyph glyph-name="Edotaccent" unicode="&#x116;" horiz-adv-x="531" 
d="M488 82v-82h-412v690h404v-81h-307v-206h290v-81h-290v-240h315zM349 832q0 -22 -15.5 -37.5t-38.5 -15.5t-38 15.5t-15 37.5q0 23 15 38t38 15t38.5 -15t15.5 -38z" />
    <glyph glyph-name="edotaccent" unicode="&#x117;" horiz-adv-x="529" 
d="M500 257l-3 -42h-366q4 -70 45.5 -110.5t107.5 -40.5q18 0 36 2.5t32.5 7t27 9.5t23.5 11.5l17.5 10.5t13 9t7.5 5l40 -55l-4 -4q-4 -4 -8.5 -7.5l-12.5 -10t-18 -12l-22.5 -12t-28 -11.5t-32.5 -9t-38.5 -6.5t-44.5 -2.5q-106 0 -172 68t-66 181q0 110 69.5 178
t171.5 68q99 0 162 -63.5t63 -163.5zM132 279h277q-1 48 -36.5 92t-100.5 44t-101 -42.5t-39 -93.5zM318 618q0 -22 -15.5 -37.5t-38.5 -15.5q-22 0 -37.5 15.5t-15.5 37.5q0 23 15 38t38 15t38.5 -15t15.5 -38z" />
    <glyph glyph-name="Eogonek" unicode="&#x118;" horiz-adv-x="531" 
d="M473 -134l15 -31q-45 -43 -104 -43q-45 0 -74 24t-29 66q0 63 76 118h-281v690h404v-81h-307v-206h290v-81h-290v-240h315v-82h-65q-31 -18 -54.5 -48t-23.5 -56t17 -39t42 -13q32 0 69 22z" />
    <glyph glyph-name="eogonek" unicode="&#x119;" horiz-adv-x="529" 
d="M471 -113l15 -31q-45 -43 -104 -43q-45 0 -74 24t-29 66q0 46 41 89q-22 -3 -48 -3q-106 0 -172 68t-66 181q0 110 69.5 178t171.5 68q99 0 162 -63.5t63 -163.5l-3 -42h-366q4 -70 45.5 -110.5t107.5 -40.5q18 0 36 2.5t32.5 7t27 9.5t23.5 11.5l17.5 10.5t13 9t7.5 5
l40 -55q-23 -23 -60 -43q-31 -17 -54.5 -47.5t-23.5 -56.5t17 -39t42 -13q32 0 69 22zM132 279h277q-1 48 -36.5 92t-100.5 44t-101 -42.5t-39 -93.5z" />
    <glyph glyph-name="Ecaron" unicode="&#x11a;" horiz-adv-x="531" 
d="M488 82v-82h-412v690h404v-81h-307v-206h290v-81h-290v-240h315zM344 904h70l-91 -145h-79l-91 145h70l60 -100z" />
    <glyph glyph-name="ecaron" unicode="&#x11b;" horiz-adv-x="529" 
d="M500 257l-3 -42h-366q4 -70 45.5 -110.5t107.5 -40.5q18 0 36 2.5t32.5 7t27 9.5t23.5 11.5l17.5 10.5t13 9t7.5 5l40 -55l-4 -4q-4 -4 -8.5 -7.5l-12.5 -10t-18 -12l-22.5 -12t-28 -11.5t-32.5 -9t-38.5 -6.5t-44.5 -2.5q-106 0 -172 68t-66 181q0 110 69.5 178
t171.5 68q99 0 162 -63.5t63 -163.5zM132 279h277q-1 48 -36.5 92t-100.5 44t-101 -42.5t-39 -93.5zM325 690h70l-91 -145h-79l-91 145h70l60 -100z" />
    <glyph glyph-name="Gcircumflex" unicode="&#x11c;" horiz-adv-x="747" 
d="M682 368v-268q-112 -112 -293 -112q-150 0 -251 99t-101 258q0 158 100.5 256.5t250.5 98.5q167 0 274 -115l5 -5l-66 -61q-84 98 -213 98q-109 0 -180 -73.5t-71 -198.5q0 -124 73 -198t184 -74q40 0 74.5 6.5t55.5 15.5t36.5 18.5t21.5 16.5l6 6v153h-186v79h280z
M413 904l91 -145h-70l-61 100l-60 -100h-70l91 145h79z" />
    <glyph glyph-name="gcircumflex" unicode="&#x11d;" horiz-adv-x="593" 
d="M526 475v-375q0 -143 -52 -205q-74 -91 -212 -91q-113 0 -212 71l45 67q23 -20 72.5 -40t97.5 -20q89 0 130 52q36 44 36 133v24h-2q-57 -85 -166 -85q-96 0 -162.5 65t-66.5 174t66.5 174t162.5 65q58 0 100.5 -23.5t65.5 -60.5h3l-1 75h95zM434 245q0 70 -40 116
t-111 46q-70 0 -110.5 -46t-40.5 -116t40 -115.5t111 -45.5t111 45.5t40 115.5zM304 690l91 -145h-70l-61 100l-60 -100h-70l91 145h79z" />
    <glyph glyph-name="Gbreve" unicode="&#x11e;" horiz-adv-x="747" 
d="M682 368v-268q-112 -112 -293 -112q-150 0 -251 99t-101 258q0 158 100.5 256.5t250.5 98.5q167 0 274 -115l5 -5l-66 -61q-84 98 -213 98q-109 0 -180 -73.5t-71 -198.5q0 -124 73 -198t184 -74q40 0 74.5 6.5t55.5 15.5t36.5 18.5t21.5 16.5l6 6v153h-186v79h280z
M475 893h49q-8 -60 -47 -91.5t-102 -31.5q-62 0 -101 31.5t-47 91.5h48q17 -65 100 -65q85 0 100 65z" />
    <glyph glyph-name="gbreve" unicode="&#x11f;" horiz-adv-x="593" 
d="M526 475v-375q0 -143 -52 -205q-74 -91 -212 -91q-113 0 -212 71l45 67q23 -20 72.5 -40t97.5 -20q89 0 130 52q36 44 36 133v24h-2q-57 -85 -166 -85q-96 0 -162.5 65t-66.5 174t66.5 174t162.5 65q58 0 100.5 -23.5t65.5 -60.5h3l-1 75h95zM434 245q0 70 -40 116
t-111 46q-70 0 -110.5 -46t-40.5 -116t40 -115.5t111 -45.5t111 45.5t40 115.5zM368 679h49q-8 -60 -47 -91.5t-102 -31.5q-62 0 -101 31.5t-47 91.5h48q17 -65 100 -65q85 0 100 65z" />
    <glyph glyph-name="Gdotaccent" unicode="&#x120;" horiz-adv-x="747" 
d="M682 368v-268q-112 -112 -293 -112q-150 0 -251 99t-101 258q0 158 100.5 256.5t250.5 98.5q167 0 274 -115l5 -5l-66 -61q-84 98 -213 98q-109 0 -180 -73.5t-71 -198.5q0 -124 73 -198t184 -74q40 0 74.5 6.5t55.5 15.5t36.5 18.5t21.5 16.5l6 6v153h-186v79h280z
M427 832q0 -22 -15.5 -37.5t-38.5 -15.5t-38 15.5t-15 37.5q0 23 15 38t38 15t38.5 -15t15.5 -38z" />
    <glyph glyph-name="gdotaccent" unicode="&#x121;" horiz-adv-x="593" 
d="M526 475v-375q0 -143 -52 -205q-74 -91 -212 -91q-113 0 -212 71l45 67q23 -20 72.5 -40t97.5 -20q89 0 130 52q36 44 36 133v24h-2q-57 -85 -166 -85q-96 0 -162.5 65t-66.5 174t66.5 174t162.5 65q58 0 100.5 -23.5t65.5 -60.5h3l-1 75h95zM434 245q0 70 -40 116
t-111 46q-70 0 -110.5 -46t-40.5 -116t40 -115.5t111 -45.5t111 45.5t40 115.5zM326 618q0 -22 -15.5 -37.5t-38.5 -15.5q-22 0 -37.5 15.5t-15.5 37.5q0 23 15 38t38 15t38.5 -15t15.5 -38z" />
    <glyph glyph-name="Gcommaaccent" unicode="&#x122;" horiz-adv-x="747" 
d="M682 368v-268q-112 -112 -293 -112q-150 0 -251 99t-101 258q0 158 100.5 256.5t250.5 98.5q167 0 274 -115l5 -5l-66 -61q-84 98 -213 98q-109 0 -180 -73.5t-71 -198.5q0 -124 73 -198t184 -74q40 0 74.5 6.5t55.5 15.5t36.5 18.5t21.5 16.5l6 6v153h-186v79h280z
M352 -50h98l-63 -140h-71z" />
    <glyph glyph-name="gcommaaccent" unicode="&#x123;" horiz-adv-x="593" 
d="M526 475v-375q0 -143 -52 -205q-74 -91 -212 -91q-113 0 -212 71l45 67q23 -20 72.5 -40t97.5 -20q89 0 130 52q36 44 36 133v24h-2q-57 -85 -166 -85q-96 0 -162.5 65t-66.5 174t66.5 174t162.5 65q58 0 100.5 -23.5t65.5 -60.5h3l-1 75h95zM434 245q0 70 -40 116
t-111 46q-70 0 -110.5 -46t-40.5 -116t40 -115.5t111 -45.5t111 45.5t40 115.5zM309 571h-98l63 140h71z" />
    <glyph glyph-name="Hcircumflex" unicode="&#x124;" horiz-adv-x="714" 
d="M637 690v-690h-97v322h-367v-322h-97v690h97v-285h367v285h97zM396 904l91 -145h-70l-61 100l-60 -100h-70l91 145h79z" />
    <glyph glyph-name="hcircumflex" unicode="&#x125;" horiz-adv-x="548" 
d="M484 283v-283h-96v269q0 29 -3.5 50.5t-13 42.5t-30 32t-51.5 11q-62 0 -93 -47t-31 -123v-235h-95v690h95v-290h2q20 37 58 60.5t88 23.5q96 0 133 -53t37 -148zM159 895l91 -145h-70l-61 100l-60 -100h-70l91 145h79z" />
    <glyph glyph-name="Hbar" unicode="&#x126;" horiz-adv-x="714" 
d="M709 600v-75h-72v-525h-97v322h-367v-322h-97v525h-71v75h71v90h97v-90h367v90h97v-90h72zM173 405h367v120h-367v-120z" />
    <glyph glyph-name="hbar" unicode="&#x127;" horiz-adv-x="548" 
d="M484 283v-283h-96v269q0 29 -3.5 50.5t-13 42.5t-30 32t-51.5 11q-62 0 -93 -47t-31 -123v-235h-95v553h-66v80h66v57h95v-57h191v-80h-191v-153h2q20 37 58 60.5t88 23.5q96 0 133 -53t37 -148z" />
    <glyph glyph-name="Itilde" unicode="&#x128;" horiz-adv-x="249" 
d="M173 690v-690h-97v690h97zM234 883l47 -10q-3 -40 -30 -66t-62 -26q-31 0 -71 22q-1 1 -10.5 6.5l-15 8.5t-15.5 6.5t-18 3.5q-17 0 -29 -12.5t-15 -30.5l-47 10q3 40 30 66.5t62 26.5q13 0 25.5 -3t19 -6t16 -8t10.5 -6q1 0 13.5 -8t23.5 -12t22 -4q34 0 44 42z" />
    <glyph glyph-name="itilde" unicode="&#x129;" horiz-adv-x="236" 
d="M166 475v-475h-96v475h96zM228 669l47 -10q-3 -40 -30 -66t-62 -26q-31 0 -71 22q-1 1 -10.5 6.5l-15 8.5t-15.5 6.5t-18 3.5q-17 0 -29 -12.5t-15 -30.5l-47 10q3 40 30 66.5t62 26.5q13 0 25.5 -3t19 -6t16 -8t10.5 -6q1 0 13.5 -8t23.5 -12t22 -4q34 0 44 42z" />
    <glyph glyph-name="Imacron" unicode="&#x12a;" horiz-adv-x="249" 
d="M173 690v-690h-97v690h97zM254 861v-55h-259v55h259z" />
    <glyph glyph-name="imacron" unicode="&#x12b;" horiz-adv-x="236" 
d="M166 475v-475h-96v475h96zM248 647v-55h-259v55h259z" />
    <glyph glyph-name="Ibreve" unicode="&#x12c;" horiz-adv-x="249" 
d="M173 690v-690h-97v690h97zM224 893h49q-8 -60 -47 -91.5t-102 -31.5q-62 0 -101 31.5t-47 91.5h48q17 -65 100 -65q85 0 100 65z" />
    <glyph glyph-name="ibreve" unicode="&#x12d;" horiz-adv-x="236" 
d="M166 475v-475h-96v475h96zM218 679h49q-8 -60 -47 -91.5t-102 -31.5q-62 0 -101 31.5t-47 91.5h48q17 -65 100 -65q85 0 100 65z" />
    <glyph glyph-name="Iogonek" unicode="&#x12e;" horiz-adv-x="249" 
d="M192 -134l15 -31q-45 -43 -104 -43q-45 0 -74 24t-29 66q0 63 76 118v690h97v-690q-56 -19 -82.5 -47t-26.5 -57q0 -26 17 -39t42 -13q32 0 69 22z" />
    <glyph glyph-name="iogonek" unicode="&#x12f;" horiz-adv-x="236" 
d="M186 -134l15 -31q-45 -43 -104 -43q-45 0 -74 24t-29 66q0 63 76 118v475h96v-475q-51 -12 -79.5 -43t-28.5 -61q0 -26 17 -39t42 -13q32 0 69 22zM180 631q0 -26 -17.5 -42.5t-44.5 -16.5q-28 0 -45.5 16.5t-17.5 42.5t17.5 42.5t45.5 16.5q27 0 44.5 -16.5t17.5 -42.5z
" />
    <glyph glyph-name="Idotaccent" unicode="&#x130;" horiz-adv-x="249" 
d="M173 690v-690h-97v690h97zM178 832q0 -22 -15.5 -37.5t-38.5 -15.5q-22 0 -37.5 15.5t-15.5 37.5q0 23 15 38t38 15t38.5 -15t15.5 -38z" />
    <glyph glyph-name="dotlessi" unicode="&#x131;" horiz-adv-x="236" 
d="M166 475v-475h-96v475h96z" />
    <glyph glyph-name="IJ" unicode="&#x132;" horiz-adv-x="498" 
d="M173 690v-690h-97v690h97zM422 690v-688q0 -98 -31 -146q-41 -56 -111 -56q-18 0 -36 2.5t-27.5 5.5t-11.5 4l2 74q19 -8 53 -8q40 0 52.5 31.5t12.5 89.5v691h97z" />
    <glyph glyph-name="ij" unicode="&#x133;" horiz-adv-x="472" 
d="M180 631q0 -26 -17.5 -42.5t-44.5 -16.5q-28 0 -45.5 16.5t-17.5 42.5t17.5 42.5t45.5 16.5q27 0 44.5 -16.5t17.5 -42.5zM166 475v-475h-96v475h96zM416 631q0 -26 -17.5 -42.5t-44.5 -16.5q-28 0 -45.5 16.5t-17.5 42.5t17.5 42.5t45.5 16.5q27 0 44.5 -16.5
t17.5 -42.5zM402 475v-476q0 -94 -30 -136q-44 -59 -120 -59q-17 0 -32 2t-22 4l-6 2l1 76q20 -7 45 -7q42 0 55 30.5t13 90.5v473h96z" />
    <glyph glyph-name="Jcircumflex" unicode="&#x134;" horiz-adv-x="249" 
d="M173 690v-688q0 -98 -31 -146q-41 -56 -111 -56q-18 0 -36 2.5t-27.5 5.5t-11.5 4l2 74q19 -8 53 -8q40 0 52.5 31.5t12.5 89.5v691h97zM164 904l91 -145h-70l-61 100l-60 -100h-70l91 145h79z" />
    <glyph glyph-name="jcircumflex" unicode="&#x135;" horiz-adv-x="236" 
d="M166 475v-476q0 -94 -30 -136q-44 -59 -120 -59q-17 0 -32 2t-22 4l-6 2l1 76q20 -7 45 -7q42 0 55 30.5t13 90.5v473h96zM158 690l91 -145h-70l-61 100l-60 -100h-70l91 145h79z" />
    <glyph glyph-name="Kcommaaccent" unicode="&#x136;" horiz-adv-x="579" 
d="M309 418l282 -418h-118l-229 346l-71 -72v-274h-97v690h97v-294l281 294h118zM268 -50h98l-63 -140h-71z" />
    <glyph glyph-name="kcommaaccent" unicode="&#x137;" horiz-adv-x="487" 
d="M286 296l210 -296h-112l-163 230l-55 -52v-178h-95v690h95v-405l194 190h112zM230 -50h98l-63 -140h-71z" />
    <glyph glyph-name="kgreenlandic" unicode="&#x138;" horiz-adv-x="482" 
d="M281 296l210 -296h-112l-163 230l-55 -52v-178h-95v475h95v-190l194 190h112z" />
    <glyph glyph-name="Lacute" unicode="&#x139;" horiz-adv-x="426" 
d="M416 83v-83h-340v690h97v-607h243zM170 904h94l-110 -145h-73z" />
    <glyph glyph-name="lacute" unicode="&#x13a;" horiz-adv-x="237" 
d="M166 690v-690h-95v690h95zM150 910h94l-110 -145h-73z" />
    <glyph glyph-name="Lcommaaccent" unicode="&#x13b;" horiz-adv-x="426" 
d="M416 83v-83h-340v690h97v-607h243zM212 -50h98l-63 -140h-71z" />
    <glyph glyph-name="lcommaaccent" unicode="&#x13c;" horiz-adv-x="237" 
d="M166 690v-690h-95v690h95zM78 -50h98l-63 -140h-71z" />
    <glyph glyph-name="Lcaron" unicode="&#x13d;" horiz-adv-x="426" 
d="M416 83v-83h-340v690h97v-607h243zM335 690h98l-89 -214h-76z" />
    <glyph glyph-name="lcaron" unicode="&#x13e;" horiz-adv-x="320" 
d="M166 690v-690h-95v690h95zM267 690h98l-89 -214h-76z" />
    <glyph glyph-name="Ldot" unicode="&#x13f;" horiz-adv-x="426" 
d="M416 83v-83h-340v690h97v-607h243zM400 319q0 -28 -18.5 -45.5t-47.5 -17.5t-47 17.5t-18 45.5t18 45t47 17t47.5 -17t18.5 -45z" />
    <glyph glyph-name="ldot" unicode="&#x140;" horiz-adv-x="407" 
d="M166 690v-690h-95v690h95zM372 289q0 -28 -18.5 -45.5t-47.5 -17.5t-47 17.5t-18 45.5t18 45t47 17t47.5 -17t18.5 -45z" />
    <glyph glyph-name="Lslash" unicode="&#x141;" horiz-adv-x="426" 
d="M416 83v-83h-340v256l-61 -47v81l61 47v353h97v-285l114 89v-82l-114 -88v-241h243z" />
    <glyph glyph-name="lslash" unicode="&#x142;" horiz-adv-x="238" 
d="M226 514v-84l-59 -56v-374h-96v294l-59 -57v84l59 56v313h96v-233z" />
    <glyph glyph-name="Nacute" unicode="&#x143;" horiz-adv-x="740" 
d="M663 690v-690h-95l-398 550q2 -93 2 -183v-367h-96v690h102l391 -542q-1 85 -1 176v366h95zM405 904h94l-110 -145h-73z" />
    <glyph glyph-name="nacute" unicode="&#x144;" horiz-adv-x="541" 
d="M479 281v-281h-96v265q0 69 -20 104.5t-79 35.5q-63 0 -92.5 -46t-29.5 -120v-239h-96v475h96l-1 -75h3q20 37 57.5 60.5t87.5 23.5q94 0 132 -54t38 -149zM268 690h94l-110 -145h-73z" />
    <glyph glyph-name="Ncommaaccent" unicode="&#x145;" horiz-adv-x="740" 
d="M663 690v-690h-95l-398 550q2 -93 2 -183v-367h-96v690h102l391 -542q-1 85 -1 176v366h95zM339 -50h98l-63 -140h-71z" />
    <glyph glyph-name="ncommaaccent" unicode="&#x146;" horiz-adv-x="541" 
d="M479 281v-281h-96v265q0 69 -20 104.5t-79 35.5q-63 0 -92.5 -46t-29.5 -120v-239h-96v475h96l-1 -75h3q20 37 57.5 60.5t87.5 23.5q94 0 132 -54t38 -149zM239 -50h98l-63 -140h-71z" />
    <glyph glyph-name="Ncaron" unicode="&#x147;" horiz-adv-x="740" 
d="M663 690v-690h-95l-398 550q2 -93 2 -183v-367h-96v690h102l391 -542q-1 85 -1 176v366h95zM430 904h70l-91 -145h-79l-91 145h70l60 -100z" />
    <glyph glyph-name="ncaron" unicode="&#x148;" horiz-adv-x="541" 
d="M479 281v-281h-96v265q0 69 -20 104.5t-79 35.5q-63 0 -92.5 -46t-29.5 -120v-239h-96v475h96l-1 -75h3q20 37 57.5 60.5t87.5 23.5q94 0 132 -54t38 -149zM331 690h70l-91 -145h-79l-91 145h70l60 -100z" />
    <glyph glyph-name="Eng" unicode="&#x14a;" horiz-adv-x="740" 
d="M665 690v-688q0 -98 -31 -146q-41 -56 -111 -56q-18 0 -36 2.5t-27.5 5.5t-11.5 4l2 74q19 -8 53 -8q21 0 34.5 9t20 27.5t8.5 38t2 47.5l-398 550q2 -93 2 -183v-367h-96v690h102l390 -541v541h97z" />
    <glyph glyph-name="eng" unicode="&#x14b;" horiz-adv-x="541" 
d="M479 281v-282q0 -94 -30 -136q-44 -59 -120 -59q-17 0 -32 2t-21 4l-7 2l1 76q20 -7 45 -7q42 0 55 30.5t13 90.5v263q0 69 -20 104.5t-79 35.5q-63 0 -92.5 -46t-29.5 -120v-239h-96v475h96l-1 -75h3q20 37 57.5 60.5t87.5 23.5q94 0 132 -54t38 -149z" />
    <glyph glyph-name="Omacron" unicode="&#x14c;" horiz-adv-x="786" 
d="M749 344q0 -161 -103 -258.5t-253 -97.5t-253 97.5t-103 258.5t103 258.5t253 97.5t253 -97.5t103 -258.5zM650 346q0 123 -74 196.5t-183 73.5t-183 -73.5t-74 -196.5q0 -122 74 -196t183 -74t183 73.5t74 196.5zM522 861v-55h-259v55h259z" />
    <glyph glyph-name="omacron" unicode="&#x14d;" horiz-adv-x="571" 
d="M537 236q0 -109 -72 -178t-179 -69q-108 0 -180 69t-72 178t72 178.5t180 69.5q107 0 179 -69.5t72 -178.5zM440 239q0 72 -42 119.5t-112 47.5t-112.5 -47.5t-42.5 -119.5t42.5 -120t112.5 -48t112 48t42 120zM415 647v-55h-259v55h259z" />
    <glyph glyph-name="Obreve" unicode="&#x14e;" horiz-adv-x="786" 
d="M749 344q0 -161 -103 -258.5t-253 -97.5t-253 97.5t-103 258.5t103 258.5t253 97.5t253 -97.5t103 -258.5zM650 346q0 123 -74 196.5t-183 73.5t-183 -73.5t-74 -196.5q0 -122 74 -196t183 -74t183 73.5t74 196.5zM492 893h49q-8 -60 -47 -91.5t-102 -31.5
q-62 0 -101 31.5t-47 91.5h48q17 -65 100 -65q85 0 100 65z" />
    <glyph glyph-name="obreve" unicode="&#x14f;" horiz-adv-x="571" 
d="M537 236q0 -109 -72 -178t-179 -69q-108 0 -180 69t-72 178t72 178.5t180 69.5q107 0 179 -69.5t72 -178.5zM440 239q0 72 -42 119.5t-112 47.5t-112.5 -47.5t-42.5 -119.5t42.5 -120t112.5 -48t112 48t42 120zM385 679h49q-8 -60 -47 -91.5t-102 -31.5q-62 0 -101 31.5
t-47 91.5h48q17 -65 100 -65q85 0 100 65z" />
    <glyph glyph-name="Ohungarumlaut" unicode="&#x150;" horiz-adv-x="786" 
d="M749 344q0 -161 -103 -258.5t-253 -97.5t-253 97.5t-103 258.5t103 258.5t253 97.5t253 -97.5t103 -258.5zM650 346q0 123 -74 196.5t-183 73.5t-183 -73.5t-74 -196.5q0 -122 74 -196t183 -74t183 73.5t74 196.5zM505 904h92l-111 -145h-71zM367 904h93l-111 -145h-72z
" />
    <glyph glyph-name="ohungarumlaut" unicode="&#x151;" horiz-adv-x="571" 
d="M537 236q0 -109 -72 -178t-179 -69q-108 0 -180 69t-72 178t72 178.5t180 69.5q107 0 179 -69.5t72 -178.5zM440 239q0 72 -42 119.5t-112 47.5t-112.5 -47.5t-42.5 -119.5t42.5 -120t112.5 -48t112 48t42 120zM381 690h92l-111 -145h-71zM243 690h93l-111 -145h-72z" />
    <glyph glyph-name="OE" unicode="&#x152;" horiz-adv-x="992" 
d="M949 82v-82h-378v37q-74 -49 -182 -49q-148 0 -250 97.5t-102 258.5t102 258.5t250 97.5q103 0 181 -47v37h371v-81h-278v-206h261v-81h-261v-240h286zM566 137v418q-70 61 -177 61t-180 -73.5t-73 -196.5q0 -122 73.5 -196t179.5 -74q107 0 177 61z" />
    <glyph glyph-name="oe" unicode="&#x153;" horiz-adv-x="931" 
d="M901 257l-2 -42h-367q4 -70 45 -110.5t108 -40.5q21 0 42 4t36 9t30.5 12.5t23 12t16.5 10.5l9 7l40 -55l-4 -4q-4 -4 -8.5 -8t-12.5 -10t-17.5 -11.5t-22 -12t-28 -11.5t-32.5 -9t-38.5 -6.5t-44.5 -2.5q-130 0 -190 105q-63 -105 -198 -105q-108 0 -180 69t-72 178
t72 178.5t180 69.5q67 0 118 -28.5t81 -77.5q66 106 192 106q99 0 161.5 -63.5t62.5 -163.5zM534 279h276q-1 48 -36 92t-100 44q-66 0 -102 -43t-38 -93zM440 239q0 72 -42 119.5t-112 47.5t-112.5 -47.5t-42.5 -119.5t42.5 -120t112.5 -48t112 48t42 120z" />
    <glyph glyph-name="Racute" unicode="&#x154;" horiz-adv-x="540" 
d="M347 307l197 -307h-117l-180 297h-74v-297h-97v690h195q105 0 166 -48q67 -54 67 -146q0 -83 -46.5 -130t-110.5 -59zM404 494q0 61 -44 92q-34 25 -116 25h-71v-234h71q82 0 116 24q44 33 44 93zM287 904h94l-110 -145h-73z" />
    <glyph glyph-name="racute" unicode="&#x155;" horiz-adv-x="335" 
d="M331 476l-6 -89h-4q-22 10 -52 10q-47 0 -78 -40q-29 -42 -29 -120v-237h-96v475h96l-1 -73h3q35 82 117 82q14 0 26.5 -2t18.5 -4zM205 690h94l-110 -145h-73z" />
    <glyph glyph-name="Rcommaaccent" unicode="&#x156;" horiz-adv-x="540" 
d="M347 307l197 -307h-117l-180 297h-74v-297h-97v690h195q105 0 166 -48q67 -54 67 -146q0 -83 -46.5 -130t-110.5 -59zM404 494q0 61 -44 92q-34 25 -116 25h-71v-234h71q82 0 116 24q44 33 44 93zM248 -50h98l-63 -140h-71z" />
    <glyph glyph-name="rcommaaccent" unicode="&#x157;" horiz-adv-x="335" 
d="M331 476l-6 -89h-4q-22 10 -52 10q-47 0 -78 -40q-29 -42 -29 -120v-237h-96v475h96l-1 -73h3q35 82 117 82q14 0 26.5 -2t18.5 -4zM86 -50h98l-63 -140h-71z" />
    <glyph glyph-name="Rcaron" unicode="&#x158;" horiz-adv-x="540" 
d="M347 307l197 -307h-117l-180 297h-74v-297h-97v690h195q105 0 166 -48q67 -54 67 -146q0 -83 -46.5 -130t-110.5 -59zM404 494q0 61 -44 92q-34 25 -116 25h-71v-234h71q82 0 116 24q44 33 44 93zM320 904h70l-91 -145h-79l-91 145h70l60 -100z" />
    <glyph glyph-name="rcaron" unicode="&#x159;" horiz-adv-x="335" 
d="M331 476l-6 -89h-4q-22 10 -52 10q-47 0 -78 -40q-29 -42 -29 -120v-237h-96v475h96l-1 -73h3q35 82 117 82q14 0 26.5 -2t18.5 -4zM248 690h70l-91 -145h-79l-91 145h70l60 -100z" />
    <glyph glyph-name="Sacute" unicode="&#x15a;" horiz-adv-x="534" 
d="M498 192q0 -91 -72 -150q-66 -54 -169 -54q-42 0 -79.5 11.5t-66.5 33t-44 36t-33 35.5l57 65q30 -40 76.5 -69.5t98.5 -29.5q58 0 96.5 31.5t38.5 84.5q0 25 -11 45t-33.5 34.5t-33.5 20t-34 14.5q-81 32 -110 46q-42 19 -69 49q-45 47 -45 120q0 80 63 133
q61 51 159 51q113 0 198 -89l-51 -66q-70 74 -152 74q-53 0 -86.5 -25t-33.5 -71q0 -23 7.5 -40.5t22 -30t27.5 -19.5t32 -15l127 -53q50 -23 78 -56q42 -52 42 -116zM264 904h94l-110 -145h-73z" />
    <glyph glyph-name="sacute" unicode="&#x15b;" horiz-adv-x="414" 
d="M386 139q0 -67 -49 -108q-51 -42 -132 -42q-120 0 -185 85l46 56q26 -32 65.5 -50t74.5 -18q38 0 64.5 16t26.5 52q0 12 -6 23t-14 18t-22 14t-22.5 10t-24 8l-18.5 6q-52 18 -65 25q-75 38 -75 114q0 63 46.5 99.5t113.5 36.5q104 0 162 -62l-40 -59q-49 51 -120 51
q-35 0 -55.5 -15t-20.5 -44q0 -26 24 -41.5t69 -29.5l64 -23q36 -15 55 -34q38 -36 38 -88zM204 690h94l-110 -145h-73z" />
    <glyph glyph-name="Scircumflex" unicode="&#x15c;" horiz-adv-x="534" 
d="M498 192q0 -91 -72 -150q-66 -54 -169 -54q-42 0 -79.5 11.5t-66.5 33t-44 36t-33 35.5l57 65q30 -40 76.5 -69.5t98.5 -29.5q58 0 96.5 31.5t38.5 84.5q0 25 -11 45t-33.5 34.5t-33.5 20t-34 14.5q-81 32 -110 46q-42 19 -69 49q-45 47 -45 120q0 80 63 133
q61 51 159 51q113 0 198 -89l-51 -66q-70 74 -152 74q-53 0 -86.5 -25t-33.5 -71q0 -23 7.5 -40.5t22 -30t27.5 -19.5t32 -15l127 -53q50 -23 78 -56q42 -52 42 -116zM306 904l91 -145h-70l-61 100l-60 -100h-70l91 145h79z" />
    <glyph glyph-name="scircumflex" unicode="&#x15d;" horiz-adv-x="414" 
d="M386 139q0 -67 -49 -108q-51 -42 -132 -42q-120 0 -185 85l46 56q26 -32 65.5 -50t74.5 -18q38 0 64.5 16t26.5 52q0 12 -6 23t-14 18t-22 14t-22.5 10t-24 8l-18.5 6q-52 18 -65 25q-75 38 -75 114q0 63 46.5 99.5t113.5 36.5q104 0 162 -62l-40 -59q-49 51 -120 51
q-35 0 -55.5 -15t-20.5 -44q0 -26 24 -41.5t69 -29.5l64 -23q36 -15 55 -34q38 -36 38 -88zM246 690l91 -145h-70l-61 100l-60 -100h-70l91 145h79z" />
    <glyph glyph-name="Scedilla" unicode="&#x15e;" horiz-adv-x="534" 
d="M498 192q0 -91 -72 -150q-42 -35 -102 -47l-78 -141h-87l92 134q-122 3 -217 116l57 65q30 -40 76.5 -69.5t98.5 -29.5q58 0 96.5 31.5t38.5 84.5q0 25 -11 45t-33.5 34.5t-33.5 20t-34 14.5q-81 32 -110 46q-42 19 -69 49q-45 47 -45 120q0 80 63 133q61 51 159 51
q113 0 198 -89l-51 -66q-70 74 -152 74q-53 0 -86.5 -25t-33.5 -71q0 -23 7.5 -40.5t22 -30t27.5 -19.5t32 -15l127 -53q50 -23 78 -56q42 -52 42 -116z" />
    <glyph glyph-name="scedilla" unicode="&#x15f;" horiz-adv-x="414" 
d="M386 139q0 -67 -49 -108q-27 -23 -69 -34l-79 -143h-87l93 135q-114 5 -175 85l46 56q26 -32 65.5 -50t74.5 -18q38 0 64.5 16t26.5 52q0 12 -6 23t-14 18t-22 14t-22.5 10t-24 8l-18.5 6q-52 18 -65 25q-75 38 -75 114q0 63 46.5 99.5t113.5 36.5q104 0 162 -62l-40 -59
q-49 51 -120 51q-35 0 -55.5 -15t-20.5 -44q0 -26 24 -41.5t69 -29.5l64 -23q36 -15 55 -34q38 -36 38 -88z" />
    <glyph glyph-name="Scaron" unicode="&#x160;" horiz-adv-x="534" 
d="M498 192q0 -91 -72 -150q-66 -54 -169 -54q-42 0 -79.5 11.5t-66.5 33t-44 36t-33 35.5l57 65q30 -40 76.5 -69.5t98.5 -29.5q58 0 96.5 31.5t38.5 84.5q0 25 -11 45t-33.5 34.5t-33.5 20t-34 14.5q-81 32 -110 46q-42 19 -69 49q-45 47 -45 120q0 80 63 133
q61 51 159 51q113 0 198 -89l-51 -66q-70 74 -152 74q-53 0 -86.5 -25t-33.5 -71q0 -23 7.5 -40.5t22 -30t27.5 -19.5t32 -15l127 -53q50 -23 78 -56q42 -52 42 -116zM346 887h70l-91 -145h-79l-91 145h70l61 -100z" />
    <glyph glyph-name="scaron" unicode="&#x161;" horiz-adv-x="414" 
d="M269 690h70l-91 -145h-79l-91 145h70l61 -100zM386 139q0 -67 -49 -108q-51 -42 -132 -42q-120 0 -185 85l46 56q26 -32 65.5 -50t74.5 -18q38 0 64.5 16t26.5 52q0 12 -6 23t-14 18t-22 14t-22.5 10t-24 8l-18.5 6q-52 18 -65 25q-75 38 -75 114q0 63 46.5 99.5
t113.5 36.5q104 0 162 -62l-40 -59q-49 51 -120 51q-35 0 -55.5 -15t-20.5 -44q0 -26 24 -41.5t69 -29.5l64 -23q36 -15 55 -34q38 -36 38 -88z" />
    <glyph glyph-name="Tcommaaccent" unicode="&#x162;" horiz-adv-x="501" 
d="M493 690v-81h-194v-609h-97v609h-195v81h486zM219 -50h98l-63 -140h-71z" />
    <glyph glyph-name="tcommaaccent" unicode="&#x163;" horiz-adv-x="311" 
d="M291 82l6 -77q-37 -16 -87 -16q-68 0 -101 49q-24 36 -24 142v217h-70v77h70v142h96v-142h114v-77h-114v-215q0 -65 12 -87q14 -24 49 -24q12 0 24.5 2.5t18.5 5.5zM141 -50h98l-63 -140h-71z" />
    <glyph glyph-name="Tcaron" unicode="&#x164;" horiz-adv-x="501" 
d="M493 690v-81h-194v-609h-97v609h-195v81h486zM311 904h70l-91 -145h-79l-91 145h70l60 -100z" />
    <glyph glyph-name="tcaron" unicode="&#x165;" horiz-adv-x="311" 
d="M291 82l6 -77q-37 -16 -87 -16q-68 0 -101 49q-24 36 -24 142v217h-70v77h70v142h96v-142h114v-77h-114v-215q0 -65 12 -87q14 -24 49 -24q12 0 24.5 2.5t18.5 5.5zM304 742h98l-89 -214h-76z" />
    <glyph glyph-name="Tbar" unicode="&#x166;" horiz-adv-x="501" 
d="M493 690v-81h-194v-182h91v-75h-91v-352h-97v352h-91v75h91v182h-195v81h486z" />
    <glyph glyph-name="tbar" unicode="&#x167;" horiz-adv-x="311" 
d="M275 324v-80h-94v-62q0 -65 12 -87q14 -24 49 -24q12 0 24.5 2.5t18.5 5.5l6 3l6 -77q-37 -16 -87 -16q-68 0 -101 49q-24 36 -24 142v64h-52v80h52v73h-70v77h70v142h96v-142h114v-77h-114v-73h94z" />
    <glyph glyph-name="Utilde" unicode="&#x168;" 
d="M596 690v-408q0 -73 -11 -122t-44 -88q-73 -84 -207 -84q-135 0 -207 84q-33 39 -44.5 88t-11.5 122v408h98v-399q0 -37 1.5 -58.5t8.5 -49.5t22 -47q45 -61 133 -61q86 0 133 61q15 19 22 47t8.5 50t1.5 58v399h97zM443 883l47 -10q-3 -40 -30 -66t-62 -26q-31 0 -71 22
q-1 1 -10.5 6.5l-15 8.5t-15.5 6.5t-18 3.5q-17 0 -29 -12.5t-15 -30.5l-47 10q3 40 30 66.5t62 26.5q13 0 25.5 -3t19 -6t16 -8t10.5 -6q1 0 13.5 -8t23.5 -12t22 -4q34 0 44 42z" />
    <glyph glyph-name="utilde" unicode="&#x169;" horiz-adv-x="536" 
d="M470 476v-476h-93l-1 68q-20 -36 -59 -57.5t-88 -21.5q-89 0 -132 55q-35 47 -35 147v285h95v-281q0 -58 20.5 -92t78.5 -34q59 0 88.5 43.5t29.5 108.5v255h96zM377 669l47 -10q-3 -40 -30 -66t-62 -26q-31 0 -71 22q-1 1 -10.5 6.5l-15 8.5t-15.5 6.5t-18 3.5
q-17 0 -29 -12.5t-15 -30.5l-47 10q3 40 30 66.5t62 26.5q13 0 25.5 -3t19 -6t16 -8t10.5 -6q1 0 13.5 -8t23.5 -12t22 -4q34 0 44 42z" />
    <glyph glyph-name="Umacron" unicode="&#x16a;" 
d="M596 690v-408q0 -73 -11 -122t-44 -88q-73 -84 -207 -84q-135 0 -207 84q-33 39 -44.5 88t-11.5 122v408h98v-399q0 -37 1.5 -58.5t8.5 -49.5t22 -47q45 -61 133 -61q86 0 133 61q15 19 22 47t8.5 50t1.5 58v399h97zM463 861v-55h-259v55h259z" />
    <glyph glyph-name="umacron" unicode="&#x16b;" horiz-adv-x="536" 
d="M470 476v-476h-93l-1 68q-20 -36 -59 -57.5t-88 -21.5q-89 0 -132 55q-35 47 -35 147v285h95v-281q0 -58 20.5 -92t78.5 -34q59 0 88.5 43.5t29.5 108.5v255h96zM397 647v-55h-259v55h259z" />
    <glyph glyph-name="Ubreve" unicode="&#x16c;" 
d="M596 690v-408q0 -73 -11 -122t-44 -88q-73 -84 -207 -84q-135 0 -207 84q-33 39 -44.5 88t-11.5 122v408h98v-399q0 -37 1.5 -58.5t8.5 -49.5t22 -47q45 -61 133 -61q86 0 133 61q15 19 22 47t8.5 50t1.5 58v399h97zM433 893h49q-8 -60 -47 -91.5t-102 -31.5
q-62 0 -101 31.5t-47 91.5h48q17 -65 100 -65q85 0 100 65z" />
    <glyph glyph-name="ubreve" unicode="&#x16d;" horiz-adv-x="536" 
d="M470 476v-476h-93l-1 68q-20 -36 -59 -57.5t-88 -21.5q-89 0 -132 55q-35 47 -35 147v285h95v-281q0 -58 20.5 -92t78.5 -34q59 0 88.5 43.5t29.5 108.5v255h96zM367 679h49q-8 -60 -47 -91.5t-102 -31.5q-62 0 -101 31.5t-47 91.5h48q17 -65 100 -65q85 0 100 65z" />
    <glyph glyph-name="Uring" unicode="&#x16e;" 
d="M596 690v-408q0 -73 -11 -122t-44 -88q-73 -84 -207 -84q-135 0 -207 84q-33 39 -44.5 88t-11.5 122v408h98v-399q0 -37 1.5 -58.5t8.5 -49.5t22 -47q45 -61 133 -61q86 0 133 61q15 19 22 47t8.5 50t1.5 58v399h97zM433 851q0 -41 -29 -68t-71 -27t-71 27t-29 68t29 68
t71 27t71 -27t29 -68zM385 851q0 23 -14.5 37.5t-37.5 14.5q-22 0 -36.5 -14.5t-14.5 -37.5t14.5 -38t36.5 -15t37 15t15 38z" />
    <glyph glyph-name="uring" unicode="&#x16f;" horiz-adv-x="536" 
d="M470 476v-476h-93l-1 68q-20 -36 -59 -57.5t-88 -21.5q-89 0 -132 55q-35 47 -35 147v285h95v-281q0 -58 20.5 -92t78.5 -34q59 0 88.5 43.5t29.5 108.5v255h96zM368 637q0 -41 -29 -68t-71 -27t-71 27t-29 68t29 68t71 27t71 -27t29 -68zM320 637q0 23 -15 37.5
t-37 14.5t-36.5 -14.5t-14.5 -37.5t14.5 -38t36.5 -15t37 15t15 38z" />
    <glyph glyph-name="Uhungarumlaut" unicode="&#x170;" 
d="M596 690v-408q0 -73 -11 -122t-44 -88q-73 -84 -207 -84q-135 0 -207 84q-33 39 -44.5 88t-11.5 122v408h98v-399q0 -37 1.5 -58.5t8.5 -49.5t22 -47q45 -61 133 -61q86 0 133 61q15 19 22 47t8.5 50t1.5 58v399h97zM441 904h92l-111 -145h-71zM303 904h93l-111 -145h-72
z" />
    <glyph glyph-name="uhungarumlaut" unicode="&#x171;" horiz-adv-x="536" 
d="M470 476v-476h-93l-1 68q-20 -36 -59 -57.5t-88 -21.5q-89 0 -132 55q-35 47 -35 147v285h95v-281q0 -58 20.5 -92t78.5 -34q59 0 88.5 43.5t29.5 108.5v255h96zM367 690h92l-111 -145h-71zM229 690h93l-111 -145h-72z" />
    <glyph glyph-name="Uogonek" unicode="&#x172;" 
d="M460 -130l15 -31q-45 -43 -104 -43q-45 0 -74 24t-29 66q0 54 56 102q-128 3 -197 84q-33 39 -44.5 88t-11.5 122v408h98v-399q0 -37 1.5 -58.5t8.5 -49.5t22 -47q45 -61 133 -61q86 0 133 61q15 19 22 47t8.5 50t1.5 58v399h97v-408q0 -74 -11 -123t-44 -87
q-55 -64 -149 -79q-26 -20 -43 -45.5t-17 -47.5q0 -26 17 -39t42 -13q32 0 69 22z" />
    <glyph glyph-name="uogonek" unicode="&#x173;" horiz-adv-x="536" 
d="M493 -134l15 -31q-45 -43 -104 -43q-45 0 -74 24t-29 66q0 63 76 118l-1 68q-20 -36 -59 -57.5t-88 -21.5q-89 0 -132 55q-35 47 -35 147v285h95v-281q0 -58 20.5 -92t78.5 -34q59 0 88.5 43.5t29.5 108.5v255h96v-476q-49 -13 -77 -43.5t-28 -60.5q0 -26 17 -39t42 -13
q32 0 69 22z" />
    <glyph glyph-name="Wcircumflex" unicode="&#x174;" horiz-adv-x="929" 
d="M822 690h102l-199 -691h-95l-166 558l-165 -558h-95l-199 691h102l149 -544l159 544h99l159 -544zM504 904l91 -145h-70l-61 100l-60 -100h-70l91 145h79z" />
    <glyph glyph-name="wcircumflex" unicode="&#x175;" horiz-adv-x="761" 
d="M654 475h97l-157 -475h-88l-125 355l-126 -355h-88l-157 475h97l110 -359l125 360h77l125 -360zM420 690l91 -145h-70l-61 100l-60 -100h-70l91 145h79z" />
    <glyph glyph-name="Ycircumflex" unicode="&#x176;" horiz-adv-x="575" 
d="M467 690h109l-240 -401v-289h-97v289l-240 401h109l179 -317zM327 904l91 -145h-70l-61 100l-60 -100h-70l91 145h79z" />
    <glyph glyph-name="ycircumflex" unicode="&#x177;" horiz-adv-x="479" 
d="M382 476l99 -1l-229 -558q-24 -60 -54 -85t-71 -25q-24 0 -46.5 4.5t-32.5 8.5l-11 4l19 78q26 -11 50 -11q11 0 16 1t14 5.5t17 16.5t15 33l23 63l-190 466l100 -1l141 -369zM279 690l91 -145h-70l-61 100l-60 -100h-70l91 145h79z" />
    <glyph glyph-name="Ydieresis" unicode="&#x178;" horiz-adv-x="575" 
d="M417 818q0 -24 -15.5 -39t-37.5 -15t-37 15t-15 39t15 39t37 15t37.5 -15t15.5 -39zM263 818q0 -24 -15 -39t-37 -15t-37.5 15t-15.5 39t15.5 39t37.5 15t37 -15t15 -39zM467 690h109l-240 -401v-289h-97v289l-240 401h109l179 -317z" />
    <glyph glyph-name="Zacute" unicode="&#x179;" horiz-adv-x="566" 
d="M541 83v-83h-511v74l377 534h-366v82h493v-66l-383 -541h390zM310 904h94l-110 -145h-73z" />
    <glyph glyph-name="zacute" unicode="&#x17a;" horiz-adv-x="456" 
d="M435 79v-79h-414v59l278 338h-264v77h386v-58l-277 -337h291zM254 690h94l-110 -145h-73z" />
    <glyph glyph-name="Zdotaccent" unicode="&#x17b;" horiz-adv-x="566" 
d="M541 83v-83h-511v74l377 534h-366v82h493v-66l-383 -541h390zM346 832q0 -22 -15.5 -37.5t-38.5 -15.5q-22 0 -37.5 15.5t-15.5 37.5q0 23 15 38t38 15t38.5 -15t15.5 -38z" />
    <glyph glyph-name="zdotaccent" unicode="&#x17c;" horiz-adv-x="456" 
d="M435 79v-79h-414v59l278 338h-264v77h386v-58l-277 -337h291zM281 618q0 -22 -15.5 -37.5t-38.5 -15.5t-38 15.5t-15 37.5q0 23 15 38t38 15t38.5 -15t15.5 -38z" />
    <glyph glyph-name="Zcaron" unicode="&#x17d;" horiz-adv-x="566" 
d="M348 887h70l-91 -145h-79l-91 145h70l60 -100zM541 83v-83h-511v74l377 534h-366v82h493v-66l-383 -541h390z" />
    <glyph glyph-name="zcaron" unicode="&#x17e;" horiz-adv-x="456" 
d="M289 690h70l-92 -145h-78l-92 145h70l61 -100zM435 79v-79h-414v59l278 338h-264v77h386v-58l-277 -337h291z" />
    <glyph glyph-name="florin" unicode="&#x192;" horiz-adv-x="586" 
d="M537 687l-26 -70q-26 17 -59 17q-24 0 -39.5 -15.5t-21 -32.5t-11.5 -49l-23 -119h112l-12 -71h-113l-57 -306q-14 -76 -49 -119.5t-109 -43.5q-22 0 -43.5 6t-31.5 12l-11 5l28 72q21 -14 56 -14q30 0 48 23q16 19 27 80l53 285h-92l13 71h93l26 134q12 58 32 90
q25 39 47 52q28 19 67 19q30 0 58 -9.5t38 -16.5z" />
    <glyph glyph-name="AEacute" unicode="&#x1fc;" horiz-adv-x="879" 
d="M836 82v-82h-384v182h-263l-110 -182h-109l434 690h424v-81h-279v-202h262v-81h-262v-244h287zM238 262h214v349h-2zM648 904h94l-110 -145h-73z" />
    <glyph glyph-name="aeacute" unicode="&#x1fd;" horiz-adv-x="832" 
d="M802 257l-2 -42h-367q4 -70 45.5 -110.5t108.5 -40.5q25 0 48.5 4.5t42 13t30.5 15t24 14.5l12 8l40 -55l-6 -6q-6 -5 -14 -11t-20.5 -14.5t-29 -15.5t-37 -13.5t-47 -10.5t-55.5 -4q-119 0 -190 92q-2 3 -3 4q-40 -48 -83.5 -72t-107.5 -24q-71 0 -118 40t-47 107
q0 68 50.5 105t137.5 40l125 5v20q0 52 -32 79.5t-86 27.5q-77 0 -143 -41l-29 64q84 48 178 48q92 0 138 -43q12 -11 20.5 -22t10.5 -17l3 -5q60 87 179 87q99 0 161.5 -64t62.5 -163zM435 279h276q0 48 -35.5 92t-100.5 44q-66 0 -102 -43t-38 -93zM354 137q-15 37 -15 91
l-110 -7q-108 -5 -108 -82q0 -35 26 -58.5t71 -23.5q44 0 82.5 25t53.5 55zM452 690h94l-110 -145h-73z" />
    <glyph glyph-name="Oslashacute" unicode="&#x1fe;" horiz-adv-x="786" 
d="M446 887h93l-110 -145h-72zM749 344q0 -161 -102.5 -258.5t-253.5 -97.5q-132 0 -228 76l-78 -80l-48 48l77 79q-79 95 -79 233q0 161 103 258.5t253 97.5q133 0 229 -75l79 81l48 -48l-79 -81q79 -93 79 -233zM185 181l373 379q-70 56 -165 56q-109 0 -183 -73.5
t-74 -196.5q0 -97 49 -165zM650 346q0 95 -47 164l-372 -379q71 -55 162 -55q109 0 183 73.5t74 196.5z" />
    <glyph glyph-name="oslashacute" unicode="&#x1ff;" horiz-adv-x="571" 
d="M321 690h93l-110 -145h-72zM501 494l43 -42l-59 -59q52 -65 52 -157q0 -110 -71.5 -178.5t-179.5 -68.5q-91 0 -158 50l-59 -58l-42 41l58 59q-51 65 -51 155q0 109 72 178.5t180 69.5q88 0 156 -49zM153 148l228 227q-39 31 -95 31q-70 0 -112.5 -47.5t-42.5 -119.5
q0 -50 22 -91zM440 239q0 50 -21 89l-228 -226q39 -31 95 -31q70 0 112 48t42 120z" />
    <glyph glyph-name="dotlessj" unicode="&#x237;" horiz-adv-x="236" 
d="M166 475v-476q0 -94 -30 -136q-44 -59 -120 -59q-17 0 -32 2t-22 4l-6 2l1 76q20 -7 45 -7q42 0 55 30.5t13 90.5v473h96z" />
    <glyph glyph-name="circumflex" unicode="&#x2c6;" horiz-adv-x="335" 
d="M207 690l91 -145h-70l-61 100l-60 -100h-70l91 145h79z" />
    <glyph glyph-name="caron" unicode="&#x2c7;" horiz-adv-x="335" 
d="M228 690h70l-91 -145h-79l-91 145h70l60 -100z" />
    <glyph glyph-name="breve" unicode="&#x2d8;" horiz-adv-x="335" 
d="M267 679h49q-8 -60 -47 -91.5t-102 -31.5q-62 0 -101 31.5t-47 91.5h48q17 -65 100 -65q85 0 100 65z" />
    <glyph glyph-name="dotaccent" unicode="&#x2d9;" horiz-adv-x="335" 
d="M221 618q0 -22 -15.5 -37.5t-38.5 -15.5t-38 15.5t-15 37.5q0 23 15 38t38 15t38.5 -15t15.5 -38z" />
    <glyph glyph-name="ring" unicode="&#x2da;" horiz-adv-x="335" 
d="M267 637q0 -41 -29 -68t-71 -27t-71 27t-29 68t29 68t71 27t71 -27t29 -68zM219 637q0 23 -14.5 37.5t-37.5 14.5q-22 0 -36.5 -14.5t-14.5 -37.5t14.5 -38t36.5 -15t37 15t15 38z" />
    <glyph glyph-name="ogonek" unicode="&#x2db;" horiz-adv-x="335" 
d="M256 -134l15 -31q-45 -43 -104 -43q-45 0 -74 24t-29 66q0 65 83 123h59v-5q-31 -18 -54.5 -48t-23.5 -56t17 -39t42 -13q32 0 69 22z" />
    <glyph glyph-name="tilde" unicode="&#x2dc;" horiz-adv-x="335" 
d="M277 669l47 -10q-3 -40 -30 -66t-62 -26q-31 0 -71 22q-1 1 -10.5 6.5l-15 8.5t-15.5 6.5t-18 3.5q-17 0 -29 -12.5t-15 -30.5l-47 10q3 40 30 66.5t62 26.5q13 0 25.5 -3t19 -6t16 -8t10.5 -6q1 0 13.5 -8t23.5 -12t22 -4q34 0 44 42z" />
    <glyph glyph-name="hungarumlaut" unicode="&#x2dd;" horiz-adv-x="335" 
d="M235 690h92l-111 -145h-71zM97 690h93l-111 -145h-72z" />
    <glyph glyph-name="Wgrave" unicode="&#x1e80;" horiz-adv-x="929" 
d="M822 690h102l-199 -691h-95l-166 558l-165 -558h-95l-199 691h102l149 -544l159 544h99l159 -544zM467 904l89 -145h-73l-110 145h94z" />
    <glyph glyph-name="wgrave" unicode="&#x1e81;" horiz-adv-x="761" 
d="M654 475h97l-157 -475h-88l-125 355l-126 -355h-88l-157 475h97l110 -359l125 360h77l125 -360zM363 690l89 -145h-73l-110 145h94z" />
    <glyph glyph-name="Wacute" unicode="&#x1e82;" horiz-adv-x="929" 
d="M822 690h102l-199 -691h-95l-166 558l-165 -558h-95l-199 691h102l149 -544l159 544h99l159 -544zM462 904h94l-110 -145h-73z" />
    <glyph glyph-name="wacute" unicode="&#x1e83;" horiz-adv-x="761" 
d="M654 475h97l-157 -475h-88l-125 355l-126 -355h-88l-157 475h97l110 -359l125 360h77l125 -360zM378 690h94l-110 -145h-73z" />
    <glyph glyph-name="Wdieresis" unicode="&#x1e84;" horiz-adv-x="929" 
d="M822 690h102l-199 -691h-95l-166 558l-165 -558h-95l-199 691h102l149 -544l159 544h99l159 -544zM594 831q0 -23 -15.5 -38t-37.5 -15t-37 15t-15 38q0 24 15 39t37 15t37.5 -15t15.5 -39zM440 831q0 -23 -15 -38t-37 -15t-37.5 15t-15.5 38q0 24 15.5 39t37.5 15
t37 -15t15 -39z" />
    <glyph glyph-name="wdieresis" unicode="&#x1e85;" horiz-adv-x="761" 
d="M654 475h97l-157 -475h-88l-125 355l-126 -355h-88l-157 475h97l110 -359l125 360h77l125 -360zM510 617q0 -23 -15.5 -38t-37.5 -15t-37 15t-15 38q0 24 15 39t37 15t37.5 -15t15.5 -39zM356 617q0 -23 -15 -38t-37 -15t-37.5 15t-15.5 38q0 24 15.5 39t37.5 15t37 -15
t15 -39z" />
    <glyph glyph-name="Ygrave" unicode="&#x1ef2;" horiz-adv-x="575" 
d="M467 690h109l-240 -401v-289h-97v289l-240 401h109l179 -317zM254 904l89 -145h-73l-110 145h94z" />
    <glyph glyph-name="ygrave" unicode="&#x1ef3;" horiz-adv-x="479" 
d="M382 476l99 -1l-229 -558q-24 -60 -54 -85t-71 -25q-24 0 -46.5 4.5t-32.5 8.5l-11 4l19 78q26 -11 50 -11q11 0 16 1t14 5.5t17 16.5t15 33l23 63l-190 466l100 -1l141 -369zM210 690l89 -145h-73l-110 145h94z" />
    <glyph glyph-name="endash" unicode="&#x2013;" horiz-adv-x="462" 
d="M462 311v-75h-462v75h462z" />
    <glyph glyph-name="emdash" unicode="&#x2014;" horiz-adv-x="850" 
d="M844 311v-75h-838v75h838z" />
    <glyph glyph-name="quoteleft" unicode="&#x2018;" horiz-adv-x="312" 
d="M166 690h76l-67 -214h-98z" />
    <glyph glyph-name="quoteright" unicode="&#x2019;" horiz-adv-x="312" 
d="M137 690h98l-89 -214h-76z" />
    <glyph glyph-name="quotesinglbase" unicode="&#x201a;" horiz-adv-x="312" 
d="M137 97h98l-89 -213h-76z" />
    <glyph glyph-name="quotedblleft" unicode="&#x201c;" horiz-adv-x="489" 
d="M344 690h73l-67 -214h-95zM167 690h74l-67 -214h-95z" />
    <glyph glyph-name="quotedblright" unicode="&#x201d;" horiz-adv-x="489" 
d="M315 690h95l-89 -214h-74zM139 690h95l-89 -214h-74z" />
    <glyph glyph-name="quotedblbase" unicode="&#x201e;" horiz-adv-x="489" 
d="M315 97h95l-89 -213h-74zM139 97h95l-89 -213h-74z" />
    <glyph glyph-name="dagger" unicode="&#x2020;" horiz-adv-x="601" 
d="M534 474v-75h-193v-575h-81v575h-193v75h193v252h81v-252h193z" />
    <glyph glyph-name="daggerdbl" unicode="&#x2021;" horiz-adv-x="601" 
d="M534 146v-75h-193v-247h-81v247h-193v75h193v258h-193v75h193v247h81v-247h193v-75h-193v-258h193z" />
    <glyph glyph-name="bullet" unicode="&#x2022;" horiz-adv-x="541" 
d="M421 365q0 -61 -44.5 -106t-105.5 -45t-106 45t-45 106t45 106t106 45t105.5 -45t44.5 -106z" />
    <glyph glyph-name="ellipsis" unicode="&#x2026;" horiz-adv-x="944" 
d="M841 53q0 -27 -18.5 -44t-45.5 -17q-28 0 -46 17t-18 44t18 43.5t46 16.5q27 0 45.5 -16.5t18.5 -43.5zM536 53q0 -27 -18 -44t-46 -17t-46 17t-18 44t18 43.5t46 16.5t46 -16.5t18 -43.5zM231 53q0 -27 -18 -44t-46 -17t-46 17t-18 44t18 43.5t46 16.5t46 -16.5
t18 -43.5z" />
    <glyph glyph-name="perthousand" unicode="&#x2030;" horiz-adv-x="1129" 
d="M1098 154q0 -74 -46 -120t-117 -46t-117 46t-46 120t46 120t117 46t117 -46t46 -120zM748 154q0 -74 -46 -120t-117 -46t-117 46t-46 120t46 120t117 46t117 -46t46 -120zM578 706l50 -30l-427 -699l-50 30zM357 529q0 -74 -46 -120.5t-117 -46.5t-117 46.5t-46 120.5
q0 73 46 119.5t117 46.5t117 -46.5t46 -119.5zM1028 155q0 46 -25.5 75t-67.5 29t-67.5 -29t-25.5 -75t25.5 -75t67.5 -29t67.5 29t25.5 75zM678 155q0 46 -25.5 75t-67.5 29t-67.5 -29t-25.5 -75t25.5 -75t67.5 -29t67.5 29t25.5 75zM287 529q0 46 -25.5 75t-67.5 29
t-67.5 -29t-25.5 -75t25.5 -74.5t67.5 -28.5t67.5 28.5t25.5 74.5z" />
    <glyph glyph-name="guilsinglleft" unicode="&#x2039;" horiz-adv-x="317" 
d="M138 238l119 -160l-53 -39l-149 199l149 198l52 -39z" />
    <glyph glyph-name="guilsinglright" unicode="&#x203a;" horiz-adv-x="317" 
d="M114 436l148 -198l-148 -199l-53 40l118 159l-119 160z" />
    <glyph glyph-name="fraction" unicode="&#x2044;" horiz-adv-x="199" 
d="M298 746l51 -30l-449 -742l-50 31z" />
    <glyph glyph-name="Euro" unicode="&#x20ac;" horiz-adv-x="586" 
d="M510 144l40 -64l-4 -5q-3 -5 -6 -8.5t-9.5 -10.5t-13 -12.5t-16.5 -13t-20.5 -13t-24.5 -11.5t-28.5 -9.5t-33 -6t-37.5 -2.5q-100 0 -167.5 69t-87.5 192h-67v65l60 1q-1 19 -1 35v34h-59v65h68q17 109 86 180q68 71 170 71q98 0 176 -68l-33 -75q-51 65 -141 65
q-60 0 -102.5 -43t-55.5 -130h249v-65h-258v-34l1 -36h257v-65h-249q10 -84 52.5 -130.5t106.5 -46.5q81 0 145 69z" />
    <glyph glyph-name="trademark" unicode="&#x2122;" horiz-adv-x="850" 
d="M763 690l31 -398h-65l-22 313h-2l-103 -313h-51l-102 313h-3l-21 -313h-65l31 398h88l97 -299h2l96 299h89zM338 690v-56h-112v-342h-65v342h-112v56h289z" />
    <glyph glyph-name="product" unicode="&#x220f;" horiz-adv-x="830" 
d="M780 291v-75h-87q-26 -71 -85 -126q-98 -90 -258 -90h-208v216h-92v75h92v113h-92v75h92v211h208q160 0 258 -90q58 -56 83 -121h89v-75h-69q4 -38 4 -59q0 -31 -4 -54h69zM616 345q0 32 -6 59h-371v-113h372q5 27 5 54zM239 84h111q116 0 184 64q32 32 52 68h-347v-132z
M534 543q-68 64 -184 64h-111v-128h344q-21 37 -49 64z" />
    <glyph glyph-name="minus" unicode="&#x2212;" 
d="M595 382v-74h-523v74h523z" />
    <glyph glyph-name="notequal" unicode="&#x2260;" 
d="M595 291v-74h-252l-32 -138h-75l32 138h-196v74h212l25 108h-237v73h252l32 139h75l-32 -139h196v-73h-211l-25 -108h236z" />
    <glyph glyph-name="lessequal" unicode="&#x2264;" horiz-adv-x="984" 
d="M358 -1q-23 0 -39.5 16.5t-16.5 39.5t16.5 39.5t39.5 16.5t39.5 -16.5t16.5 -39.5t-16.5 -39.5t-39.5 -16.5zM273 114q-23 0 -39.5 16.5t-16.5 39.5t16.5 39.5t39.5 16.5t39.5 -16.5t16.5 -39.5t-16.5 -39.5t-39.5 -16.5zM188 229q-23 0 -39.5 16.5t-16.5 39.5t16.5 39.5
t39.5 16.5t39.5 -16.5t16.5 -39.5t-16.5 -39.5t-39.5 -16.5zM358 801q23 0 39.5 -16.5t16.5 -39.5t-16.5 -39.5t-39.5 -16.5t-39.5 16.5t-16.5 39.5t16.5 39.5t39.5 16.5zM273 686q23 0 39.5 -16.5t16.5 -39.5t-16.5 -39.5t-39.5 -16.5t-39.5 16.5t-16.5 39.5t16.5 39.5
t39.5 16.5zM188 571q23 0 39.5 -16.5t16.5 -39.5t-16.5 -39.5t-39.5 -16.5t-39.5 16.5t-16.5 39.5t16.5 39.5t39.5 16.5zM928 456q23 0 39.5 -16.5t16.5 -39.5t-16.5 -39.5t-39.5 -16.5t-39.5 16.5t-16.5 39.5t16.5 39.5t39.5 16.5zM763 456q23 0 39.5 -16.5t16.5 -39.5
t-16.5 -39.5t-39.5 -16.5t-39.5 16.5t-16.5 39.5t16.5 39.5t39.5 16.5zM268 456q23 0 39.5 -16.5t16.5 -39.5t-16.5 -39.5t-39.5 -16.5t-39.5 16.5t-16.5 39.5t16.5 39.5t39.5 16.5zM103 456q23 0 39.5 -16.5t16.5 -39.5t-16.5 -39.5t-39.5 -16.5t-39.5 16.5t-16.5 39.5
t16.5 39.5t39.5 16.5zM433 456q23 0 39.5 -16.5t16.5 -39.5t-16.5 -39.5t-39.5 -16.5t-39.5 16.5t-16.5 39.5t16.5 39.5t39.5 16.5zM598 456q23 0 39.5 -16.5t16.5 -39.5t-16.5 -39.5t-39.5 -16.5t-39.5 16.5t-16.5 39.5t16.5 39.5t39.5 16.5z" />
    <glyph glyph-name="greaterequal" unicode="&#x2265;" horiz-adv-x="984" 
d="M386 456q23 0 39.5 -16.5t16.5 -39.5t-16.5 -39.5t-39.5 -16.5t-39.5 16.5t-16.5 39.5t16.5 39.5t39.5 16.5zM551 456q23 0 39.5 -16.5t16.5 -39.5t-16.5 -39.5t-39.5 -16.5t-39.5 16.5t-16.5 39.5t16.5 39.5t39.5 16.5zM881 456q23 0 39.5 -16.5t16.5 -39.5t-16.5 -39.5
t-39.5 -16.5t-39.5 16.5t-16.5 39.5t16.5 39.5t39.5 16.5zM716 456q23 0 39.5 -16.5t16.5 -39.5t-16.5 -39.5t-39.5 -16.5t-39.5 16.5t-16.5 39.5t16.5 39.5t39.5 16.5zM221 456q23 0 39.5 -16.5t16.5 -39.5t-16.5 -39.5t-39.5 -16.5t-39.5 16.5t-16.5 39.5t16.5 39.5
t39.5 16.5zM56 456q23 0 39.5 -16.5t16.5 -39.5t-16.5 -39.5t-39.5 -16.5t-39.5 16.5t-16.5 39.5t16.5 39.5t39.5 16.5zM796 571q23 0 39.5 -16.5t16.5 -39.5t-16.5 -39.5t-39.5 -16.5t-39.5 16.5t-16.5 39.5t16.5 39.5t39.5 16.5zM711 686q23 0 39.5 -16.5t16.5 -39.5
t-16.5 -39.5t-39.5 -16.5t-39.5 16.5t-16.5 39.5t16.5 39.5t39.5 16.5zM626 801q23 0 39.5 -16.5t16.5 -39.5t-16.5 -39.5t-39.5 -16.5t-39.5 16.5t-16.5 39.5t16.5 39.5t39.5 16.5zM796 229q-23 0 -39.5 16.5t-16.5 39.5t16.5 39.5t39.5 16.5t39.5 -16.5t16.5 -39.5
t-16.5 -39.5t-39.5 -16.5zM711 114q-23 0 -39.5 16.5t-16.5 39.5t16.5 39.5t39.5 16.5t39.5 -16.5t16.5 -39.5t-16.5 -39.5t-39.5 -16.5zM626 -1q-23 0 -39.5 16.5t-16.5 39.5t16.5 39.5t39.5 16.5t39.5 -16.5t16.5 -39.5t-16.5 -39.5t-39.5 -16.5z" />
    <glyph glyph-name="commaaccent" unicode="&#xf6c3;" horiz-adv-x="301" 
d="M118 -50h98l-63 -140h-71z" />
    <glyph glyph-name="apple" unicode="&#xf8ff;" horiz-adv-x="1439" 
d="M629 -62h-7q25 21 25 45q0 35 -29 41q5 -30 5 -52q0 -38 -32 -58t-72 -20q-26 0 -46.5 14.5t-20.5 39.5q0 23 15.5 32.5t30.5 9.5q9 0 13 -1q14 27 45 40v3q-3 7 -3 23q-20 -41 -55 -41q-19 0 -32 20.5t-13 50.5q0 21 18 66.5t18 59.5q0 23 -9 23q-11 0 -21.5 -12
t-11.5 -18q0 -35 -34 -53q0 -142 -116 -142q-34 0 -57 16t-23 49q0 21 12 38t31 17q25 0 25 -29q0 -21 -11 -37.5t-30 -16.5q-3 0 -8.5 2.5t-7.5 2.5q3 -12 13 -20.5t20 -8.5q16 0 29 10.5t22 33t14 39t12 46.5q-22 9 -35 31q-9 -3 -14 -3q-56 0 -56 58q0 45 32 80.5
t77 35.5q36 0 63.5 -12.5t35.5 -12.5q6 0 16 2v-4q-56 -13 -92 -63q-2 19 -16 30.5t-34 11.5q-29 0 -51.5 -24.5t-22.5 -54.5q0 -42 45 -42q8 0 14 3q-5 10 -5 28q0 20 10.5 34t21.5 14q17 0 17 -20q0 -16 -10.5 -32t-25.5 -25q8 -18 31 -28q17 68 47 105q11 13 31.5 29
t38.5 18v-5q-47 -22 -47 -109q0 -10 2 -38q32 17 32 46q0 24 -12 38v1q13 -6 15 -30q17 32 49 32q23 0 35 -21.5t12 -52.5q0 -11 -17.5 -57t-17.5 -67q0 -17 9 -17q12 0 22 15t17.5 42t13 52t12 57.5l9.5 46.5q16 -8 26 -8q11 0 34 16q-2 -12 -12.5 -57t-16.5 -79t-6 -58v-7
l1 -14q37 -8 37 -50q0 -28 -24 -48zM1393 90l-113 -22l8 -40l-70 56q-25 -57 -64 -98q17 -7 41 -7q53 0 73 41h2q-4 -23 -25.5 -37t-45.5 -14q-25 0 -53 10q-57 -59 -113 -59q-58 0 -58 95q-1 -1 -6 -1q-31 0 -53.5 28.5t-22.5 80.5q0 35 41 78.5t86 43.5q17 0 28.5 -12.5
t11.5 -39.5q0 -34 -32.5 -59t-68.5 -29q-10 -50 -10 -66q0 -17 20 -17q4 0 6 1v1q0 31 19.5 63.5t47.5 32.5q13 0 13 -20q0 -25 -23.5 -53t-49.5 -31q0 -87 56 -87q44 0 98 54q-63 30 -63 96q0 25 14.5 47t38.5 27v-3q-23 -6 -35 -27t-12 -47q0 -58 64 -86q44 49 60 102
l-90 27l39 16l-52 107l42 -13l-9 63l41 -45l24 35l24 -78l34 107l17 -28l62 37v-71h38l-82 -81l81 23l-13 -42l61 -6l-59 -28zM797 -4v-4q-8 0 -15 -5t-7 -13q0 -9 6.5 -15t15.5 -6q29 0 50 30t21 59q0 17 -11 35q-30 -63 -70 -63q-30 0 -30 42q0 27 14.5 43t29.5 19
q11 70 11 109q0 8 -9 8q-5 0 -12.5 -6t-14.5 -21t-7 -35q0 -21 -23 -138t-27 -130q-16 8 -26 8q-9 0 -33 -16l17 90l27.5 151t12.5 84q0 23 -12.5 37t-27 22.5t-27 38t-12.5 79.5q0 27 18.5 86.5t18.5 88.5q0 17 -7 17q-9 0 -23.5 -17t-24.5 -43q-2 -13 -9 -50.5l-13.5 -73
t-7.5 -38.5q-18 9 -26 9q-18 0 -31 -10q1 10 10.5 61t16 93t6.5 54q0 14 -7 14q-13 0 -30 -42h-8q5 16 9.5 25.5t15.5 18t26 8.5q40 0 47 -45l7.5 11.5t9 13t9.5 10.5t13 8.5t15 2.5q23 0 36.5 -27.5t13.5 -63.5q0 -40 -20 -99t-20 -87q0 -29 11.5 -44t26 -18.5t28 -17
t17.5 -37.5q23 38 46 38q27 0 43.5 -34.5t16.5 -64.5q0 -31 -13 -61q15 -22 15 -46q0 -35 -20 -64t-54 -29q-13 0 -22 8t-9 20q0 9 6.5 15.5t15.5 6.5h6zM171 257h-4l3 3q9 0 21 8.5t12 20.5v5q-18 -7 -39 -7t-44.5 8.5t-23.5 25.5q0 12 14 18t27 6q17 0 39.5 -11.5
t31.5 -26.5q35 15 35 46q0 19 -8 28q-27 -16 -56 -16q-47 0 -77.5 33t-30.5 89q0 15 10 43q-26 19 -26 58q0 37 23.5 69.5t56.5 32.5q3 0 7.5 -0.5t5.5 -0.5v-5h-9q-32 0 -55 -30t-23 -65q0 -33 24 -50q27 61 79 121t86 60q31 0 31 -53q0 -43 -35.5 -82.5t-81.5 -56.5v-1
q-1 -1 -1 -2q-22 -90 -22 -116q0 -15 9 -24.5t16 -11.5t12 -2q24 0 49 18q-14 10 -34 10q-22 0 -28 -6v3q9 9 25 9q26 0 42 -12q42 37 42 91q0 44 -28 44q-27 0 -44 -23.5t-17 -50.5q0 -30 18 -30q14 0 22.5 17.5t8.5 34.5q0 4 -2 12h6q2 -4 2 -12q0 -19 -11 -38.5
t-26 -19.5q-24 0 -24 38q0 27 18.5 53t45.5 26q21 0 33.5 -18.5t12.5 -44.5q0 -53 -48 -87q12 -12 12 -34q0 -37 -43 -55q1 -1 1 -4q0 -14 -13 -24.5t-27 -10.5zM1177 457h9q-23 -86 -61 -86q-17 0 -31.5 12.5t-18.5 36.5q-15 -30 -26.5 -40t-25.5 -10q-27 0 -41.5 34
t-14.5 67q0 35 37.5 82.5t67.5 47.5q17 0 24 -19q4 24 9.5 50l9 41.5t3.5 17.5q16 -8 26 -8t35 16q-55 -291 -55 -304t7 -13q13 0 26.5 25.5t19.5 49.5zM949 424h7q-13 -53 -45 -53q-38 0 -48 48q-15 -29 -26.5 -39t-24.5 -10q-27 0 -42 34t-15 67q0 35 37.5 82.5t67.5 47.5
q19 0 26 -23l5 20q19 -7 27 -7t33 15q-38 -195 -38 -211q0 -13 6 -13q14 0 30 42zM1393 424h8q-15 -53 -46 -53q-39 0 -47 48q-16 -30 -27 -39.5t-24 -9.5q-27 0 -42.5 34t-15.5 67q0 35 38 82.5t68 47.5q17 0 26 -23l5 20q19 -7 26 -7q10 0 33 15q-2 -11 -12 -61t-18 -94
t-8 -56q0 -13 7 -13q13 0 29 42zM500 424h7q-13 -53 -46 -53q-16 0 -29.5 12t-17.5 36q-15 -30 -26 -39.5t-26 -9.5q-26 0 -40.5 34t-14.5 67q0 35 38 82.5t68 47.5q15 0 24 -23l5 20q19 -7 26 -7t12.5 2t13 7.5t8.5 5.5q-2 -12 -12.5 -61.5t-18.5 -93.5t-8 -56q0 -13 8 -13
q13 0 29 42zM336 -74h-4q-18 0 -37 9.5t-19 28.5q0 21 26 21q18 0 33.5 -12.5t15.5 -28.5q0 -1 -0.5 -4t-0.5 -4q24 6 42 23t18 44q0 14 -5 29h3q6 -9 6 -29q0 -28 -20 -49t-48 -26q-15 -28 -57 -28q-27 0 -51.5 12.5t-24.5 36.5q0 12 7 20t19 8q7 0 12 -1q-64 56 -144 56
q-26 0 -85 -8q18 7 42 14t31 10q35 13 63 44t28 59q0 33 -22.5 52t-56.5 19q-71 0 -71 -41q0 -12 13.5 -19.5t29.5 -7.5q19 0 52 27v-7q-22 -31 -52 -31q-20 0 -35.5 10.5t-15.5 27.5q0 48 75 48q44 0 68 -22.5t24 -59.5q0 -28 -25 -56t-46 -41l14 -4q42 -9 70 -25.5
t53 -51.5h-1v-1q-3 0 -8.5 1.5t-8.5 1.5q-25 0 -25 -22q0 -21 24.5 -32.5t46.5 -11.5q31 0 47 21zM1091 557q-2 36 -15 36q-5 0 -8.5 -3t-6 -7t-4.5 -10.5t-3 -11l-2.5 -11.5t-1.5 -8q-25 -110 -25 -153q0 -8 7 -8q19 0 30 34t29 142zM506 -24h-12q-33 0 -33 -31
q0 -21 17 -33t39 -12q21 0 40.5 13.5t19.5 35.5q0 10 -3.5 22.5t-9 28.5t-7.5 21q-29 -10 -40 -34q14 -5 22 -16t8 -20q0 -6 -5.5 -12.5t-14.5 -6.5t-16 9.5t-7 19.5t2 15zM1306 452q2 29 17 97q0 44 -14 44q-19 0 -26 -51q-24 -132 -24 -153q0 -8 6 -8q24 0 41 71zM862 452
q1 21 17 97q0 44 -14 44q-6 0 -10 -3.5t-7 -11t-4.5 -12.5t-3 -14t-1.5 -10q-24 -132 -24 -153q0 -8 5 -8q25 0 42 71zM413 452q2 29 17 97q0 44 -14 44q-9 0 -16.5 -18t-9.5 -33q-24 -106 -24 -153q0 -8 6 -8q23 0 41 71zM212 662q0 -1 -4 -10t-9 -23.5l-11 -30.5l-12 -33
l-10 -28q40 18 69 62t29 91q0 20 -14 20q-9 0 -17 -10t-21 -38zM1182 388h2q-5 -31 -26.5 -49.5t-49.5 -22.5q0 -21 -21 -37t-49 -16q-24 0 -43.5 11.5t-19.5 37.5q0 15 12.5 29t29.5 15v-3q-13 -2 -23.5 -12.5t-10.5 -22.5q0 -41 57 -41q61 0 63 39q-2 -1 -6 -1
q-18 0 -30.5 7.5t-12.5 20.5q0 6 6 10.5t12 4.5q12 0 22 -9.5t14 -22.5q25 3 46.5 21t27.5 41zM936 356l8 -4q-6 -27 -33.5 -46.5t-60.5 -19.5h-8q-13 -13 -38 -13q-56 0 -78 42v1q35 -39 76 -39q22 0 33 10q-35 5 -68 25.5t-33 56.5q0 18 8 27l4 -3q-4 -14 -4 -22
q0 -33 32 -51t70 -22q3 6 3 14q0 18 -15 30.5t-35 12.5q-18 0 -31 -8l-3 1q12 12 33 12t38.5 -13.5t17.5 -33.5q0 -7 -2 -15h3q29 0 53 14.5t30 43.5zM960 113q28 4 46 41t18 66q0 17 -8 17q-32 0 -56 -124zM981 26v-2q19 0 42.5 27.5t23.5 51.5q0 11 -7 11
q-22 0 -40.5 -30.5t-18.5 -57.5zM200 304q-9 14 -28 24.5t-35 10.5q-31 0 -31 -18q0 -24 53 -24q21 0 41 7zM630 255l-4 1v2q-3 20 -14.5 29.5t-22.5 9.5q-7 0 -31 -11.5t-48 -11.5q-26 0 -26 20q0 13 11 19t23 6l46 -5q25 0 25 18q0 11 -9 17.5t-21 6.5q-22 0 -22 -14
q0 -11 12 -11q9 0 17 5l1 -6q-8 -4 -17 -4q-19 0 -19 15q0 8 10 14t19 6q15 0 25 -8t10 -20q0 -23 -31 -23l-46 5q-30 0 -30 -21q0 -14 21 -14q13 0 39 12.5t35 12.5q21 0 34 -14t13 -36zM800 109q-16 -1 -27 -19t-11 -38q0 -28 18 -28q4 0 7 6t5 17.5l3.5 20t3 23t1.5 18.5
zM344 -54q0 14 -12.5 23.5t-26.5 9.5q-21 0 -21 -20q0 -13 15 -19.5t30 -6.5t15 13zM306 191q33 23 33 51q0 15 -12 15q-13 0 -19 -14t-6 -29t4 -23zM1099 326h3q-6 26 -27 26q-12 0 -12 -10q0 -16 36 -16zM514 -26q-1 -4 -1 -10q0 -24 12 -24t12 9q0 15 -23 25z" />
    </font>
</defs>
</svg>
