<?xml version="1.0" standalone="no"?>
<!DOCTYPE svg PUBLIC "-//W3C//DTD SVG 1.1//EN" "http://www.w3.org/Graphics/SVG/1.1/DTD/svg11.dtd" >
<svg>
<metadata>
Created by FontForge 20090622 at Mon Oct 23 05:34:34 2017
 By deploy user
Copyright &#194;&#169; 2011 Rod McDonald. Published by Canada Type. All rights reserved.
</metadata>
<defs>
<font id="Gibson-Bold" horiz-adv-x="665" >
  <font-face 
    font-family="Gibson"
    font-weight="700"
    font-stretch="normal"
    units-per-em="1000"
    panose-1="2 0 0 0 0 0 0 0 0 0"
    ascent="800"
    descent="-200"
    x-height="510"
    cap-height="690"
    bbox="-86 -200 1420 940"
    underline-thickness="20"
    underline-position="-113"
    unicode-range="U+0020-U+FB04"
  />
<missing-glyph horiz-adv-x="200" 
 />
    <glyph glyph-name="ff" unicode="ff" horiz-adv-x="750" 
d="M785 690l-10 -150q-35 7 -65 7q-45 0 -45 -27v-10h100v-165h-100v-345h-225v345h-150v-345h-225v345h-60v165h60v5q0 96 47 140q54 50 163 50q60 0 135 -15l-10 -150q-35 7 -65 7q-45 0 -45 -27v-10h150v5q0 96 47 140q54 50 163 50q60 0 135 -15z" />
    <glyph glyph-name="fi" unicode="fi" horiz-adv-x="695" 
d="M662 635q0 -49 -32.5 -78t-87.5 -29q-54 0 -87 29t-33 78t33 78t87 29q55 0 87.5 -29t32.5 -78zM655 510v-510h-225v510h225zM410 690l-10 -150q-35 7 -65 7q-45 0 -45 -27v-10h100v-165h-100v-345h-225v345h-60v165h60v5q0 96 47 140q54 50 163 50q60 0 135 -15z" />
    <glyph glyph-name="fl" unicode="fl" horiz-adv-x="702" 
d="M660 690v-690h-225v690h225zM410 690l-10 -150q-35 7 -65 7q-45 0 -45 -27v-10h100v-165h-100v-345h-225v345h-60v165h60v5q0 96 47 140q54 50 163 50q60 0 135 -15z" />
    <glyph glyph-name="ffi" unicode="ffi" horiz-adv-x="1055" 
d="M785 690l-10 -150q-35 7 -65 7q-45 0 -45 -27v-10h100v-165h-100v-345h-225v345h-150v-345h-225v345h-60v165h60v5q0 96 47 140q54 50 163 50q60 0 135 -15l-10 -150q-35 7 -65 7q-45 0 -45 -27v-10h150v5q0 96 47 140q54 50 163 50q60 0 135 -15zM1030 510v-510h-225
v510h225zM1037 635q0 -49 -32.5 -78t-87.5 -29q-54 0 -87 29t-33 78t33 78t87 29q55 0 87.5 -29t32.5 -78z" />
    <glyph glyph-name="ffl" unicode="ffl" horiz-adv-x="1060" 
d="M785 690l-10 -150q-35 7 -65 7q-45 0 -45 -27v-10h100v-165h-100v-345h-225v345h-150v-345h-225v345h-60v165h60v5q0 96 47 140q54 50 163 50q85 0 135 -15l-10 -150q-35 7 -65 7q-45 0 -45 -27v-10h150v5q0 96 47 140q54 50 163 50q85 0 135 -15zM1017 690v-690h-225
v690h225z" />
    <glyph glyph-name="f_j" unicode="fj" horiz-adv-x="680" 
d="M655 510v-485q0 -111 -53 -160q-53 -50 -155 -50q-30 0 -55.5 2.5t-35.5 4.5l-11 3l5 170q15 -5 40 -5q21 0 30.5 9.5t9.5 37.5v473h225zM662 635q0 -49 -32.5 -78t-87.5 -29q-54 0 -87 29t-33 78t33 78t87 29q55 0 87.5 -29t32.5 -78zM410 690l-10 -150q-35 7 -65 7
q-45 0 -45 -27v-10h100v-165h-100v-345h-225v345h-60v165h60v5q0 96 47 140q54 50 163 50q60 0 135 -15z" />
    <glyph glyph-name="f_t" unicode="ft" horiz-adv-x="780" 
d="M775 510v-165h-105v-140q0 -21 9.5 -28t30.5 -7q11 0 23.5 2t19.5 4l7 1l10 -172q-68 -17 -140 -17q-91 0 -140 44q-45 42 -45 148v165h-155v-345h-225v345h-60v165h60v5q0 96 47 140q54 50 163 50q85 0 135 -15l-10 -150q-35 7 -65 7q-45 0 -45 -27v-10h155v125h225
v-125h105z" />
    <glyph glyph-name=".notdef" horiz-adv-x="200" 
 />
    <glyph glyph-name=".null" horiz-adv-x="0" 
 />
    <glyph glyph-name="nonmarkingreturn" horiz-adv-x="333" 
 />
    <glyph glyph-name="space" unicode=" " horiz-adv-x="195" 
 />
    <glyph glyph-name="exclam" unicode="!" horiz-adv-x="350" 
d="M57 690h235l-20 -450h-195zM297 97q0 -51 -33.5 -79.5t-88.5 -28.5q-56 0 -89.5 28.5t-33.5 79.5q0 52 33.5 80.5t89.5 28.5q55 0 88.5 -29t33.5 -80z" />
    <glyph glyph-name="quotedbl" unicode="&#x22;" horiz-adv-x="585" 
d="M325 690h205l-25 -285h-155zM55 690h205l-25 -285h-155z" />
    <glyph glyph-name="numbersign" unicode="#" horiz-adv-x="710" 
d="M665 542v-107h-120l-25 -130h107v-108h-127l-40 -205h-120l40 205h-115l-40 -205h-120l40 205h-100v108h120l25 130h-108v107h128l40 205h120l-40 -205h115l40 205h120l-40 -205h100zM400 305l25 130h-115l-25 -130h115z" />
    <glyph glyph-name="dollar" unicode="$" 
d="M592 225q0 -100 -82 -165q-26 -21 -68 -35.5t-72 -17.5l-3 -37h-87l2 35q-126 10 -210 80l90 145q21 -21 67.5 -40.5t70.5 -22.5l5 88l-40 15q-67 25 -108 60q-60 53 -60 140q0 96 73 157q52 46 155 55l3 40h87l-3 -42q45 -4 95 -24t80 -46l-75 -140q-61 46 -117 55
l-5 -88l65 -27q137 -58 137 -185zM317 460l5 67q-13 0 -22.5 -9t-9.5 -23q0 -24 27 -35zM405 197q0 24 -28 38l-5 -70q12 2 22.5 11t10.5 21z" />
    <glyph glyph-name="percent" unicode="%" horiz-adv-x="950" 
d="M920 177q0 -87 -54 -139.5t-141 -52.5t-141 52.5t-54 139.5q0 88 54 140.5t141 52.5t141 -52.5t54 -140.5zM647 710l88 -53l-433 -682l-87 52zM420 507q0 -87 -54 -139.5t-141 -52.5t-141 52.5t-54 139.5q0 88 54 140.5t141 52.5t141 -52.5t54 -140.5zM782 180
q0 70 -57 70q-55 0 -55 -70t55 -70q57 0 57 70zM282 510q0 70 -57 70q-55 0 -55 -70t55 -70q57 0 57 70z" />
    <glyph glyph-name="ampersand" unicode="&#x26;" horiz-adv-x="815" 
d="M815 10v-10h-255l-50 50q-53 -36 -101.5 -49t-108.5 -13q-112 0 -191 53.5t-79 158.5q0 64 43 112t109 70q-65 67 -65 140q0 92 73 137.5t175 45.5q64 0 115.5 -17t86.5 -58.5t35 -102.5q0 -57 -36 -104.5t-86 -72.5l60 -60q54 50 92 107l150 -90q-59 -89 -125 -140z
M417 520q0 40 -47 40q-48 0 -48 -40q0 -7 2.5 -13.5t6.5 -12t7 -9t7 -6.5t5 -4l17 -18q50 32 50 63zM392 172l-97 98l-10 -5q-40 -19 -40 -60q0 -25 20 -40t45 -15q54 0 82 22z" />
    <glyph glyph-name="quotesingle" unicode="'" horiz-adv-x="395" 
d="M95 690h205l-25 -285h-155z" />
    <glyph glyph-name="parenleft" unicode="(" horiz-adv-x="385" 
d="M355 -130l-140 -70l-43.5 65.5t-43.5 78.5t-42.5 100.5t-28 116t-12.5 139.5t12.5 139.5t28 116t42.5 100.5t43.5 78.5l43.5 65.5l140 -70q-46 -69 -85.5 -188.5t-39.5 -241.5t39.5 -241.5t85.5 -188.5z" />
    <glyph glyph-name="parenright" unicode=")" horiz-adv-x="385" 
d="M340 300q0 -71 -12.5 -139.5t-28 -116t-42.5 -100.5t-43.5 -78.5l-43.5 -65.5l-140 70q46 69 85.5 188.5t39.5 241.5t-39.5 241.5t-85.5 188.5l140 70l43.5 -65.5t43.5 -78.5t42.5 -100.5t28 -116t12.5 -139.5z" />
    <glyph glyph-name="asterisk" unicode="*" horiz-adv-x="525" 
d="M440 645l35 -105l-145 -35l100 -125l-90 -63l-78 133l-77 -133l-90 63l100 125l-145 35l35 105l132 -55l-12 135h115l-13 -135z" />
    <glyph glyph-name="plus" unicode="+" horiz-adv-x="735" 
d="M655 425v-160h-208v-205h-160v205h-207v160h207v205h160v-205h208z" />
    <glyph glyph-name="comma" unicode="," horiz-adv-x="350" 
d="M105 185h210l-125 -325h-185z" />
    <glyph glyph-name="hyphen" unicode="-" horiz-adv-x="385" 
d="M350 347v-170h-315v170h315z" />
    <glyph glyph-name="period" unicode="." horiz-adv-x="350" 
d="M297 97q0 -51 -33.5 -79.5t-88.5 -28.5q-56 0 -89.5 28.5t-33.5 79.5q0 52 33.5 80.5t89.5 28.5q55 0 88.5 -29t33.5 -80z" />
    <glyph glyph-name="slash" unicode="/" horiz-adv-x="565" 
d="M425 803l123 -57l-408 -849l-123 57z" />
    <glyph glyph-name="zero" unicode="0" 
d="M640 344q0 -72 -18 -134t-54 -113t-96.5 -80t-139.5 -29q-63 0 -115 19.5t-87 52.5t-59 79t-35 97t-11 108t11 108t35 97t59 79t87 52.5t115 19.5q79 0 139.5 -29t96.5 -80t54 -113t18 -134zM420 347q0 165 -88 165q-87 0 -87 -165q0 -167 87 -167q88 0 88 167z" />
    <glyph glyph-name="one" unicode="1" horiz-adv-x="500" 
d="M400 690v-690h-218v540h-115v150h333z" />
    <glyph glyph-name="two" unicode="2" 
d="M625 170v-170h-545l-25 140l225 190q57 48 76 76t19 59q0 60 -80 60q-39 0 -84 -19.5t-81 -55.5l-85 155q4 4 12 10.5t34.5 22.5t56 28.5t76.5 23t96 10.5q128 0 199 -56.5t71 -148.5q0 -35 -10 -66.5t-20.5 -51t-35.5 -46t-36.5 -36l-42.5 -35.5l-110 -90h290z" />
    <glyph glyph-name="three" unicode="3" 
d="M615 210q0 -72 -43 -123.5t-107 -74.5t-140 -23q-101 0 -174 32.5t-106 78.5l95 135q31 -37 80 -56t90 -19q35 0 61 18t26 47t-21 44.5t-56 15.5h-70v150h70q60 0 60 50t-70 50q-86 0 -165 -55l-75 145q107 75 257 75q109 0 187 -52t78 -138q0 -102 -87 -145
q49 -15 79.5 -57t30.5 -98z" />
    <glyph glyph-name="four" unicode="4" 
d="M645 295v-170h-83v-125h-217v125h-325v165l285 400h257v-395h83zM220 290h130v185z" />
    <glyph glyph-name="five" unicode="5" 
d="M622 240q0 -61 -26 -110.5t-68.5 -79.5t-94.5 -45.5t-108 -15.5q-101 0 -173.5 32.5t-106.5 78.5l95 135q30 -37 79 -56t86 -19t68.5 19.5t31.5 60.5t-30 60.5t-70 19.5q-69 0 -130 -35l-90 55l45 350h460v-170h-290l-10 -65q36 12 85 12q41 0 81.5 -12t79 -37
t62.5 -71.5t24 -106.5z" />
    <glyph glyph-name="six" unicode="6" 
d="M632 244q0 -109 -75.5 -182t-204.5 -73q-136 0 -221.5 94t-85.5 256q0 168 85.5 264.5t244.5 96.5q72 0 133.5 -20t96.5 -46l-75 -145q-70 42 -145 42q-58 0 -91.5 -32.5t-33.5 -94.5q50 50 160 50q86 0 149 -55.5t63 -154.5zM420 231q0 33 -22.5 55.5t-55.5 22.5
t-55 -22.5t-22 -55.5q0 -32 22 -54.5t55 -22.5t55.5 22.5t22.5 54.5z" />
    <glyph glyph-name="seven" unicode="7" 
d="M575 690l60 -135l-280 -555h-240l280 520h-335v170h515z" />
    <glyph glyph-name="eight" unicode="8" 
d="M622 200q0 -103 -83 -157t-207 -54q-123 0 -206.5 54t-83.5 157q0 59 31.5 99.5t88.5 57.5q-45 15 -73.5 51t-28.5 92q0 97 77.5 148.5t194.5 51.5q118 0 195.5 -51.5t77.5 -148.5q0 -56 -29 -92t-74 -51q57 -17 88.5 -57.5t31.5 -99.5zM392 485q0 26 -15.5 40.5
t-44.5 14.5q-28 0 -44 -14.5t-16 -40.5t16 -40.5t44 -14.5q29 0 44.5 14.5t15.5 40.5zM405 222q0 31 -20.5 48t-52.5 17q-31 0 -51.5 -17t-20.5 -48q0 -30 20.5 -47.5t51.5 -17.5t52 17.5t21 47.5z" />
    <glyph glyph-name="nine" unicode="9" 
d="M620 350q0 -168 -85.5 -264.5t-244.5 -96.5q-72 0 -133.5 20t-96.5 46l75 145q70 -43 145 -43q58 0 91.5 33t33.5 95q-50 -50 -160 -50q-86 0 -149.5 55.5t-63.5 154.5q0 109 75.5 182t204.5 73q136 0 222 -94t86 -256zM400 462q0 33 -22.5 55.5t-55.5 22.5t-55 -22.5
t-22 -55.5q0 -32 22 -54.5t55 -22.5t55.5 22.5t22.5 54.5z" />
    <glyph glyph-name="colon" unicode=":" horiz-adv-x="350" 
d="M297 412q0 -51 -33.5 -79.5t-88.5 -28.5q-56 0 -89.5 28.5t-33.5 79.5q0 52 33.5 80.5t89.5 28.5q55 0 88.5 -29t33.5 -80zM297 97q0 -51 -33.5 -79.5t-88.5 -28.5q-56 0 -89.5 28.5t-33.5 79.5q0 52 33.5 80.5t89.5 28.5q55 0 88.5 -29t33.5 -80z" />
    <glyph glyph-name="semicolon" unicode=";" horiz-adv-x="350" 
d="M297 412q0 -51 -33.5 -79.5t-88.5 -28.5q-56 0 -89.5 28.5t-33.5 79.5q0 52 33.5 80.5t89.5 28.5q55 0 88.5 -29t33.5 -80zM105 185h210l-125 -325h-185z" />
    <glyph glyph-name="less" unicode="&#x3c;" horiz-adv-x="735" 
d="M655 240v-175l-575 190v180l575 190v-175l-355 -105z" />
    <glyph glyph-name="equal" unicode="=" horiz-adv-x="735" 
d="M655 555v-160h-575v160h575zM655 295v-160h-575v160h575z" />
    <glyph glyph-name="greater" unicode="&#x3e;" horiz-adv-x="735" 
d="M655 435v-180l-575 -190v175l355 105l-355 105v175z" />
    <glyph glyph-name="question" unicode="?" horiz-adv-x="575" 
d="M530 510q0 -58 -16.5 -90.5t-48.5 -59.5q-28 -24 -105 -60q-7 -4 -10.5 -8.5t-4 -9.5t-0.5 -17v-25h-190v60q0 38 10 59.5t45 40.5l65 35q3 2 14.5 8t16 9t11.5 8.5t10 11.5t3 13q0 37 -80 37q-75 0 -150 -47l-50 165q100 60 240 60q104 0 172 -55t68 -135zM372 97
q0 -51 -33.5 -79.5t-88.5 -28.5q-56 0 -89.5 28.5t-33.5 79.5q0 52 33.5 80.5t89.5 28.5q55 0 88.5 -29t33.5 -80z" />
    <glyph glyph-name="at" unicode="@" horiz-adv-x="800" 
d="M765 260q0 -126 -70 -198q-64 -62 -145 -62q-80 0 -95 57q-4 -6 -13 -15.5t-37.5 -25.5t-59.5 -16q-59 0 -102 41t-43 124q0 93 53.5 156.5t141.5 63.5q71 0 106 -35l4 20h100l-45 -220q-13 -63 25 -63q31 0 60.5 44t29.5 119q0 106 -68.5 168t-191.5 62q-125 0 -205 -79
t-80 -206q0 -128 77 -204t208 -76q68 0 114 11t101 34l30 -65q-35 -18 -59 -27.5t-80.5 -20t-125.5 -10.5q-153 0 -256.5 99.5t-103.5 258.5q0 158 110.5 260t264.5 102q163 0 260 -87q41 -37 68 -92t27 -118zM465 175l20 100q-25 25 -70 25q-47 0 -75 -33q-30 -34 -30 -92
q0 -83 70 -83q68 0 85 83z" />
    <glyph glyph-name="A" unicode="A" horiz-adv-x="710" 
d="M480 690l240 -690h-245l-27 97h-197l-26 -97h-235l240 690h250zM299 270h102l-51 185z" />
    <glyph glyph-name="B" unicode="B" horiz-adv-x="660" 
d="M647 200q0 -104 -77 -155q-68 -45 -180 -45h-340v690h285q113 0 175 -25q42 -17 72 -55.5t30 -94.5t-29.5 -97t-67.5 -56q61 -17 96.5 -60t35.5 -102zM390 477q0 27 -20 40q-15 10 -50 10h-45v-100h45q34 0 50 11q20 13 20 39zM420 222q0 30 -20 43q-18 12 -50 12h-75
v-110h75q31 0 50 13q20 13 20 42z" />
    <glyph glyph-name="C" unicode="C" horiz-adv-x="635" 
d="M570 255l65 -180q-87 -87 -245 -87q-160 0 -265 94.5t-105 261.5t105 261.5t265 94.5q43 0 83 -6.5t65.5 -16t45 -19.5t28.5 -16l8 -7l-60 -190q-8 7 -22 17t-54.5 26.5t-78.5 16.5q-68 0 -113 -40.5t-45 -117.5q0 -75 46 -115t112 -40q102 0 165 63z" />
    <glyph glyph-name="D" unicode="D" horiz-adv-x="720" 
d="M700 345q0 -182 -115 -270q-97 -75 -275 -75h-260v690h260q178 0 275 -75q115 -88 115 -270zM472 345q0 87 -40 125q-35 35 -105 35h-52v-315h52q70 0 105 35q40 40 40 120z" />
    <glyph glyph-name="E" unicode="E" horiz-adv-x="580" 
d="M550 180v-180h-500v690h490v-178h-265v-75h250v-177h-250v-80h275z" />
    <glyph glyph-name="F" unicode="F" horiz-adv-x="550" 
d="M530 690v-178h-255v-107h240v-178h-240v-227h-225v690h480z" />
    <glyph glyph-name="G" unicode="G" horiz-adv-x="740" 
d="M705 417v-302l-37.5 -33t-45 -32t-61.5 -32t-76 -20t-100 -9q-71 0 -135.5 21.5t-116.5 64t-82.5 112t-30.5 158.5t31 158.5t83.5 111.5t117.5 63.5t138 21.5q28 0 54 -3t47 -7.5t41.5 -12t35.5 -14t30.5 -16t25.5 -16.5t20.5 -16.5t15.5 -14.5l12 -12l8 -8l-150 -125
q-60 60 -140 60q-62 0 -102.5 -45t-40.5 -125t40.5 -125t102.5 -45q36 0 59.5 6.5t29.5 12.5l6 6v50h-105v167h325z" />
    <glyph glyph-name="H" unicode="H" horiz-adv-x="740" 
d="M690 690v-690h-226v255h-188v-255h-226v690h226v-250h188v250h226z" />
    <glyph glyph-name="I" unicode="I" horiz-adv-x="326" 
d="M276 690v-690h-226v690h226z" />
    <glyph glyph-name="J" unicode="J" horiz-adv-x="325" 
d="M275 690v-665q0 -110 -49 -160t-146 -50q-39 0 -78.5 5.5t-51.5 11.5l10 163q30 -10 55 -10q17 0 26 8t9 32v665h225z" />
    <glyph glyph-name="K" unicode="K" horiz-adv-x="680" 
d="M462 412l238 -412h-270l-115 230l-40 -50v-180h-225v690h225v-210l145 210h265z" />
    <glyph glyph-name="L" unicode="L" horiz-adv-x="520" 
d="M510 185v-185h-460v690h225v-505h235z" />
    <glyph glyph-name="M" unicode="M" horiz-adv-x="895" 
d="M825 690l40 -690h-222l-8 395l-90 -395h-195l-90 395l-8 -395h-222l40 690h290l87 -375l88 375h290z" />
    <glyph glyph-name="N" unicode="N" horiz-adv-x="760" 
d="M710 690v-690h-235l-210 385q5 -75 5 -125v-260h-220v690h245l200 -385q-5 75 -5 125v260h220z" />
    <glyph glyph-name="O" unicode="O" horiz-adv-x="790" 
d="M770 344q0 -165 -105 -260.5t-270 -95.5t-270 95.5t-105 260.5t105 261t270 96t270 -96t105 -261zM542 349q0 72 -40 116.5t-107 44.5t-107.5 -44.5t-40.5 -116.5t40.5 -116.5t107.5 -44.5t107 44.5t40 116.5z" />
    <glyph glyph-name="P" unicode="P" horiz-adv-x="625" 
d="M620 452q0 -120 -78 -182q-69 -55 -192 -55h-74v-215h-226v690h300q123 0 192 -55q78 -62 78 -183zM392 452q0 38 -25 55q-18 13 -55 13h-37v-135h37q37 0 55 12q25 17 25 55z" />
    <glyph glyph-name="Q" unicode="Q" horiz-adv-x="790" 
d="M705 129l75 -84l-135 -120l-84 93q-73 -30 -166 -30q-165 0 -270 95.5t-105 260.5t105 261t270 96t270 -96t105 -261q0 -126 -65 -215zM542 349q0 72 -40 116.5t-107 44.5t-107.5 -44.5t-40.5 -116.5t40.5 -116.5t107.5 -44.5l14 1l-19 21l135 120l15 -17q2 16 2 36z" />
    <glyph glyph-name="R" unicode="R" horiz-adv-x="660" 
d="M520 262l155 -262h-260l-110 230h-29v-230h-226v690h300q129 0 200 -50q85 -60 85 -170q0 -139 -115 -208zM407 460q0 29 -25 47q-16 13 -50 13h-57v-120h57q35 0 50 12q25 18 25 48z" />
    <glyph glyph-name="S" unicode="S" horiz-adv-x="570" 
d="M560 227q0 -110 -90 -180q-77 -59 -204 -59q-142 0 -266 92l100 170q43 -36 98.5 -55.5t85.5 -19.5q51 0 51 29q0 9 -8.5 16.5t-16.5 11t-25 8.5q-43 12 -100 32q-67 27 -95 51q-63 54 -63 147q0 101 80 167q72 60 203 60q68 0 134.5 -22.5t111.5 -60.5l-86 -160
q-36 31 -84 48.5t-80 17.5q-56 0 -56 -28q0 -4 1.5 -7.5t5.5 -6.5t7 -5t8.5 -4.5t8.5 -3.5t9.5 -3t7.5 -2q3 -1 35.5 -10.5t46.5 -14.5q77 -26 115 -58q65 -56 65 -150z" />
    <glyph glyph-name="T" unicode="T" horiz-adv-x="551" 
d="M551 690v-176h-163v-514h-226v514h-162v176h551z" />
    <glyph glyph-name="U" unicode="U" horiz-adv-x="720" 
d="M675 690v-395q0 -150 -75 -225q-81 -81 -240 -81t-240 81q-75 75 -75 225v395h227v-405q0 -52 23 -75q25 -25 65 -25t65 25q22 22 22 75v405h228z" />
    <glyph glyph-name="V" unicode="V" horiz-adv-x="720" 
d="M490 690h240l-260 -690h-220l-260 690h240l130 -400z" />
    <glyph glyph-name="W" unicode="W" horiz-adv-x="1015" 
d="M790 690h235l-195 -690h-230l-93 390l-92 -390h-230l-195 690h235l85 -385l85 385h225l85 -385z" />
    <glyph glyph-name="X" unicode="X" horiz-adv-x="720" 
d="M510 360l230 -360h-270l-110 220l-110 -220h-270l230 360l-218 330h270l98 -185l97 185h270z" />
    <glyph glyph-name="Y" unicode="Y" 
d="M435 690h250l-240 -420v-270h-226v270l-239 420h250l102 -233z" />
    <glyph glyph-name="Z" unicode="Z" horiz-adv-x="660" 
d="M635 185v-185h-605v160l300 350h-290v180h580v-155l-300 -350h315z" />
    <glyph glyph-name="bracketleft" unicode="[" horiz-adv-x="385" 
d="M335 -65v-98h-275v925h275v-97h-103v-730h103z" />
    <glyph glyph-name="backslash" unicode="\" horiz-adv-x="565" 
d="M140 795l398 -847l-113 -53l-399 846z" />
    <glyph glyph-name="bracketright" unicode="]" horiz-adv-x="385" 
d="M325 762v-925h-275v98h102v730h-102v97h275z" />
    <glyph glyph-name="asciicircum" unicode="^" horiz-adv-x="735" 
d="M457 725l190 -425h-175l-105 250l-105 -250h-175l190 425h180z" />
    <glyph glyph-name="underscore" unicode="_" horiz-adv-x="500" 
d="M500 85v-170h-500v170h500z" />
    <glyph glyph-name="grave" unicode="`" horiz-adv-x="500" 
d="M305 690l70 -145h-155l-95 145h180z" />
    <glyph glyph-name="a" unicode="a" horiz-adv-x="590" 
d="M555 280v-280h-213l-5 45q-57 -57 -130 -57q-81 0 -138 40t-57 127q0 36 14 64t35 44.5t49 27.5t52.5 15.5t49.5 5.5l118 5v5q0 48 -83 48q-81 0 -160 -45l-55 142q115 53 245 53q143 0 210 -60q68 -60 68 -180zM332 145v63l-45 -3q-50 -2 -50 -40q0 -40 50 -40
q25 0 45 20z" />
    <glyph glyph-name="b" unicode="b" horiz-adv-x="662" 
d="M647 254q0 -115 -64 -190.5t-171 -75.5q-108 0 -160 67l3 -55h-213v690h225v-145l-2 -80q5 6 14.5 15t47.5 24.5t85 15.5q107 0 171 -75.5t64 -190.5zM420 257q0 41 -23 64.5t-57 23.5t-57 -23t-23 -65q0 -41 23 -64t57 -23q33 0 56.5 23t23.5 64z" />
    <glyph glyph-name="c" unicode="c" horiz-adv-x="490" 
d="M440 205l40 -170q-7 -5 -20.5 -13t-61 -21t-103.5 -13q-118 0 -199 71.5t-81 194.5t81 194.5t199 71.5q51 0 96 -10t65 -20l19 -10l-35 -170q-47 35 -110 35q-40 0 -66.5 -23t-26.5 -65t26 -64.5t72 -22.5q27 0 53 9t39 17z" />
    <glyph glyph-name="d" unicode="d" horiz-adv-x="662" 
d="M620 690v-690h-213l3 55q-52 -67 -160 -67q-107 0 -171 75.5t-64 190.5t64 190.5t171 75.5q47 0 83.5 -14t50.5 -28l13 -13q-2 40 -2 80v145h225zM402 257q0 42 -23 65t-57 23t-57 -23.5t-23 -64.5t23.5 -64t56.5 -23q34 0 57 23t23 64z" />
    <glyph glyph-name="e" unicode="e" horiz-adv-x="587" 
d="M575 265l-3 -63h-335q10 -57 98 -57q80 0 140 40l85 -110q-2 -1 -5 -4q-100 -83 -253 -83q-126 0 -206.5 69.5t-80.5 196.5q0 126 82 196t208 70q121 0 195.5 -69.5t74.5 -185.5zM237 320h130q-2 27 -19.5 43.5t-45.5 16.5q-27 0 -45 -16.5t-20 -43.5z" />
    <glyph glyph-name="f" unicode="f" horiz-adv-x="375" 
d="M410 690l-10 -150q-35 7 -65 7q-45 0 -45 -27v-10h100v-165h-100v-345h-225v345h-60v165h60v5q0 96 47 140q54 50 163 50q60 0 135 -15z" />
    <glyph glyph-name="g" unicode="g" horiz-adv-x="662" 
d="M620 510v-410q0 -144 -98 -220q-82 -65 -242 -65q-78 0 -149.5 21.5t-115.5 53.5l85 140q32 -20 80 -35t90 -15q75 0 105 30q22 22 22 60v10q-49 -55 -147 -55q-97 0 -166 64.5t-69 182.5q0 119 69 183.5t166 64.5q94 0 147 -60l-2 50h225zM402 270q0 33 -23 55t-57 22
t-57 -22t-23 -55q0 -34 23 -56t57 -22t57 22t23 56z" />
    <glyph glyph-name="h" unicode="h" horiz-adv-x="630" 
d="M597 300v-300h-225v250q0 44 -10 66t-42 22q-33 0 -43 -22t-10 -66v-250h-225v690h225v-150l-2 -95q47 75 142 75q105 0 147.5 -58t42.5 -162z" />
    <glyph glyph-name="i" unicode="i" horiz-adv-x="305" 
d="M272 635q0 -49 -32.5 -78t-87.5 -29q-54 0 -87 29t-33 78t33 78t87 29q55 0 87.5 -29t32.5 -78zM265 510v-510h-225v510h225z" />
    <glyph glyph-name="j" unicode="j" horiz-adv-x="305" 
d="M272 635q0 -49 -32.5 -78t-87.5 -29q-54 0 -87 29t-33 78t33 78t87 29q55 0 87.5 -29t32.5 -78zM265 510v-485q0 -111 -53 -160q-53 -50 -155 -50q-30 0 -55.5 2.5t-35.5 4.5l-11 3l5 170q15 -5 40 -5q21 0 30.5 9.5t9.5 37.5v473h225z" />
    <glyph glyph-name="k" unicode="k" horiz-adv-x="615" 
d="M455 320l180 -320h-255l-80 155l-33 -35v-120h-225v690h225v-315l108 135h255z" />
    <glyph glyph-name="l" unicode="l" horiz-adv-x="310" 
d="M267 690v-690h-225v690h225z" />
    <glyph glyph-name="m" unicode="m" horiz-adv-x="932" 
d="M895 305v-305h-225v260q0 40 -10 59t-35 19t-35 -19t-10 -59v-260h-225v260q0 40 -10 59t-35 19t-35 -19t-10 -59v-260h-225v510h225l-3 -65q52 75 138 75q119 0 152 -85q29 45 66.5 65t96.5 20q180 0 180 -215z" />
    <glyph glyph-name="n" unicode="n" horiz-adv-x="632" 
d="M595 300v-300h-225v250q0 44 -10 66t-43 22q-32 0 -42 -22t-10 -66v-250h-225v510h225l-3 -65q52 75 143 75q105 0 147.5 -58t42.5 -162z" />
    <glyph glyph-name="o" unicode="o" horiz-adv-x="620" 
d="M605 254q0 -125 -82 -195.5t-213 -70.5t-213 70.5t-82 195.5t82 195.5t213 70.5t213 -70.5t82 -195.5zM380 257q0 40 -18.5 64t-51.5 24t-51.5 -24t-18.5 -64t18.5 -63.5t51.5 -23.5t51.5 23.5t18.5 63.5z" />
    <glyph glyph-name="p" unicode="p" horiz-adv-x="660" 
d="M645 254q0 -115 -64 -190.5t-171 -75.5q-103 0 -148 62q3 -25 3 -85v-140h-225v685h212l-2 -50q60 60 160 60q107 0 171 -75.5t64 -190.5zM417 257q0 42 -23 65t-57 23q-33 0 -56.5 -23.5t-23.5 -64.5t23.5 -64t56.5 -23q34 0 57 23t23 64z" />
    <glyph glyph-name="q" unicode="q" horiz-adv-x="660" 
d="M620 510v-685h-225v140q0 60 2 85q-42 -62 -147 -62q-107 0 -171 75.5t-64 190.5t64 190.5t171 75.5q100 0 160 -60l-3 50h213zM402 257q0 42 -23 65t-57 23t-57 -23.5t-23 -64.5t23.5 -64t56.5 -23q34 0 57 23t23 64z" />
    <glyph glyph-name="r" unicode="r" horiz-adv-x="440" 
d="M440 510l-10 -205h-10q-30 15 -65 15q-46 0 -70 -33q-20 -26 -20 -87v-200h-225v510h225l-3 -65q45 75 128 75q16 0 28.5 -2.5t17.5 -5.5z" />
    <glyph glyph-name="s" unicode="s" horiz-adv-x="487" 
d="M472 160q0 -78 -67 -128q-60 -45 -165 -45q-143 0 -236 71l76 132q32 -21 71 -34t61 -16.5t34 -3.5q29 0 29 16q0 5 -6 10t-18.5 9.5l-21 7.5t-23.5 7t-16 4q-35 10 -60 20q-95 33 -95 140q0 78 60.5 124.5t154.5 46.5q124 0 216 -59l-61 -126q-76 48 -147 48
q-28 0 -28 -17q0 -12 55 -27q58 -17 72 -23q47 -19 73 -45q42 -42 42 -112z" />
    <glyph glyph-name="t" unicode="t" horiz-adv-x="405" 
d="M400 510v-165h-105v-140q0 -21 9.5 -28t30.5 -7q11 0 23.5 2t19.5 4l7 1l10 -172q-68 -17 -140 -17q-91 0 -140 44q-45 42 -45 148v165h-70v165h70v125h225v-125h105z" />
    <glyph glyph-name="u" unicode="u" horiz-adv-x="622" 
d="M582 510v-510h-215l-2 45q-57 -57 -140 -57q-106 0 -150 62q-38 53 -38 150v310h225v-270q0 -68 48 -68q47 0 47 68v270h225z" />
    <glyph glyph-name="v" unicode="v" horiz-adv-x="610" 
d="M390 510h230l-208 -510h-215l-207 510h235l82 -265z" />
    <glyph glyph-name="w" unicode="w" horiz-adv-x="885" 
d="M665 510h225l-165 -510h-215l-68 250l-67 -250h-215l-165 510h225l65 -270l65 270h185l65 -270z" />
    <glyph glyph-name="x" unicode="x" horiz-adv-x="635" 
d="M452 265l203 -265h-255l-83 135l-82 -135h-255l202 265l-182 245h255l62 -125l63 125h255z" />
    <glyph glyph-name="y" unicode="y" horiz-adv-x="610" 
d="M390 510h230l-210 -520q-35 -87 -76 -131t-119 -44q-51 0 -97.5 7.5t-67.5 15.5l-20 7l45 160q30 -15 70 -15q20 0 30.5 6t14.5 24l-200 490h235l82 -265z" />
    <glyph glyph-name="z" unicode="z" horiz-adv-x="535" 
d="M525 175v-175h-515v125l220 220h-210v165h495v-120l-215 -215h225z" />
    <glyph glyph-name="braceleft" unicode="{" horiz-adv-x="385" 
d="M340 -65v-98h-133q-79 0 -113 34.5t-34 113.5v170q0 47 -16 63.5t-44 16.5v130q28 0 44 16.5t16 63.5v170q0 79 34 113t113 34h133v-97h-45q-37 0 -50 -12.5t-13 -50.5v-167q0 -113 -87 -130v-10q87 -17 87 -130v-168q0 -37 12.5 -49.5t50.5 -12.5h45z" />
    <glyph glyph-name="bar" unicode="|" horiz-adv-x="385" 
d="M265 800v-975h-145v975h145z" />
    <glyph glyph-name="braceright" unicode="}" horiz-adv-x="385" 
d="M385 365v-130q-27 0 -43.5 -16.5t-16.5 -63.5v-170q0 -79 -34.5 -113.5t-113.5 -34.5h-132v98h45q38 0 50 12.5t12 49.5v168q0 63 23 92.5t65 37.5v10q-42 8 -65 37.5t-23 92.5v167q0 38 -12.5 50.5t-49.5 12.5h-45v97h132q79 0 113.5 -34t34.5 -113v-170
q0 -47 16.5 -63.5t43.5 -16.5z" />
    <glyph glyph-name="asciitilde" unicode="~" horiz-adv-x="735" 
d="M575 455l90 -120q-35 -47 -85.5 -76t-104.5 -29q-18 0 -34.5 2t-28 4.5t-23.5 7.5l-18 7.5t-15 7.5t-11 6q-50 25 -85 25q-24 0 -52.5 -16t-47.5 -39l-90 120q35 47 85.5 76t104.5 29q18 0 34.5 -2t28 -4.5t23.5 -7.5l18 -7.5t15 -7.5t11 -6q50 -25 85 -25q24 0 52.5 16
t47.5 39z" />
    <glyph glyph-name="nbspace" unicode="&#xa0;" horiz-adv-x="390" 
 />
    <glyph glyph-name="exclamdown" unicode="&#xa1;" horiz-adv-x="350" 
d="M297 412q0 -51 -33.5 -79.5t-88.5 -28.5q-56 0 -89.5 28.5t-33.5 79.5q0 52 33.5 80.5t89.5 28.5q55 0 88.5 -29t33.5 -80zM272 270l20 -450h-235l20 450h195z" />
    <glyph glyph-name="cent" unicode="&#xa2;" 
d="M535 240l35 -160q-40 -29 -113 -39v-71h-102v68q-113 8 -188 76.5t-75 189.5t75 189.5t188 76.5v70h102v-73q75 -10 108 -32l-35 -165q-37 19 -73 25v-180q38 5 78 25zM355 225v165q-48 -24 -48 -83q0 -58 48 -82z" />
    <glyph glyph-name="sterling" unicode="&#xa3;" 
d="M620 160v-160h-565v160h110q6 42 7 62l3 63h-90v120h92q-10 75 -10 105q0 40 18 78.5t45 61.5q58 50 165 50q105 0 195 -60l-65 -130q-53 35 -105 35q-58 0 -58 -60q0 -13 2.5 -33t5.5 -34l2 -13h143v-120h-145q-1 -43 -3 -63l-7 -62h260z" />
    <glyph glyph-name="currency" unicode="&#xa4;" 
d="M585 215l55 -165q-1 -1 -7.5 -5.5l-12 -8t-17 -10t-22.5 -11t-28 -10t-35.5 -8.5t-42.5 -5.5t-50 -2.5q-238 0 -300 218h-60v120h43q-1 13 -1 23v20h-42v120h65q32 110 110.5 160t184.5 50q58 0 109 -12.5t74 -25.5l22 -12l-55 -160q-63 42 -125 42q-78 0 -95 -42h135
v-120h-168v-43h168v-120h-135q4 -18 27.5 -29.5t62.5 -11.5q75 0 140 49z" />
    <glyph glyph-name="yen" unicode="&#xa5;" 
d="M425 690h245l-160 -275h110v-120h-183v-43h183v-120h-183v-132h-210v132h-182v120h182v43h-182v120h110l-160 275h245l92 -230z" />
    <glyph glyph-name="brokenbar" unicode="&#xa6;" horiz-adv-x="385" 
d="M265 800v-408h-145v408h145zM265 232v-408h-145v408h145z" />
    <glyph glyph-name="section" unicode="&#xa7;" horiz-adv-x="725" 
d="M645 255q0 -28 -8 -52t-20 -38.5t-24 -24.5t-20 -14l-8 -4q5 -5 12.5 -14t20 -39.5t12.5 -63.5q0 -64 -39 -108.5t-96.5 -63t-127.5 -18.5q-181 0 -267 110l115 115q20 -28 65.5 -54t84.5 -26q65 0 65 35q0 31 -50 50l-120 45q-153 58 -153 180q0 44 19.5 79t39.5 48
l19 13q-5 4 -12 12t-19 36.5t-12 61.5q0 88 70 134t170 46q153 0 248 -95l-95 -110q-31 31 -71 48t-69 17q-58 0 -58 -33q0 -11 9.5 -19.5t21.5 -14t36 -14.5q7 -3 11 -4l92 -35q158 -59 158 -185zM470 220q0 41 -50 60l-155 60q-10 -15 -10 -35q0 -18 9.5 -30.5t40.5 -24.5
l155 -60q10 10 10 30z" />
    <glyph glyph-name="dieresis" unicode="&#xa8;" horiz-adv-x="500" 
d="M437 617q0 -35 -23.5 -57.5t-58.5 -22.5q-36 0 -59.5 22.5t-23.5 57.5q0 36 23.5 58t59.5 22t59 -22t23 -58zM227 617q0 -35 -23.5 -57.5t-58.5 -22.5q-36 0 -59.5 22.5t-23.5 57.5q0 36 23.5 58t59.5 22t59 -22t23 -58z" />
    <glyph glyph-name="copyright" unicode="&#xa9;" horiz-adv-x="750" 
d="M730 345q0 -150 -102.5 -252.5t-252.5 -102.5t-252.5 102.5t-102.5 252.5t102.5 252.5t252.5 102.5t252.5 -102.5t102.5 -252.5zM670 345q0 127 -84 211t-211 84t-211 -84t-84 -211t84 -211t211 -84t211 84t84 211zM505 275l40 -85q-60 -60 -153 -60q-97 0 -159.5 59.5
t-62.5 155.5t62.5 155.5t159.5 59.5q93 0 148 -55l-40 -85q-45 45 -105 45q-48 0 -81.5 -30.5t-33.5 -87.5t33 -87t82 -30q65 0 110 45z" />
    <glyph glyph-name="ordfeminine" unicode="&#xaa;" horiz-adv-x="400" 
d="M370 370v-164h-133l-4 29q-35 -35 -83 -35t-83 24t-35 76q0 27 12.5 46t33 29t40.5 14.5t42 5.5l69 2v3q0 27 -49 27q-59 0 -103 -27l-32 87q69 30 152 30q93 0 133 -37t40 -110zM230 292v40l-30 -2q-28 -3 -28 -25q0 -25 30 -25q7 0 14 3t10 6z" />
    <glyph glyph-name="guillemotleft" unicode="&#xab;" horiz-adv-x="650" 
d="M462 255l118 -165l-103 -70l-170 235l170 235l103 -70zM225 255l117 -165l-102 -70l-170 235l170 235l102 -70z" />
    <glyph glyph-name="logicalnot" unicode="&#xac;" horiz-adv-x="735" 
d="M655 530v-370h-160v210h-415v160h575z" />
    <glyph glyph-name="uni00AD" unicode="&#xad;" horiz-adv-x="385" 
d="M350 347v-170h-315v170h315z" />
    <glyph glyph-name="registered" unicode="&#xae;" horiz-adv-x="750" 
d="M730 345q0 -150 -102.5 -252.5t-252.5 -102.5t-252.5 102.5t-102.5 252.5t102.5 252.5t252.5 102.5t252.5 -102.5t102.5 -252.5zM670 345q0 127 -84 211t-211 84t-211 -84t-84 -211t84 -211t211 -84t211 84t84 211zM470 305l95 -170h-125l-75 155h-31v-155h-107v420h165
q75 0 115.5 -34.5t40.5 -95.5q0 -91 -78 -120zM440 422q0 48 -65 48h-41v-95h41q65 0 65 47z" />
    <glyph glyph-name="macron" unicode="&#xaf;" horiz-adv-x="500" 
d="M437 667v-100h-375v100h375z" />
    <glyph glyph-name="degree" unicode="&#xb0;" horiz-adv-x="450" 
d="M397 565q0 -71 -50.5 -120.5t-121.5 -49.5q-72 0 -122.5 49.5t-50.5 120.5t50.5 120.5t122.5 49.5q71 0 121.5 -49.5t50.5 -120.5zM307 565q0 34 -24 58t-58 24t-57 -24t-23 -58t23.5 -58.5t56.5 -24.5q34 0 58 24.5t24 58.5z" />
    <glyph glyph-name="plusminus" unicode="&#xb1;" horiz-adv-x="735" 
d="M655 520v-160h-205v-150h-165v150h-205v160h205v150h165v-150h205zM655 180v-160h-575v160h575z" />
    <glyph glyph-name="twosuperior" unicode="&#xb2;" horiz-adv-x="450" 
d="M410 397v-117h-345l-20 92l135 108q37 29 49.5 44.5t12.5 28.5q0 27 -37 27q-54 0 -110 -50l-55 110q8 7 22.5 17t61 26.5t94.5 16.5q80 0 126 -34t46 -91q0 -35 -17 -65.5t-34 -45.5t-44 -34l-45 -33h160z" />
    <glyph glyph-name="threesuperior" unicode="&#xb3;" horiz-adv-x="450" 
d="M415 410q0 -63 -55 -100.5t-125 -37.5q-117 0 -190 73l70 95q21 -24 52 -37t53 -13q19 0 32 7.5t13 19.5q0 28 -40 28h-50v102h50q30 0 30 23q0 20 -35 20q-52 0 -103 -37l-52 99q73 48 165 48q69 0 119.5 -31t50.5 -84q0 -58 -45 -85q60 -26 60 -90z" />
    <glyph glyph-name="acute" unicode="&#xb4;" horiz-adv-x="500" 
d="M195 690h180l-95 -145h-155z" />
    <glyph glyph-name="mu" unicode="&#xb5;" horiz-adv-x="622" 
d="M582 510v-510h-215l-2 45q-16 -16 -49.5 -28t-68.5 -12l13 -180h-223v685h225v-270q0 -68 48 -68q47 0 47 68v270h225z" />
    <glyph glyph-name="paragraph" unicode="&#xb6;" horiz-adv-x="725" 
d="M675 690v-140h-40v-725h-140v725h-95v-725h-140v385q-104 4 -169.5 65t-65.5 175q0 117 68 178.5t187 61.5h395z" />
    <glyph glyph-name="periodcentered" unicode="&#xb7;" horiz-adv-x="500" 
d="M370 293q0 -49 -33 -78.5t-87 -29.5q-55 0 -87.5 29.5t-32.5 78.5q0 48 32.5 77.5t87.5 29.5q54 0 87 -29.5t33 -77.5z" />
    <glyph glyph-name="cedilla" unicode="&#xb8;" horiz-adv-x="500" 
d="M227 0h135l-70 -150h-155z" />
    <glyph glyph-name="onesuperior" unicode="&#xb9;" horiz-adv-x="450" 
d="M330 690v-415h-155v310h-75v105h230z" />
    <glyph glyph-name="ordmasculine" unicode="&#xba;" horiz-adv-x="450" 
d="M407 359q0 -74 -51 -116.5t-131 -42.5q-81 0 -132 43t-51 116t51 115.5t132 42.5t131.5 -42.5t50.5 -115.5zM267 360q0 26 -11.5 40.5t-30.5 14.5t-31 -14.5t-12 -40.5t12 -40.5t31 -14.5t30.5 14.5t11.5 40.5z" />
    <glyph glyph-name="guillemotright" unicode="&#xbb;" horiz-adv-x="650" 
d="M410 490l170 -235l-170 -235l-103 70l118 165l-118 165zM172 490l170 -235l-170 -235l-102 70l117 165l-117 165z" />
    <glyph glyph-name="onequarter" unicode="&#xbc;" horiz-adv-x="1000" 
d="M970 185v-110h-55v-75h-155v75h-220v100l205 240h170v-230h55zM635 710l87 -53l-432 -682l-88 52zM290 690v-415h-155v310h-75v105h230zM680 185h82v95z" />
    <glyph glyph-name="onehalf" unicode="&#xbd;" horiz-adv-x="1000" 
d="M950 117v-117h-345l-20 92l135 108q37 29 49.5 44.5t12.5 28.5q0 27 -37 27q-54 0 -110 -50l-55 110q8 7 22.5 17t61 26.5t94.5 16.5q80 0 126 -34t46 -91q0 -35 -17 -65.5t-34 -45.5t-44 -34l-45 -33h160zM620 710l87 -52l-432 -683l-88 52zM280 690v-415h-155v310h-75
v105h230z" />
    <glyph glyph-name="threequarters" unicode="&#xbe;" horiz-adv-x="1000" 
d="M970 185v-110h-55v-75h-155v75h-220v100l205 240h170v-230h55zM692 710l88 -53l-433 -682l-87 52zM415 410q0 -63 -55 -100.5t-125 -37.5q-117 0 -190 73l70 95q21 -24 52 -37t53 -13q19 0 32 7.5t13 19.5q0 28 -40 28h-50v102h50q30 0 30 23q0 20 -35 20q-52 0 -103 -37
l-52 99q73 48 165 48q69 0 119.5 -31t50.5 -84q0 -58 -45 -85q60 -26 60 -90zM680 185h82v95z" />
    <glyph glyph-name="questiondown" unicode="&#xbf;" horiz-adv-x="575" 
d="M452 412q0 -51 -33.5 -79.5t-88.5 -28.5q-56 0 -89.5 28.5t-33.5 79.5q0 52 33.5 80.5t89.5 28.5q55 0 88.5 -29t33.5 -80zM480 35l50 -165q-100 -60 -240 -60q-104 0 -172 55t-68 135q0 58 16.5 90.5t48.5 59.5q16 13 37 25.5t44 23.5l24 11q7 3 10.5 8t4 10t0.5 17v25
h190v-60q0 -38 -10 -59.5t-45 -40.5l-65 -35q-3 -2 -14.5 -8t-16 -9t-11.5 -8.5t-10 -11.5t-3 -13q0 -38 80 -38q73 0 150 48z" />
    <glyph glyph-name="Agrave" unicode="&#xc0;" horiz-adv-x="710" 
d="M372 865l70 -145h-155l-95 145h180zM480 690l240 -690h-245l-27 97h-197l-26 -97h-235l240 690h250zM299 270h102l-51 185z" />
    <glyph glyph-name="Aacute" unicode="&#xc1;" horiz-adv-x="710" 
d="M337 865h180l-95 -145h-155zM480 690l240 -690h-245l-27 97h-197l-26 -97h-235l240 690h250zM299 270h102l-51 185z" />
    <glyph glyph-name="Acircumflex" unicode="&#xc2;" horiz-adv-x="710" 
d="M467 865l80 -145h-145l-47 80l-48 -80h-145l80 145h225zM480 690l240 -690h-245l-27 97h-197l-26 -97h-235l240 690h250zM299 270h102l-51 185z" />
    <glyph glyph-name="Atilde" unicode="&#xc3;" horiz-adv-x="710" 
d="M470 865l90 -10q0 -54 -40 -96t-95 -42q-42 0 -83 23q-37 22 -55 22q-33 0 -47 -42l-90 10q0 54 40 95.5t95 41.5q45 0 82 -22q41 -23 55 -23q34 0 48 43zM480 690l240 -690h-245l-27 97h-197l-26 -97h-235l240 690h250zM299 270h102l-51 185z" />
    <glyph glyph-name="Adieresis" unicode="&#xc4;" horiz-adv-x="710" 
d="M540 790q0 -36 -23.5 -58t-59.5 -22t-59 22t-23 58q0 35 23.5 57.5t58.5 22.5q36 0 59.5 -22.5t23.5 -57.5zM335 790q0 -36 -23.5 -58t-59.5 -22t-59 22t-23 58q0 35 23.5 57.5t58.5 22.5q36 0 59.5 -22.5t23.5 -57.5zM480 690l240 -690h-245l-27 97h-197l-26 -97h-235
l240 690h250zM299 270h102l-51 185z" />
    <glyph glyph-name="Aring" unicode="&#xc5;" horiz-adv-x="710" 
d="M485 805q0 -54 -37 -82t-93 -28t-93 28t-37 82t37 82t93 28t93 -28t37 -82zM480 690l240 -690h-245l-27 97h-197l-26 -97h-235l240 690h250zM405 805q0 45 -50 45t-50 -45t50 -45t50 45zM299 270h102l-51 185z" />
    <glyph glyph-name="AE" unicode="&#xc6;" horiz-adv-x="985" 
d="M955 180v-180h-470v97h-223l-52 -97h-255l410 690h580v-178h-235v-75h220v-177h-220v-80h245zM354 270h131v245z" />
    <glyph glyph-name="Ccedilla" unicode="&#xc7;" horiz-adv-x="635" 
d="M570 255l65 -180q-69 -69 -173 -81l-62 -144h-195l77 150q-34 8 -67 23t-69 43t-63 64.5t-45 92t-18 121.5q0 167 105 261.5t265 94.5q43 0 83 -6.5t65.5 -16t45 -19.5t28.5 -16l8 -7l-60 -190q-8 7 -22 17t-54.5 26.5t-78.5 16.5q-68 0 -113 -40.5t-45 -117.5
q0 -75 46 -115t112 -40q102 0 165 63z" />
    <glyph glyph-name="Egrave" unicode="&#xc8;" horiz-adv-x="580" 
d="M335 865l70 -145h-155l-95 145h180zM550 180v-180h-500v690h490v-178h-265v-75h250v-177h-250v-80h275z" />
    <glyph glyph-name="Eacute" unicode="&#xc9;" horiz-adv-x="580" 
d="M255 865h180l-95 -145h-155zM550 180v-180h-500v690h490v-178h-265v-75h250v-177h-250v-80h275z" />
    <glyph glyph-name="Ecircumflex" unicode="&#xca;" horiz-adv-x="580" 
d="M407 865l80 -145h-145l-47 80l-48 -80h-145l80 145h225zM550 180v-180h-500v690h490v-178h-265v-75h250v-177h-250v-80h275z" />
    <glyph glyph-name="Edieresis" unicode="&#xcb;" horiz-adv-x="580" 
d="M482 790q0 -36 -23 -58t-59 -22t-59.5 22t-23.5 58q0 35 23.5 57.5t59.5 22.5q35 0 58.5 -22.5t23.5 -57.5zM275 790q0 -36 -23.5 -58t-59.5 -22t-59 22t-23 58q0 35 23.5 57.5t58.5 22.5q36 0 59.5 -22.5t23.5 -57.5zM550 180v-180h-500v690h490v-178h-265v-75h250v-177
h-250v-80h275z" />
    <glyph glyph-name="Igrave" unicode="&#xcc;" horiz-adv-x="326" 
d="M203 865l70 -145h-155l-95 145h180zM276 690v-690h-226v690h226z" />
    <glyph glyph-name="Iacute" unicode="&#xcd;" horiz-adv-x="326" 
d="M122 865h180l-95 -145h-155zM276 690v-690h-226v690h226z" />
    <glyph glyph-name="Icircumflex" unicode="&#xce;" horiz-adv-x="326" 
d="M275 865l80 -145h-145l-47 80l-48 -80h-145l80 145h225zM276 690v-690h-226v690h226z" />
    <glyph glyph-name="Idieresis" unicode="&#xcf;" horiz-adv-x="326" 
d="M349 790q0 -36 -23 -58t-59 -22t-59.5 22t-23.5 58q0 35 23.5 57.5t59.5 22.5q35 0 58.5 -22.5t23.5 -57.5zM142 790q0 -36 -23.5 -58t-59.5 -22t-59 22t-23 58q0 35 23.5 57.5t58.5 22.5q36 0 59.5 -22.5t23.5 -57.5zM276 690v-690h-226v690h226z" />
    <glyph glyph-name="Eth" unicode="&#xd0;" horiz-adv-x="720" 
d="M700 345q0 -182 -115 -270q-97 -75 -275 -75h-260v280h-50v140h50v270h260q178 0 275 -75q115 -88 115 -270zM472 345q0 87 -40 125q-35 35 -105 35h-52v-85h97v-135h-97v-95h52q70 0 105 35q40 40 40 120z" />
    <glyph glyph-name="Ntilde" unicode="&#xd1;" horiz-adv-x="760" 
d="M495 865l90 -10q0 -54 -40 -96t-95 -42q-42 0 -83 23q-37 22 -55 22q-33 0 -47 -42l-90 10q0 54 40 95.5t95 41.5q45 0 82 -22q41 -23 55 -23q34 0 48 43zM710 690v-690h-235l-210 385q5 -75 5 -125v-260h-220v690h245l200 -385q-5 75 -5 125v260h220z" />
    <glyph glyph-name="Ograve" unicode="&#xd2;" horiz-adv-x="790" 
d="M402 865l70 -145h-155l-95 145h180zM770 344q0 -165 -105 -260.5t-270 -95.5t-270 95.5t-105 260.5t105 261t270 96t270 -96t105 -261zM542 349q0 72 -40 116.5t-107 44.5t-107.5 -44.5t-40.5 -116.5t40.5 -116.5t107.5 -44.5t107 44.5t40 116.5z" />
    <glyph glyph-name="Oacute" unicode="&#xd3;" horiz-adv-x="790" 
d="M387 865h180l-95 -145h-155zM770 344q0 -165 -105 -260.5t-270 -95.5t-270 95.5t-105 260.5t105 261t270 96t270 -96t105 -261zM542 349q0 72 -40 116.5t-107 44.5t-107.5 -44.5t-40.5 -116.5t40.5 -116.5t107.5 -44.5t107 44.5t40 116.5z" />
    <glyph glyph-name="Ocircumflex" unicode="&#xd4;" horiz-adv-x="790" 
d="M507 865l80 -145h-145l-47 80l-48 -80h-145l80 145h225zM770 344q0 -165 -105 -260.5t-270 -95.5t-270 95.5t-105 260.5t105 261t270 96t270 -96t105 -261zM542 349q0 72 -40 116.5t-107 44.5t-107.5 -44.5t-40.5 -116.5t40.5 -116.5t107.5 -44.5t107 44.5t40 116.5z" />
    <glyph glyph-name="Otilde" unicode="&#xd5;" horiz-adv-x="790" 
d="M510 865l90 -10q0 -54 -40 -96t-95 -42q-42 0 -83 23q-37 22 -55 22q-33 0 -47 -42l-90 10q0 54 40 95.5t95 41.5q45 0 82 -22q41 -23 55 -23q34 0 48 43zM770 344q0 -165 -105 -260.5t-270 -95.5t-270 95.5t-105 260.5t105 261t270 96t270 -96t105 -261zM542 349
q0 72 -40 116.5t-107 44.5t-107.5 -44.5t-40.5 -116.5t40.5 -116.5t107.5 -44.5t107 44.5t40 116.5z" />
    <glyph glyph-name="Odieresis" unicode="&#xd6;" horiz-adv-x="790" 
d="M581 790q0 -36 -23 -58t-59 -22t-59.5 22t-23.5 58q0 35 23.5 57.5t59.5 22.5q35 0 58.5 -22.5t23.5 -57.5zM374 790q0 -36 -23.5 -58t-59.5 -22t-59 22t-23 58q0 35 23.5 57.5t58.5 22.5q36 0 59.5 -22.5t23.5 -57.5zM770 344q0 -165 -105 -260.5t-270 -95.5t-270 95.5
t-105 260.5t105 261t270 96t270 -96t105 -261zM542 349q0 72 -40 116.5t-107 44.5t-107.5 -44.5t-40.5 -116.5t40.5 -116.5t107.5 -44.5t107 44.5t40 116.5z" />
    <glyph glyph-name="multiply" unicode="&#xd7;" horiz-adv-x="735" 
d="M482 345l170 -168l-117 -117l-168 167l-167 -167l-118 117l170 168l-170 167l118 118l167 -168l168 168l117 -118z" />
    <glyph glyph-name="Oslash" unicode="&#xd8;" horiz-adv-x="790" 
d="M770 344q0 -165 -105 -260.5t-270 -95.5q-118 0 -209 51l-71 -72l-95 93l66 67q-66 90 -66 217q0 166 105 261.5t270 95.5q118 0 209 -51l71 72l95 -92l-67 -67q67 -89 67 -219zM254 297l200 202q-28 11 -59 11q-67 0 -107.5 -44.5t-40.5 -116.5q0 -24 7 -52zM542 349
q0 27 -4 46l-196 -198q24 -9 53 -9q67 0 107 44.5t40 116.5z" />
    <glyph glyph-name="Ugrave" unicode="&#xd9;" horiz-adv-x="720" 
d="M372 865l70 -145h-155l-95 145h180zM675 690v-395q0 -150 -75 -225q-81 -81 -240 -81t-240 81q-75 75 -75 225v395h227v-405q0 -52 23 -75q25 -25 65 -25t65 25q22 22 22 75v405h228z" />
    <glyph glyph-name="Uacute" unicode="&#xda;" horiz-adv-x="720" 
d="M347 865h180l-95 -145h-155zM675 690v-395q0 -150 -75 -225q-81 -81 -240 -81t-240 81q-75 75 -75 225v395h227v-405q0 -52 23 -75q25 -25 65 -25t65 25q22 22 22 75v405h228z" />
    <glyph glyph-name="Ucircumflex" unicode="&#xdb;" horiz-adv-x="720" 
d="M472 865l80 -145h-145l-47 80l-48 -80h-145l80 145h225zM675 690v-395q0 -150 -75 -225q-81 -81 -240 -81t-240 81q-75 75 -75 225v395h227v-405q0 -52 23 -75q25 -25 65 -25t65 25q22 22 22 75v405h228z" />
    <glyph glyph-name="Udieresis" unicode="&#xdc;" horiz-adv-x="720" 
d="M546 790q0 -36 -23 -58t-59 -22t-59.5 22t-23.5 58q0 35 23.5 57.5t59.5 22.5q35 0 58.5 -22.5t23.5 -57.5zM339 790q0 -36 -23.5 -58t-59.5 -22t-59 22t-23 58q0 35 23.5 57.5t58.5 22.5q36 0 59.5 -22.5t23.5 -57.5zM675 690v-395q0 -150 -75 -225q-81 -81 -240 -81
t-240 81q-75 75 -75 225v395h227v-405q0 -52 23 -75q25 -25 65 -25t65 25q22 22 22 75v405h228z" />
    <glyph glyph-name="Yacute" unicode="&#xdd;" 
d="M315 865h180l-95 -145h-155zM435 690h250l-240 -420v-270h-226v270l-239 420h250l102 -233z" />
    <glyph glyph-name="Thorn" unicode="&#xde;" horiz-adv-x="625" 
d="M615 360q0 -121 -78 -183q-69 -55 -192 -55h-69v-122h-226v690h226v-93h69q123 0 192 -55q78 -62 78 -182zM385 360q0 37 -25 55q-18 12 -55 12h-30v-135h30q35 0 55 13q25 17 25 55z" />
    <glyph glyph-name="germandbls" unicode="&#xdf;" horiz-adv-x="660" 
d="M645 205q0 -111 -73 -163.5t-197 -52.5q-16 0 -36 2.5t-32 5.5l-12 3l10 155q17 -5 37 -5q85 0 85 70t-85 70h-27v150h20q70 0 70 55q0 25 -17.5 42.5t-52.5 17.5q-38 0 -55 -25q-13 -20 -13 -65v-465h-225v425q0 97 33 155q31 55 87 85q67 35 173 35q71 0 124.5 -16.5
t82 -44t42 -57.5t13.5 -62q0 -53 -26 -87.5t-54 -45.5q59 -17 93.5 -64.5t34.5 -117.5z" />
    <glyph glyph-name="agrave" unicode="&#xe0;" horiz-adv-x="590" 
d="M315 690l70 -145h-155l-95 145h180zM555 280v-280h-213l-5 45q-57 -57 -130 -57q-81 0 -138 40t-57 127q0 36 14 64t35 44.5t49 27.5t52.5 15.5t49.5 5.5l118 5v5q0 48 -83 48q-81 0 -160 -45l-55 142q115 53 245 53q143 0 210 -60q68 -60 68 -180zM332 145v63l-45 -3
q-50 -2 -50 -40q0 -40 50 -40q25 0 45 20z" />
    <glyph glyph-name="aacute" unicode="&#xe1;" horiz-adv-x="590" 
d="M267 690h180l-95 -145h-155zM555 280v-280h-213l-5 45q-57 -57 -130 -57q-81 0 -138 40t-57 127q0 36 14 64t35 44.5t49 27.5t52.5 15.5t49.5 5.5l118 5v5q0 48 -83 48q-81 0 -160 -45l-55 142q115 53 245 53q143 0 210 -60q68 -60 68 -180zM332 145v63l-45 -3
q-50 -2 -50 -40q0 -40 50 -40q25 0 45 20z" />
    <glyph glyph-name="acircumflex" unicode="&#xe2;" horiz-adv-x="590" 
d="M412 690l80 -145h-145l-47 85l-48 -85h-145l80 145h225zM555 280v-280h-213l-5 45q-57 -57 -130 -57q-81 0 -138 40t-57 127q0 36 14 64t35 44.5t49 27.5t52.5 15.5t49.5 5.5l118 5v5q0 48 -83 48q-81 0 -160 -45l-55 142q115 53 245 53q143 0 210 -60q68 -60 68 -180z
M332 145v63l-45 -3q-50 -2 -50 -40q0 -40 50 -40q25 0 45 20z" />
    <glyph glyph-name="atilde" unicode="&#xe3;" horiz-adv-x="590" 
d="M420 690l90 -10q0 -54 -40 -96t-95 -42q-42 0 -83 23q-37 22 -55 22q-33 0 -47 -42l-90 10q0 54 40 95.5t95 41.5q45 0 82 -22q41 -23 55 -23q34 0 48 43zM555 280v-280h-213l-5 45q-57 -57 -130 -57q-81 0 -138 40t-57 127q0 36 14 64t35 44.5t49 27.5t52.5 15.5
t49.5 5.5l118 5v5q0 48 -83 48q-81 0 -160 -45l-55 142q115 53 245 53q143 0 210 -60q68 -60 68 -180zM332 145v63l-45 -3q-50 -2 -50 -40q0 -40 50 -40q25 0 45 20z" />
    <glyph glyph-name="adieresis" unicode="&#xe4;" horiz-adv-x="590" 
d="M480 617q0 -35 -23.5 -57.5t-59.5 -22.5q-35 0 -58.5 22.5t-23.5 57.5q0 36 23 58t59 22t59.5 -22t23.5 -58zM275 617q0 -35 -23.5 -57.5t-59.5 -22.5q-35 0 -58.5 22.5t-23.5 57.5q0 36 23 58t59 22t59.5 -22t23.5 -58zM555 280v-280h-213l-5 45q-57 -57 -130 -57
q-81 0 -138 40t-57 127q0 36 14 64t35 44.5t49 27.5t52.5 15.5t49.5 5.5l118 5v5q0 48 -83 48q-81 0 -160 -45l-55 142q115 53 245 53q143 0 210 -60q68 -60 68 -180zM332 145v63l-45 -3q-50 -2 -50 -40q0 -40 50 -40q25 0 45 20z" />
    <glyph glyph-name="aring" unicode="&#xe5;" horiz-adv-x="590" 
d="M425 650q0 -51 -36 -80.5t-92 -29.5t-91.5 29.5t-35.5 80.5t35.5 80.5t91.5 29.5t92 -29.5t36 -80.5zM555 280v-280h-213l-5 45q-57 -57 -130 -57q-81 0 -138 40t-57 127q0 36 14 64t35 44.5t49 27.5t52.5 15.5t49.5 5.5l118 5v5q0 48 -83 48q-81 0 -160 -45l-55 142
q115 53 245 53q143 0 210 -60q68 -60 68 -180zM345 650q0 20 -12 32.5t-36 12.5q-23 0 -35 -12.5t-12 -32.5t12 -32.5t35 -12.5q24 0 36 12.5t12 32.5zM332 145v63l-45 -3q-50 -2 -50 -40q0 -40 50 -40q25 0 45 20z" />
    <glyph glyph-name="ae" unicode="&#xe6;" horiz-adv-x="897" 
d="M885 265l-3 -63h-335q10 -57 98 -57q80 0 140 40l85 -110q-2 -1 -5 -4q-100 -83 -253 -83q-129 0 -200 67q-43 -37 -88.5 -52t-116.5 -15q-81 0 -138 40t-57 127q0 36 14 64t35 44.5t49 27.5t52.5 15.5t49.5 5.5l118 5v5q0 48 -83 48q-81 0 -160 -45l-55 142
q115 53 245 53q126 0 180 -40q66 40 158 40q121 0 195.5 -69.5t74.5 -185.5zM547 320h130q-2 27 -19.5 43.5t-45.5 16.5q-27 0 -45 -16.5t-20 -43.5zM347 145q-11 23 -17 63l-43 -3q-50 -4 -50 -40q0 -40 50 -40q30 0 60 20z" />
    <glyph glyph-name="ccedilla" unicode="&#xe7;" horiz-adv-x="490" 
d="M440 205l40 -170q-40 -30 -108 -40l-67 -140h-180l90 142q-32 8 -63.5 25t-64 46t-52.5 77.5t-20 108.5q0 123 81 194.5t199 71.5q51 0 96 -10t65 -20l19 -10l-35 -170q-47 35 -110 35q-40 0 -66.5 -23t-26.5 -65t26 -64.5t72 -22.5q27 0 53 9t39 17z" />
    <glyph glyph-name="egrave" unicode="&#xe8;" horiz-adv-x="587" 
d="M315 690l70 -145h-155l-95 145h180zM575 265l-3 -63h-335q10 -57 98 -57q80 0 140 40l85 -110q-2 -1 -5 -4q-100 -83 -253 -83q-126 0 -206.5 69.5t-80.5 196.5q0 126 82 196t208 70q121 0 195.5 -69.5t74.5 -185.5zM237 320h130q-2 27 -19.5 43.5t-45.5 16.5
q-27 0 -45 -16.5t-20 -43.5z" />
    <glyph glyph-name="eacute" unicode="&#xe9;" horiz-adv-x="587" 
d="M282 690h180l-95 -145h-155zM575 265l-3 -63h-335q10 -57 98 -57q80 0 140 40l85 -110q-2 -1 -5 -4q-100 -83 -253 -83q-126 0 -206.5 69.5t-80.5 196.5q0 126 82 196t208 70q121 0 195.5 -69.5t74.5 -185.5zM237 320h130q-2 27 -19.5 43.5t-45.5 16.5q-27 0 -45 -16.5
t-20 -43.5z" />
    <glyph glyph-name="ecircumflex" unicode="&#xea;" horiz-adv-x="587" 
d="M412 690l80 -145h-145l-47 85l-48 -85h-145l80 145h225zM575 265l-3 -63h-335q10 -57 98 -57q80 0 140 40l85 -110q-2 -1 -5 -4q-100 -83 -253 -83q-126 0 -206.5 69.5t-80.5 196.5q0 126 82 196t208 70q121 0 195.5 -69.5t74.5 -185.5zM237 320h130q-2 27 -19.5 43.5
t-45.5 16.5q-27 0 -45 -16.5t-20 -43.5z" />
    <glyph glyph-name="edieresis" unicode="&#xeb;" horiz-adv-x="587" 
d="M490 617q0 -35 -23.5 -57.5t-59.5 -22.5q-35 0 -58.5 22.5t-23.5 57.5q0 36 23 58t59 22t59.5 -22t23.5 -58zM285 617q0 -35 -23.5 -57.5t-59.5 -22.5q-35 0 -58.5 22.5t-23.5 57.5q0 36 23 58t59 22t59.5 -22t23.5 -58zM575 265l-3 -63h-335q10 -57 98 -57q80 0 140 40
l85 -110q-2 -1 -5 -4q-100 -83 -253 -83q-126 0 -206.5 69.5t-80.5 196.5q0 126 82 196t208 70q121 0 195.5 -69.5t74.5 -185.5zM237 320h130q-2 27 -19.5 43.5t-45.5 16.5q-27 0 -45 -16.5t-20 -43.5z" />
    <glyph glyph-name="igrave" unicode="&#xec;" horiz-adv-x="305" 
d="M195 690l70 -145h-155l-95 145h180zM265 510v-510h-225v510h225z" />
    <glyph glyph-name="iacute" unicode="&#xed;" horiz-adv-x="305" 
d="M110 690h180l-95 -145h-155zM265 510v-510h-225v510h225z" />
    <glyph glyph-name="icircumflex" unicode="&#xee;" horiz-adv-x="305" 
d="M265 690l80 -145h-145l-48 85l-47 -85h-145l80 145h225zM265 510v-510h-225v510h225z" />
    <glyph glyph-name="idieresis" unicode="&#xef;" horiz-adv-x="305" 
d="M337 617q0 -35 -23.5 -57.5t-58.5 -22.5q-36 0 -59.5 22.5t-23.5 57.5q0 36 23.5 58t59.5 22t59 -22t23 -58zM132 617q0 -35 -23.5 -57.5t-58.5 -22.5q-36 0 -59.5 22.5t-23.5 57.5q0 36 23.5 58t59.5 22t59 -22t23 -58zM265 510v-510h-225v510h225z" />
    <glyph glyph-name="eth" unicode="&#xf0;" horiz-adv-x="620" 
d="M600 251q0 -122 -82 -192.5t-211 -70.5t-210.5 70.5t-81.5 192.5q0 60 24 108.5t61.5 77t79 43.5t80.5 15q16 0 32 -2.5t24 -4.5l9 -3q-24 32 -76 71l-109 -56l-45 85l72 35q-49 34 -82 50l160 80q32 -16 82 -50l118 60l45 -85l-81 -39q47 -39 66 -61q26 -31 43.5 -56.5
t38.5 -66t32 -91.5t11 -110zM375 255q0 38 -18 61.5t-50 23.5q-31 0 -49 -23.5t-18 -61.5t18 -61.5t49 -23.5q32 0 50 23.5t18 61.5z" />
    <glyph glyph-name="ntilde" unicode="&#xf1;" horiz-adv-x="632" 
d="M435 690l90 -10q0 -54 -40 -96t-95 -42q-42 0 -83 23q-37 22 -55 22q-33 0 -47 -42l-90 10q0 54 40 95.5t95 41.5q45 0 82 -22q41 -23 55 -23q34 0 48 43zM595 300v-300h-225v250q0 44 -10 66t-43 22q-32 0 -42 -22t-10 -66v-250h-225v510h225l-3 -65q52 75 143 75
q105 0 147.5 -58t42.5 -162z" />
    <glyph glyph-name="ograve" unicode="&#xf2;" horiz-adv-x="620" 
d="M320 690l70 -145h-155l-93 145h178zM605 254q0 -125 -82 -195.5t-213 -70.5t-213 70.5t-82 195.5t82 195.5t213 70.5t213 -70.5t82 -195.5zM380 257q0 40 -18.5 64t-51.5 24t-51.5 -24t-18.5 -64t18.5 -63.5t51.5 -23.5t51.5 23.5t18.5 63.5z" />
    <glyph glyph-name="oacute" unicode="&#xf3;" horiz-adv-x="620" 
d="M300 690h180l-95 -145h-155zM605 254q0 -125 -82 -195.5t-213 -70.5t-213 70.5t-82 195.5t82 195.5t213 70.5t213 -70.5t82 -195.5zM380 257q0 40 -18.5 64t-51.5 24t-51.5 -24t-18.5 -64t18.5 -63.5t51.5 -23.5t51.5 23.5t18.5 63.5z" />
    <glyph glyph-name="ocircumflex" unicode="&#xf4;" horiz-adv-x="620" 
d="M422 690l80 -145h-145l-47 85l-48 -85h-145l80 145h225zM605 254q0 -125 -82 -195.5t-213 -70.5t-213 70.5t-82 195.5t82 195.5t213 70.5t213 -70.5t82 -195.5zM380 257q0 40 -18.5 64t-51.5 24t-51.5 -24t-18.5 -64t18.5 -63.5t51.5 -23.5t51.5 23.5t18.5 63.5z" />
    <glyph glyph-name="otilde" unicode="&#xf5;" horiz-adv-x="620" 
d="M425 690l90 -10q0 -54 -40 -96t-95 -42q-42 0 -83 23q-37 22 -55 22q-33 0 -47 -42l-90 10q0 54 40 95.5t95 41.5q45 0 82 -22q41 -23 55 -23q34 0 48 43zM605 254q0 -125 -82 -195.5t-213 -70.5t-213 70.5t-82 195.5t82 195.5t213 70.5t213 -70.5t82 -195.5zM380 257
q0 40 -18.5 64t-51.5 24t-51.5 -24t-18.5 -64t18.5 -63.5t51.5 -23.5t51.5 23.5t18.5 63.5z" />
    <glyph glyph-name="odieresis" unicode="&#xf6;" horiz-adv-x="620" 
d="M495 617q0 -35 -23.5 -57.5t-59.5 -22.5q-35 0 -58.5 22.5t-23.5 57.5q0 36 23 58t59 22t59.5 -22t23.5 -58zM290 617q0 -35 -23.5 -57.5t-59.5 -22.5q-35 0 -58.5 22.5t-23.5 57.5q0 36 23 58t59 22t59.5 -22t23.5 -58zM605 254q0 -125 -82 -195.5t-213 -70.5t-213 70.5
t-82 195.5t82 195.5t213 70.5t213 -70.5t82 -195.5zM380 257q0 40 -18.5 64t-51.5 24t-51.5 -24t-18.5 -64t18.5 -63.5t51.5 -23.5t51.5 23.5t18.5 63.5z" />
    <glyph glyph-name="divide" unicode="&#xf7;" horiz-adv-x="735" 
d="M475 565q0 -44 -32 -76t-76 -32t-76 32t-32 76t32 76t76 32t76 -32t32 -76zM655 425v-160h-575v160h575zM475 124q0 -44 -32 -76t-76 -32t-76 32t-32 76t32 76t76 32t76 -32t32 -76z" />
    <glyph glyph-name="oslash" unicode="&#xf8;" horiz-adv-x="620" 
d="M605 254q0 -125 -82 -195.5t-213 -70.5q-93 0 -162 36l-51 -49l-80 77l46 44q-48 65 -48 158q0 125 82 195.5t213 70.5q89 0 159 -34l51 49l80 -78l-45 -42q50 -66 50 -161zM231 240l112 112q-15 5 -31 5q-36 0 -59 -27t-23 -73q0 -11 1 -17zM395 257q0 11 -1 16
l-110 -110q12 -6 28 -6q37 0 60 27t23 73z" />
    <glyph glyph-name="ugrave" unicode="&#xf9;" horiz-adv-x="622" 
d="M325 690l70 -145h-155l-95 145h180zM582 510v-510h-215l-2 45q-57 -57 -140 -57q-106 0 -150 62q-38 53 -38 150v310h225v-270q0 -68 48 -68q47 0 47 68v270h225z" />
    <glyph glyph-name="uacute" unicode="&#xfa;" horiz-adv-x="622" 
d="M290 690h180l-95 -145h-155zM582 510v-510h-215l-2 45q-57 -57 -140 -57q-106 0 -150 62q-38 53 -38 150v310h225v-270q0 -68 48 -68q47 0 47 68v270h225z" />
    <glyph glyph-name="ucircumflex" unicode="&#xfb;" horiz-adv-x="622" 
d="M422 690l80 -145h-145l-47 85l-48 -85h-145l80 145h225zM582 510v-510h-215l-2 45q-57 -57 -140 -57q-106 0 -150 62q-38 53 -38 150v310h225v-270q0 -68 48 -68q47 0 47 68v270h225z" />
    <glyph glyph-name="udieresis" unicode="&#xfc;" horiz-adv-x="622" 
d="M495 617q0 -35 -23.5 -57.5t-59.5 -22.5q-35 0 -58.5 22.5t-23.5 57.5q0 36 23 58t59 22t59.5 -22t23.5 -58zM290 617q0 -35 -23.5 -57.5t-59.5 -22.5q-35 0 -58.5 22.5t-23.5 57.5q0 36 23 58t59 22t59.5 -22t23.5 -58zM582 510v-510h-215l-2 45q-57 -57 -140 -57
q-106 0 -150 62q-38 53 -38 150v310h225v-270q0 -68 48 -68q47 0 47 68v270h225z" />
    <glyph glyph-name="yacute" unicode="&#xfd;" horiz-adv-x="610" 
d="M295 690h180l-95 -145h-155zM390 510h230l-210 -520q-35 -87 -76 -131t-119 -44q-51 0 -97.5 7.5t-67.5 15.5l-20 7l45 160q30 -15 70 -15q20 0 30.5 6t14.5 24l-200 490h235l82 -265z" />
    <glyph glyph-name="thorn" unicode="&#xfe;" horiz-adv-x="662" 
d="M647 254q0 -115 -64 -190.5t-171 -75.5q-103 0 -147 62q2 -40 2 -80v-145h-225v865h225v-145l-2 -80q5 6 14.5 15t47.5 24.5t85 15.5q107 0 171 -75.5t64 -190.5zM420 257q0 41 -23 64.5t-57 23.5t-57 -23t-23 -65q0 -41 23 -64t57 -23q33 0 56.5 23t23.5 64z" />
    <glyph glyph-name="ydieresis" unicode="&#xff;" horiz-adv-x="610" 
d="M492 617q0 -35 -23.5 -57.5t-58.5 -22.5q-36 0 -59.5 22.5t-23.5 57.5q0 36 23.5 58t59.5 22t59 -22t23 -58zM287 617q0 -35 -23.5 -57.5t-58.5 -22.5q-36 0 -59.5 22.5t-23.5 57.5q0 36 23.5 58t59.5 22t59 -22t23 -58zM390 510h230l-210 -520q-35 -87 -76 -131
t-119 -44q-51 0 -97.5 7.5t-67.5 15.5l-20 7l45 160q30 -15 70 -15q20 0 30.5 6t14.5 24l-200 490h235l82 -265z" />
    <glyph glyph-name="Amacron" unicode="&#x100;" horiz-adv-x="710" 
d="M480 690l240 -690h-245l-27 97h-197l-26 -97h-235l240 690h250zM299 270h102l-51 185zM538 847v-100h-375v100h375z" />
    <glyph glyph-name="amacron" unicode="&#x101;" horiz-adv-x="590" 
d="M555 280v-280h-213l-5 45q-57 -57 -130 -57q-81 0 -138 40t-57 127q0 36 14 64t35 44.5t49 27.5t52.5 15.5t49.5 5.5l118 5v5q0 48 -83 48q-81 0 -160 -45l-55 142q115 53 245 53q143 0 210 -60q68 -60 68 -180zM332 145v63l-45 -3q-50 -2 -50 -40q0 -40 50 -40
q25 0 45 20zM482 667v-100h-375v100h375z" />
    <glyph glyph-name="Abreve" unicode="&#x102;" horiz-adv-x="710" 
d="M480 690l240 -690h-245l-27 97h-197l-26 -97h-235l240 690h250zM299 270h102l-51 185zM450 870h90q-11 -73 -61.5 -109t-128.5 -36t-128.5 36t-61.5 109h90q21 -50 100 -50t100 50z" />
    <glyph glyph-name="abreve" unicode="&#x103;" horiz-adv-x="590" 
d="M555 280v-280h-213l-5 45q-57 -57 -130 -57q-81 0 -138 40t-57 127q0 36 14 64t35 44.5t49 27.5t52.5 15.5t49.5 5.5l118 5v5q0 48 -83 48q-81 0 -160 -45l-55 142q115 53 245 53q143 0 210 -60q68 -60 68 -180zM332 145v63l-45 -3q-50 -2 -50 -40q0 -40 50 -40
q25 0 45 20zM395 690h90q-11 -73 -61.5 -109t-128.5 -36t-128.5 36t-61.5 109h90q21 -50 100 -50t100 50z" />
    <glyph glyph-name="Aogonek" unicode="&#x104;" horiz-adv-x="710" 
d="M705 -100l25 -50q-7 -6 -19 -14t-46 -22t-65 -14q-57 0 -93.5 22t-36.5 68q0 70 70 110h-65l-27 97h-197l-26 -97h-235l240 690h250l240 -690h-65q-27 -14 -48.5 -35t-21.5 -45q0 -40 55 -40q35 0 65 20zM299 270h102l-51 185z" />
    <glyph glyph-name="aogonek" unicode="&#x105;" horiz-adv-x="590" 
d="M550 -100l25 -50q-7 -6 -19 -14t-46 -22t-65 -14q-57 0 -93.5 22t-36.5 68q0 70 70 110h-43l-5 45q-57 -57 -130 -57q-81 0 -138 40t-57 127q0 36 14 64t35 44.5t49 27.5t52.5 15.5t49.5 5.5l118 5v5q0 48 -83 48q-81 0 -160 -45l-55 142q115 53 245 53q143 0 210 -60
q68 -60 68 -180v-280h-55q-28 -14 -49 -35t-21 -45q0 -40 55 -40q35 0 65 20zM332 145v63l-45 -3q-50 -2 -50 -40q0 -40 50 -40q25 0 45 20z" />
    <glyph glyph-name="Cacute" unicode="&#x106;" horiz-adv-x="635" 
d="M570 255l65 -180q-87 -87 -245 -87q-160 0 -265 94.5t-105 261.5t105 261.5t265 94.5q43 0 83 -6.5t65.5 -16t45 -19.5t28.5 -16l8 -7l-60 -190q-8 7 -22 17t-54.5 26.5t-78.5 16.5q-68 0 -113 -40.5t-45 -117.5q0 -75 46 -115t112 -40q102 0 165 63zM338 870h180
l-95 -145h-155z" />
    <glyph glyph-name="cacute" unicode="&#x107;" horiz-adv-x="490" 
d="M440 205l40 -170q-7 -5 -20.5 -13t-61 -21t-103.5 -13q-118 0 -199 71.5t-81 194.5t81 194.5t199 71.5q51 0 96 -10t65 -20l19 -10l-35 -170q-47 35 -110 35q-40 0 -66.5 -23t-26.5 -65t26 -64.5t72 -22.5q27 0 53 9t39 17zM244 690h180l-95 -145h-155z" />
    <glyph glyph-name="Ccircumflex" unicode="&#x108;" horiz-adv-x="635" 
d="M570 255l65 -180q-87 -87 -245 -87q-160 0 -265 94.5t-105 261.5t105 261.5t265 94.5q43 0 83 -6.5t65.5 -16t45 -19.5t28.5 -16l8 -7l-60 -190q-8 7 -22 17t-54.5 26.5t-78.5 16.5q-68 0 -113 -40.5t-45 -117.5q0 -75 46 -115t112 -40q102 0 165 63zM474 870l80 -145
h-145l-47 85l-48 -85h-145l80 145h225z" />
    <glyph glyph-name="ccircumflex" unicode="&#x109;" horiz-adv-x="490" 
d="M440 205l40 -170q-7 -5 -20.5 -13t-61 -21t-103.5 -13q-118 0 -199 71.5t-81 194.5t81 194.5t199 71.5q51 0 96 -10t65 -20l19 -10l-35 -170q-47 35 -110 35q-40 0 -66.5 -23t-26.5 -65t26 -64.5t72 -22.5q27 0 53 9t39 17zM378 690l80 -145h-145l-47 85l-48 -85h-145
l80 145h225z" />
    <glyph glyph-name="Cdotaccent" unicode="&#x10a;" horiz-adv-x="635" 
d="M570 255l65 -180q-87 -87 -245 -87q-160 0 -265 94.5t-105 261.5t105 261.5t265 94.5q43 0 83 -6.5t65.5 -16t45 -19.5t28.5 -16l8 -7l-60 -190q-8 7 -22 17t-54.5 26.5t-78.5 16.5q-68 0 -113 -40.5t-45 -117.5q0 -75 46 -115t112 -40q102 0 165 63zM420 800
q0 -36 -24 -59.5t-58 -23.5t-58.5 24t-24.5 59t24.5 57.5t58.5 22.5t58 -22.5t24 -57.5z" />
    <glyph glyph-name="cdotaccent" unicode="&#x10b;" horiz-adv-x="490" 
d="M440 205l40 -170q-7 -5 -20.5 -13t-61 -21t-103.5 -13q-118 0 -199 71.5t-81 194.5t81 194.5t199 71.5q51 0 96 -10t65 -20l19 -10l-35 -170q-47 35 -110 35q-40 0 -66.5 -23t-26.5 -65t26 -64.5t72 -22.5q27 0 53 9t39 17zM335 620q0 -36 -24 -59.5t-58 -23.5t-58.5 24
t-24.5 59t24.5 57.5t58.5 22.5t58 -22.5t24 -57.5z" />
    <glyph glyph-name="Ccaron" unicode="&#x10c;" horiz-adv-x="635" 
d="M570 255l65 -180q-87 -87 -245 -87q-160 0 -265 94.5t-105 261.5t105 261.5t265 94.5q43 0 83 -6.5t65.5 -16t45 -19.5t28.5 -16l8 -7l-60 -190q-8 7 -22 17t-54.5 26.5t-78.5 16.5q-68 0 -113 -40.5t-45 -117.5q0 -75 46 -115t112 -40q102 0 165 63zM375 870h145
l-80 -145h-225l-80 145h145l48 -85z" />
    <glyph glyph-name="ccaron" unicode="&#x10d;" horiz-adv-x="490" 
d="M440 205l40 -170q-7 -5 -20.5 -13t-61 -21t-103.5 -13q-118 0 -199 71.5t-81 194.5t81 194.5t199 71.5q51 0 96 -10t65 -20l19 -10l-35 -170q-47 35 -110 35q-40 0 -66.5 -23t-26.5 -65t26 -64.5t72 -22.5q27 0 53 9t39 17zM306 690h145l-80 -145h-225l-80 145h145
l48 -85z" />
    <glyph glyph-name="Dcaron" unicode="&#x10e;" horiz-adv-x="720" 
d="M700 345q0 -182 -115 -270q-97 -75 -275 -75h-260v690h260q178 0 275 -75q115 -88 115 -270zM472 345q0 87 -40 125q-35 35 -105 35h-52v-315h52q70 0 105 35q40 40 40 120zM378 870h145l-80 -145h-225l-80 145h145l48 -85z" />
    <glyph glyph-name="dcaron" unicode="&#x10f;" horiz-adv-x="908" 
d="M620 690v-690h-213l3 55q-52 -67 -160 -67q-107 0 -171 75.5t-64 190.5t64 190.5t171 75.5q47 0 83.5 -14t50.5 -28l13 -13q-2 40 -2 80v145h225zM402 257q0 42 -23 65t-57 23t-57 -23.5t-23 -64.5t23.5 -64t56.5 -23q34 0 57 23t23 64zM743 690h210l-115 -285h-185z" />
    <glyph glyph-name="Dcroat" unicode="&#x110;" horiz-adv-x="720" 
d="M700 345q0 -182 -115 -270q-97 -75 -275 -75h-260v280h-50v140h50v270h260q178 0 275 -75q115 -88 115 -270zM472 345q0 87 -40 125q-35 35 -105 35h-52v-85h97v-135h-97v-95h52q70 0 105 35q40 40 40 120z" />
    <glyph glyph-name="dcroat" unicode="&#x111;" horiz-adv-x="662" 
d="M656 656v-100h-36v-556h-213l3 55q-52 -67 -160 -67q-107 0 -171 75.5t-64 190.5t64 190.5t171 75.5q47 0 83.5 -14t50.5 -28l13 -13q-2 40 -2 80v11h-195v100h195v34h225v-34h36zM402 257q0 42 -23 65t-57 23t-57 -23.5t-23 -64.5t23.5 -64t56.5 -23q34 0 57 23t23 64z
" />
    <glyph glyph-name="Emacron" unicode="&#x112;" horiz-adv-x="580" 
d="M550 180v-180h-500v690h490v-178h-265v-75h250v-177h-250v-80h275zM490 847v-100h-375v100h375z" />
    <glyph glyph-name="emacron" unicode="&#x113;" horiz-adv-x="587" 
d="M575 265l-3 -63h-335q10 -57 98 -57q80 0 140 40l85 -110q-2 -1 -5 -4q-100 -83 -253 -83q-126 0 -206.5 69.5t-80.5 196.5q0 126 82 196t208 70q121 0 195.5 -69.5t74.5 -185.5zM237 320h130q-2 27 -19.5 43.5t-45.5 16.5q-27 0 -45 -16.5t-20 -43.5zM489 667v-100h-375
v100h375z" />
    <glyph glyph-name="Ebreve" unicode="&#x114;" horiz-adv-x="580" 
d="M550 180v-180h-500v690h490v-178h-265v-75h250v-177h-250v-80h275zM399 870h90q-11 -73 -61.5 -109t-128.5 -36t-128.5 36t-61.5 109h90q21 -50 100 -50t100 50z" />
    <glyph glyph-name="ebreve" unicode="&#x115;" horiz-adv-x="587" 
d="M575 265l-3 -63h-335q10 -57 98 -57q80 0 140 40l85 -110q-2 -1 -5 -4q-100 -83 -253 -83q-126 0 -206.5 69.5t-80.5 196.5q0 126 82 196t208 70q121 0 195.5 -69.5t74.5 -185.5zM237 320h130q-2 27 -19.5 43.5t-45.5 16.5q-27 0 -45 -16.5t-20 -43.5zM403 690h90
q-11 -73 -61.5 -109t-128.5 -36t-128.5 36t-61.5 109h90q21 -50 100 -50t100 50z" />
    <glyph glyph-name="Edotaccent" unicode="&#x116;" horiz-adv-x="580" 
d="M550 180v-180h-500v690h490v-178h-265v-75h250v-177h-250v-80h275zM389 800q0 -36 -24 -59.5t-58 -23.5t-58.5 24t-24.5 59t24.5 57.5t58.5 22.5t58 -22.5t24 -57.5z" />
    <glyph glyph-name="edotaccent" unicode="&#x117;" horiz-adv-x="587" 
d="M575 265l-3 -63h-335q10 -57 98 -57q80 0 140 40l85 -110q-2 -1 -5 -4q-100 -83 -253 -83q-126 0 -206.5 69.5t-80.5 196.5q0 126 82 196t208 70q121 0 195.5 -69.5t74.5 -185.5zM237 320h130q-2 27 -19.5 43.5t-45.5 16.5q-27 0 -45 -16.5t-20 -43.5zM384 620
q0 -36 -24 -59.5t-58 -23.5t-58.5 24t-24.5 59t24.5 57.5t58.5 22.5t58 -22.5t24 -57.5z" />
    <glyph glyph-name="Eogonek" unicode="&#x118;" horiz-adv-x="580" 
d="M525 -100l25 -50q-7 -6 -19 -14t-46 -22t-65 -14q-57 0 -93.5 22t-36.5 68q0 70 70 110h-310v690h490v-178h-265v-75h250v-177h-250v-80h275v-180h-75q-27 -14 -48.5 -35t-21.5 -45q0 -40 55 -40q35 0 65 20z" />
    <glyph glyph-name="eogonek" unicode="&#x119;" horiz-adv-x="587" 
d="M454 -100l25 -50q-7 -6 -19 -14t-46 -22t-65 -14q-57 0 -93.5 22t-36.5 68q0 60 53 99q-115 9 -186 77.5t-71 187.5q0 126 82 196t208 70q121 0 195.5 -69.5t74.5 -185.5l-3 -63h-335q10 -57 98 -57q80 0 140 40l85 -110q-1 -1 -7.5 -6.5t-10 -8l-12 -8.5t-15 -10
l-17 -10t-21 -10l-23 -9t-27 -9t-30.5 -7q-63 -35 -63 -77q0 -40 55 -40q35 0 65 20zM237 320h130q-2 27 -19.5 43.5t-45.5 16.5q-27 0 -45 -16.5t-20 -43.5z" />
    <glyph glyph-name="Ecaron" unicode="&#x11a;" horiz-adv-x="580" 
d="M550 180v-180h-500v690h490v-178h-265v-75h250v-177h-250v-80h275zM352 870h145l-80 -145h-225l-80 145h145l48 -85z" />
    <glyph glyph-name="ecaron" unicode="&#x11b;" horiz-adv-x="587" 
d="M575 265l-3 -63h-335q10 -57 98 -57q80 0 140 40l85 -110q-2 -1 -5 -4q-100 -83 -253 -83q-126 0 -206.5 69.5t-80.5 196.5q0 126 82 196t208 70q121 0 195.5 -69.5t74.5 -185.5zM237 320h130q-2 27 -19.5 43.5t-45.5 16.5q-27 0 -45 -16.5t-20 -43.5zM341 690h145
l-80 -145h-225l-80 145h145l48 -85z" />
    <glyph glyph-name="Gcircumflex" unicode="&#x11c;" horiz-adv-x="740" 
d="M705 417v-302l-37.5 -33t-45 -32t-61.5 -32t-76 -20t-100 -9q-71 0 -135.5 21.5t-116.5 64t-82.5 112t-30.5 158.5t31 158.5t83.5 111.5t117.5 63.5t138 21.5q28 0 54 -3t47 -7.5t41.5 -12t35.5 -14t30.5 -16t25.5 -16.5t20.5 -16.5t15.5 -14.5l12 -12l8 -8l-150 -125
q-60 60 -140 60q-62 0 -102.5 -45t-40.5 -125t40.5 -125t102.5 -45q36 0 59.5 6.5t29.5 12.5l6 6v50h-105v167h325zM478 870l80 -145h-145l-47 85l-48 -85h-145l80 145h225z" />
    <glyph glyph-name="gcircumflex" unicode="&#x11d;" horiz-adv-x="662" 
d="M620 510v-410q0 -144 -98 -220q-82 -65 -242 -65q-78 0 -149.5 21.5t-115.5 53.5l85 140q32 -20 80 -35t90 -15q75 0 105 30q22 22 22 60v10q-49 -55 -147 -55q-97 0 -166 64.5t-69 182.5q0 119 69 183.5t166 64.5q94 0 147 -60l-2 50h225zM402 270q0 33 -23 55t-57 22
t-57 -22t-23 -55q0 -34 23 -56t57 -22t57 22t23 56zM435 690l80 -145h-145l-47 85l-48 -85h-145l80 145h225z" />
    <glyph glyph-name="Gbreve" unicode="&#x11e;" horiz-adv-x="740" 
d="M705 417v-302l-37.5 -33t-45 -32t-61.5 -32t-76 -20t-100 -9q-71 0 -135.5 21.5t-116.5 64t-82.5 112t-30.5 158.5t31 158.5t83.5 111.5t117.5 63.5t138 21.5q28 0 54 -3t47 -7.5t41.5 -12t35.5 -14t30.5 -16t25.5 -16.5t20.5 -16.5t15.5 -14.5l12 -12l8 -8l-150 -125
q-60 60 -140 60q-62 0 -102.5 -45t-40.5 -125t40.5 -125t102.5 -45q36 0 59.5 6.5t29.5 12.5l6 6v50h-105v167h325zM470 870h90q-11 -73 -61.5 -109t-128.5 -36t-128.5 36t-61.5 109h90q21 -50 100 -50t100 50z" />
    <glyph glyph-name="gbreve" unicode="&#x11f;" horiz-adv-x="662" 
d="M620 510v-410q0 -144 -98 -220q-82 -65 -242 -65q-78 0 -149.5 21.5t-115.5 53.5l85 140q32 -20 80 -35t90 -15q75 0 105 30q22 22 22 60v10q-49 -55 -147 -55q-97 0 -166 64.5t-69 182.5q0 119 69 183.5t166 64.5q94 0 147 -60l-2 50h225zM402 270q0 33 -23 55t-57 22
t-57 -22t-23 -55q0 -34 23 -56t57 -22t57 22t23 56zM421 690h90q-11 -73 -61.5 -109t-128.5 -36t-128.5 36t-61.5 109h90q21 -50 100 -50t100 50z" />
    <glyph glyph-name="Gdotaccent" unicode="&#x120;" horiz-adv-x="740" 
d="M705 417v-302l-37.5 -33t-45 -32t-61.5 -32t-76 -20t-100 -9q-71 0 -135.5 21.5t-116.5 64t-82.5 112t-30.5 158.5t31 158.5t83.5 111.5t117.5 63.5t138 21.5q28 0 54 -3t47 -7.5t41.5 -12t35.5 -14t30.5 -16t25.5 -16.5t20.5 -16.5t15.5 -14.5l12 -12l8 -8l-150 -125
q-60 60 -140 60q-62 0 -102.5 -45t-40.5 -125t40.5 -125t102.5 -45q36 0 59.5 6.5t29.5 12.5l6 6v50h-105v167h325zM452 802q0 -36 -24 -59.5t-58 -23.5t-58.5 24t-24.5 59t24.5 57.5t58.5 22.5t58 -22.5t24 -57.5z" />
    <glyph glyph-name="gdotaccent" unicode="&#x121;" horiz-adv-x="662" 
d="M620 510v-410q0 -144 -98 -220q-82 -65 -242 -65q-78 0 -149.5 21.5t-115.5 53.5l85 140q32 -20 80 -35t90 -15q75 0 105 30q22 22 22 60v10q-49 -55 -147 -55q-97 0 -166 64.5t-69 182.5q0 119 69 183.5t166 64.5q94 0 147 -60l-2 50h225zM402 270q0 33 -23 55t-57 22
t-57 -22t-23 -55q0 -34 23 -56t57 -22t57 22t23 56zM413 620q0 -36 -24 -59.5t-58 -23.5t-58.5 24t-24.5 59t24.5 57.5t58.5 22.5t58 -22.5t24 -57.5z" />
    <glyph glyph-name="Gcommaaccent" unicode="&#x122;" horiz-adv-x="740" 
d="M705 417v-302l-37.5 -33t-45 -32t-61.5 -32t-76 -20t-100 -9q-71 0 -135.5 21.5t-116.5 64t-82.5 112t-30.5 158.5t31 158.5t83.5 111.5t117.5 63.5t138 21.5q28 0 54 -3t47 -7.5t41.5 -12t35.5 -14t30.5 -16t25.5 -16.5t20.5 -16.5t15.5 -14.5l12 -12l8 -8l-150 -125
q-60 60 -140 60q-62 0 -102.5 -45t-40.5 -125t40.5 -125t102.5 -45q36 0 59.5 6.5t29.5 12.5l6 6v50h-105v167h325zM292 -50h210l-62 -140h-182z" />
    <glyph glyph-name="gcommaaccent" unicode="&#x123;" horiz-adv-x="662" 
d="M620 510v-410q0 -144 -98 -220q-82 -65 -242 -65q-78 0 -149.5 21.5t-115.5 53.5l85 140q32 -20 80 -35t90 -15q75 0 105 30q22 22 22 60v10q-49 -55 -147 -55q-97 0 -166 64.5t-69 182.5q0 119 69 183.5t166 64.5q94 0 147 -60l-2 50h225zM402 270q0 33 -23 55t-57 22
t-57 -22t-23 -55q0 -34 23 -56t57 -22t57 22t23 56zM404 587h-210l62 140h182z" />
    <glyph glyph-name="Hcircumflex" unicode="&#x124;" horiz-adv-x="740" 
d="M690 690v-690h-226v255h-188v-255h-226v690h226v-250h188v250h226zM482 870l80 -145h-145l-47 85l-48 -85h-145l80 145h225z" />
    <glyph glyph-name="hcircumflex" unicode="&#x125;" horiz-adv-x="630" 
d="M597 300v-300h-225v250q0 44 -10 66t-42 22q-33 0 -43 -22t-10 -66v-250h-225v690h225v-150l-2 -95q47 75 142 75q105 0 147.5 -58t42.5 -162zM262 904l80 -145h-145l-47 85l-48 -85h-145l80 145h225z" />
    <glyph glyph-name="Hbar" unicode="&#x126;" horiz-adv-x="740" 
d="M735 623v-100h-45v-523h-226v255h-188v-255h-226v523h-45v100h45v67h226v-67h188v67h226v-67h45zM276 440h188v83h-188v-83z" />
    <glyph glyph-name="hbar" unicode="&#x127;" horiz-adv-x="630" 
d="M597 300v-300h-225v250q0 44 -10 66t-42 22q-33 0 -43 -22t-10 -66v-250h-225v556h-37v100h37v34h225v-34h194v-100h-194v-16l-2 -95q47 75 142 75q105 0 147.5 -58t42.5 -162z" />
    <glyph glyph-name="Itilde" unicode="&#x128;" horiz-adv-x="326" 
d="M276 690v-690h-226v690h226zM278 870l90 -10q0 -54 -40 -96t-95 -42q-42 0 -83 23q-37 22 -55 22q-33 0 -47 -42l-90 10q0 54 40 95.5t95 41.5q45 0 82 -22q41 -23 55 -23q34 0 48 43z" />
    <glyph glyph-name="itilde" unicode="&#x129;" horiz-adv-x="305" 
d="M265 510v-510h-225v510h225zM268 690l90 -10q0 -54 -40 -96t-95 -42q-42 0 -83 23q-37 22 -55 22q-33 0 -47 -42l-90 10q0 54 40 95.5t95 41.5q45 0 82 -22q41 -23 55 -23q34 0 48 43z" />
    <glyph glyph-name="Imacron" unicode="&#x12a;" horiz-adv-x="326" 
d="M276 690v-690h-226v690h226zM351 847v-100h-375v100h375z" />
    <glyph glyph-name="imacron" unicode="&#x12b;" horiz-adv-x="305" 
d="M265 510v-510h-225v510h225zM340 667v-100h-375v100h375z" />
    <glyph glyph-name="Ibreve" unicode="&#x12c;" horiz-adv-x="326" 
d="M276 690v-690h-226v690h226zM263 870h90q-11 -73 -61.5 -109t-128.5 -36t-128.5 36t-61.5 109h90q21 -50 100 -50t100 50z" />
    <glyph glyph-name="ibreve" unicode="&#x12d;" horiz-adv-x="305" 
d="M265 510v-510h-225v510h225zM253 690h90q-11 -73 -61.5 -109t-128.5 -36t-128.5 36t-61.5 109h90q21 -50 100 -50t100 50z" />
    <glyph glyph-name="Iogonek" unicode="&#x12e;" horiz-adv-x="326" 
d="M280 -100l25 -50q-7 -6 -19 -14t-46 -22t-65 -14q-57 0 -93.5 22t-36.5 68q0 70 70 110h-65v690h226v-690h-46q-28 -14 -49 -35t-21 -45q0 -40 55 -40q35 0 65 20z" />
    <glyph glyph-name="iogonek" unicode="&#x12f;" horiz-adv-x="305" 
d="M278 -100l25 -50q-7 -6 -19 -14t-46 -22t-65 -14q-57 0 -93.5 22t-36.5 68q0 70 70 110h-73v510h225v-510h-37q-28 -14 -49 -35t-21 -45q0 -40 55 -40q35 0 65 20zM272 635q0 -49 -32.5 -78t-87.5 -29q-54 0 -87 29t-33 78t33 78t87 29q55 0 87.5 -29t32.5 -78z" />
    <glyph glyph-name="Idotaccent" unicode="&#x130;" horiz-adv-x="326" 
d="M276 690v-690h-226v690h226zM246 800q0 -36 -24 -59.5t-58 -23.5t-58.5 24t-24.5 59t24.5 57.5t58.5 22.5t58 -22.5t24 -57.5z" />
    <glyph glyph-name="dotlessi" unicode="&#x131;" horiz-adv-x="305" 
d="M265 510v-510h-225v510h225z" />
    <glyph glyph-name="IJ" unicode="&#x132;" horiz-adv-x="651" 
d="M276 690v-690h-226v690h226zM601 690v-665q0 -110 -49 -160t-146 -50q-39 0 -78.5 5.5t-51.5 11.5l10 163q30 -10 55 -10q17 0 26 8t9 32v665h225z" />
    <glyph glyph-name="ij" unicode="&#x133;" horiz-adv-x="610" 
d="M272 635q0 -49 -32.5 -78t-87.5 -29q-54 0 -87 29t-33 78t33 78t87 29q55 0 87.5 -29t32.5 -78zM265 510v-510h-225v510h225zM577 635q0 -49 -32.5 -78t-87.5 -29q-54 0 -87 29t-33 78t33 78t87 29q55 0 87.5 -29t32.5 -78zM570 510v-485q0 -111 -53 -160
q-53 -50 -155 -50q-30 0 -55.5 2.5t-36.5 4.5l-10 3l5 170q15 -5 40 -5q21 0 30.5 9.5t9.5 37.5v473h225z" />
    <glyph glyph-name="Jcircumflex" unicode="&#x134;" horiz-adv-x="325" 
d="M275 690v-665q0 -110 -49 -160t-146 -50q-39 0 -78.5 5.5t-51.5 11.5l10 163q30 -10 55 -10q17 0 26 8t9 32v665h225zM275 870l80 -145h-145l-47 85l-48 -85h-145l80 145h225z" />
    <glyph glyph-name="jcircumflex" unicode="&#x135;" horiz-adv-x="305" 
d="M265 510v-485q0 -111 -53 -160q-53 -50 -155 -50q-30 0 -55.5 2.5t-35.5 4.5l-11 3l5 170q15 -5 40 -5q21 0 30.5 9.5t9.5 37.5v473h225zM265 690l80 -145h-145l-47 85l-48 -85h-145l80 145h225z" />
    <glyph glyph-name="Kcommaaccent" unicode="&#x136;" horiz-adv-x="680" 
d="M462 412l238 -412h-270l-115 230l-40 -50v-180h-225v690h225v-210l145 210h265zM259 -50h210l-62 -140h-182z" />
    <glyph glyph-name="kcommaaccent" unicode="&#x137;" horiz-adv-x="615" 
d="M455 320l180 -320h-255l-80 155l-33 -35v-120h-225v690h225v-315l108 135h255zM231 -50h210l-62 -140h-182z" />
    <glyph glyph-name="kgreenlandic" unicode="&#x138;" horiz-adv-x="613" 
d="M453 320l180 -320h-255l-80 155l-33 -35v-120h-225v510h225v-135l108 135h255z" />
    <glyph glyph-name="Lacute" unicode="&#x139;" horiz-adv-x="520" 
d="M510 185v-185h-460v690h225v-505h235zM151 904h180l-95 -145h-155z" />
    <glyph glyph-name="lacute" unicode="&#x13a;" horiz-adv-x="310" 
d="M267 690v-690h-225v690h225zM138 905h180l-95 -145h-155z" />
    <glyph glyph-name="Lcommaaccent" unicode="&#x13b;" horiz-adv-x="520" 
d="M510 185v-185h-460v690h225v-505h235zM190 -50h210l-62 -140h-182z" />
    <glyph glyph-name="lcommaaccent" unicode="&#x13c;" horiz-adv-x="310" 
d="M267 690v-690h-225v690h225zM67 -50h210l-62 -140h-182z" />
    <glyph glyph-name="Lcaron" unicode="&#x13d;" horiz-adv-x="567" 
d="M510 185v-185h-460v690h225v-505h235zM402 690h210l-115 -285h-185z" />
    <glyph glyph-name="lcaron" unicode="&#x13e;" horiz-adv-x="555" 
d="M267 690v-690h-225v690h225zM390 690h210l-115 -285h-185z" />
    <glyph glyph-name="Ldot" unicode="&#x13f;" horiz-adv-x="609" 
d="M510 185v-185h-460v690h225v-505h235zM589 386q0 -49 -33 -78.5t-87 -29.5q-55 0 -87.5 29.5t-32.5 78.5q0 48 32.5 77.5t87.5 29.5q54 0 87 -29.5t33 -77.5z" />
    <glyph glyph-name="ldot" unicode="&#x140;" horiz-adv-x="610" 
d="M267 690v-690h-225v690h225zM567 293q0 -49 -33 -78.5t-87 -29.5q-55 0 -87.5 29.5t-32.5 78.5q0 48 32.5 77.5t87.5 29.5q54 0 87 -29.5t33 -77.5z" />
    <glyph glyph-name="Lslash" unicode="&#x141;" horiz-adv-x="520" 
d="M510 185v-185h-460v185l-35 -25v160l35 25v345h225v-195l95 70v-160l-95 -70v-150h235z" />
    <glyph glyph-name="lslash" unicode="&#x142;" horiz-adv-x="315" 
d="M310 570v-155l-40 -30v-385h-225v215l-40 -30v155l40 30v320h225v-150z" />
    <glyph glyph-name="Nacute" unicode="&#x143;" horiz-adv-x="760" 
d="M710 690v-690h-235l-210 385q5 -75 5 -125v-260h-220v690h245l200 -385q-5 75 -5 125v260h220zM353 870h180l-95 -145h-155z" />
    <glyph glyph-name="nacute" unicode="&#x144;" horiz-adv-x="632" 
d="M595 300v-300h-225v250q0 44 -10 66t-43 22q-32 0 -42 -22t-10 -66v-250h-225v510h225l-3 -65q52 75 143 75q105 0 147.5 -58t42.5 -162zM269 690h180l-95 -145h-155z" />
    <glyph glyph-name="Ncommaaccent" unicode="&#x145;" horiz-adv-x="760" 
d="M710 690v-690h-235l-210 385q5 -75 5 -125v-260h-220v690h245l200 -385q-5 75 -5 125v260h220zM288 -50h210l-62 -140h-182z" />
    <glyph glyph-name="ncommaaccent" unicode="&#x146;" horiz-adv-x="632" 
d="M595 300v-300h-225v250q0 44 -10 66t-43 22q-32 0 -42 -22t-10 -66v-250h-225v510h225l-3 -65q52 75 143 75q105 0 147.5 -58t42.5 -162zM230 -50h210l-62 -140h-182z" />
    <glyph glyph-name="Ncaron" unicode="&#x147;" horiz-adv-x="760" 
d="M710 690v-690h-235l-210 385q5 -75 5 -125v-260h-220v690h245l200 -385q-5 75 -5 125v260h220zM427 870h145l-80 -145h-225l-80 145h145l48 -85z" />
    <glyph glyph-name="ncaron" unicode="&#x148;" horiz-adv-x="632" 
d="M595 300v-300h-225v250q0 44 -10 66t-43 22q-32 0 -42 -22t-10 -66v-250h-225v510h225l-3 -65q52 75 143 75q105 0 147.5 -58t42.5 -162zM357 690h145l-80 -145h-225l-80 145h145l48 -85z" />
    <glyph glyph-name="Eng" unicode="&#x14a;" horiz-adv-x="760" 
d="M710 690v-665q0 -110 -49 -160t-146 -50q-39 0 -78.5 5.5t-51.5 11.5l10 163q30 -10 55 -10q19 0 31 6l-216 394q5 -75 5 -125v-260h-220v690h245l200 -385q-5 75 -5 125v260h220z" />
    <glyph glyph-name="eng" unicode="&#x14b;" horiz-adv-x="632" 
d="M595 300v-275q0 -111 -53 -160q-53 -50 -155 -50q-30 0 -55.5 2.5t-35.5 4.5l-11 3l5 170q15 -5 40 -5q21 0 30.5 9.5t9.5 37.5v213q0 44 -10 66t-43 22q-32 0 -42 -22t-10 -66v-250h-225v510h225l-3 -65q52 75 143 75q105 0 147.5 -58t42.5 -162z" />
    <glyph glyph-name="Omacron" unicode="&#x14c;" horiz-adv-x="790" 
d="M770 344q0 -165 -105 -260.5t-270 -95.5t-270 95.5t-105 260.5t105 261t270 96t270 -96t105 -261zM542 349q0 72 -40 116.5t-107 44.5t-107.5 -44.5t-40.5 -116.5t40.5 -116.5t107.5 -44.5t107 44.5t40 116.5zM582 847v-100h-375v100h375z" />
    <glyph glyph-name="omacron" unicode="&#x14d;" horiz-adv-x="620" 
d="M605 254q0 -125 -82 -195.5t-213 -70.5t-213 70.5t-82 195.5t82 195.5t213 70.5t213 -70.5t82 -195.5zM380 257q0 40 -18.5 64t-51.5 24t-51.5 -24t-18.5 -64t18.5 -63.5t51.5 -23.5t51.5 23.5t18.5 63.5zM497 667v-100h-375v100h375z" />
    <glyph glyph-name="Obreve" unicode="&#x14e;" horiz-adv-x="790" 
d="M770 344q0 -165 -105 -260.5t-270 -95.5t-270 95.5t-105 260.5t105 261t270 96t270 -96t105 -261zM542 349q0 72 -40 116.5t-107 44.5t-107.5 -44.5t-40.5 -116.5t40.5 -116.5t107.5 -44.5t107 44.5t40 116.5zM495 870h90q-11 -73 -61.5 -109t-128.5 -36t-128.5 36
t-61.5 109h90q21 -50 100 -50t100 50z" />
    <glyph glyph-name="obreve" unicode="&#x14f;" horiz-adv-x="620" 
d="M605 254q0 -125 -82 -195.5t-213 -70.5t-213 70.5t-82 195.5t82 195.5t213 70.5t213 -70.5t82 -195.5zM380 257q0 40 -18.5 64t-51.5 24t-51.5 -24t-18.5 -64t18.5 -63.5t51.5 -23.5t51.5 23.5t18.5 63.5zM410 690h90q-11 -73 -61.5 -109t-128.5 -36t-128.5 36t-61.5 109
h90q21 -50 100 -50t100 50z" />
    <glyph glyph-name="Ohungarumlaut" unicode="&#x150;" horiz-adv-x="790" 
d="M770 344q0 -165 -105 -260.5t-270 -95.5t-270 95.5t-105 260.5t105 261t270 96t270 -96t105 -261zM542 349q0 72 -40 116.5t-107 44.5t-107.5 -44.5t-40.5 -116.5t40.5 -116.5t107.5 -44.5t107 44.5t40 116.5zM490 870h175l-100 -145h-150zM270 870h175l-100 -145h-150z
" />
    <glyph glyph-name="ohungarumlaut" unicode="&#x151;" horiz-adv-x="620" 
d="M605 254q0 -125 -82 -195.5t-213 -70.5t-213 70.5t-82 195.5t82 195.5t213 70.5t213 -70.5t82 -195.5zM380 257q0 40 -18.5 64t-51.5 24t-51.5 -24t-18.5 -64t18.5 -63.5t51.5 -23.5t51.5 23.5t18.5 63.5zM393 690h175l-100 -145h-150zM173 690h175l-100 -145h-150z" />
    <glyph glyph-name="OE" unicode="&#x152;" horiz-adv-x="985" 
d="M955 180v-180h-455q-36 -12 -105 -12q-165 0 -270 95.5t-105 260.5t105 261t270 96q56 0 100 -11h450v-178h-240v-75h225v-177h-225v-80h250zM480 205v290q-30 15 -85 15q-67 0 -107.5 -44.5t-40.5 -116.5t40.5 -116.5t107.5 -44.5q51 0 85 17z" />
    <glyph glyph-name="oe" unicode="&#x153;" horiz-adv-x="947" 
d="M935 265l-3 -63h-335q10 -57 98 -57q80 0 140 40l85 -110q-2 -1 -5 -4q-100 -83 -253 -83q-113 0 -175 49q-67 -49 -177 -49q-131 0 -213 70.5t-82 195.5t82 195.5t213 70.5q109 0 180 -50q71 50 175 50q121 0 195.5 -69.5t74.5 -185.5zM597 320h130q-2 27 -19.5 43.5
t-45.5 16.5q-27 0 -45 -16.5t-20 -43.5zM380 257q0 40 -18.5 64t-51.5 24t-51.5 -24t-18.5 -64t18.5 -63.5t51.5 -23.5t51.5 23.5t18.5 63.5z" />
    <glyph glyph-name="Racute" unicode="&#x154;" horiz-adv-x="660" 
d="M520 262l155 -262h-260l-110 230h-29v-230h-226v690h300q129 0 200 -50q85 -60 85 -170q0 -139 -115 -208zM407 460q0 29 -25 47q-16 13 -50 13h-57v-120h57q35 0 50 12q25 18 25 48zM275 870h180l-95 -145h-155z" />
    <glyph glyph-name="racute" unicode="&#x155;" horiz-adv-x="440" 
d="M440 510l-10 -205h-10q-30 15 -65 15q-46 0 -70 -33q-20 -26 -20 -87v-200h-225v510h225l-3 -65q45 75 128 75q16 0 28.5 -2.5t17.5 -5.5zM204 690h180l-95 -145h-155z" />
    <glyph glyph-name="Rcommaaccent" unicode="&#x156;" horiz-adv-x="660" 
d="M520 262l155 -262h-260l-110 230h-29v-230h-226v690h300q129 0 200 -50q85 -60 85 -170q0 -139 -115 -208zM407 460q0 29 -25 47q-16 13 -50 13h-57v-120h57q35 0 50 12q25 18 25 48zM250 -50h210l-62 -140h-182z" />
    <glyph glyph-name="rcommaaccent" unicode="&#x157;" horiz-adv-x="440" 
d="M440 510l-10 -205h-10q-30 15 -65 15q-46 0 -70 -33q-20 -26 -20 -87v-200h-225v510h225l-3 -65q45 75 128 75q16 0 28.5 -2.5t17.5 -5.5zM70 -50h210l-62 -140h-182z" />
    <glyph glyph-name="Rcaron" unicode="&#x158;" horiz-adv-x="660" 
d="M520 262l155 -262h-260l-110 230h-29v-230h-226v690h300q129 0 200 -50q85 -60 85 -170q0 -139 -115 -208zM407 460q0 29 -25 47q-16 13 -50 13h-57v-120h57q35 0 50 12q25 18 25 48zM367 870h145l-80 -145h-225l-80 145h145l48 -85z" />
    <glyph glyph-name="rcaron" unicode="&#x159;" horiz-adv-x="440" 
d="M440 510l-10 -205h-10q-30 15 -65 15q-46 0 -70 -33q-20 -26 -20 -87v-200h-225v510h225l-3 -65q45 75 128 75q16 0 28.5 -2.5t17.5 -5.5zM281 690h145l-80 -145h-225l-80 145h145l48 -85z" />
    <glyph glyph-name="Sacute" unicode="&#x15a;" horiz-adv-x="570" 
d="M560 227q0 -110 -90 -180q-77 -59 -204 -59q-142 0 -266 92l100 170q43 -36 98.5 -55.5t85.5 -19.5q51 0 51 29q0 9 -8.5 16.5t-16.5 11t-25 8.5q-43 12 -100 32q-67 27 -95 51q-63 54 -63 147q0 101 80 167q72 60 203 60q68 0 134.5 -22.5t111.5 -60.5l-86 -160
q-36 31 -84 48.5t-80 17.5q-56 0 -56 -28q0 -4 1.5 -7.5t5.5 -6.5t7 -5t8.5 -4.5t8.5 -3.5t9.5 -3t7.5 -2q3 -1 35.5 -10.5t46.5 -14.5q77 -26 115 -58q65 -56 65 -150zM260 870h180l-95 -145h-155z" />
    <glyph glyph-name="sacute" unicode="&#x15b;" horiz-adv-x="487" 
d="M472 160q0 -78 -67 -128q-60 -45 -165 -45q-143 0 -236 71l76 132q32 -21 71 -34t61 -16.5t34 -3.5q29 0 29 16q0 5 -6 10t-18.5 9.5l-21 7.5t-23.5 7t-16 4q-35 10 -60 20q-95 33 -95 140q0 78 60.5 124.5t154.5 46.5q124 0 216 -59l-61 -126q-76 48 -147 48
q-28 0 -28 -17q0 -12 55 -27q58 -17 72 -23q47 -19 73 -45q42 -42 42 -112zM213 690h180l-95 -145h-155z" />
    <glyph glyph-name="Scircumflex" unicode="&#x15c;" horiz-adv-x="570" 
d="M560 227q0 -110 -90 -180q-77 -59 -204 -59q-142 0 -266 92l100 170q43 -36 98.5 -55.5t85.5 -19.5q51 0 51 29q0 9 -8.5 16.5t-16.5 11t-25 8.5q-43 12 -100 32q-67 27 -95 51q-63 54 -63 147q0 101 80 167q72 60 203 60q68 0 134.5 -22.5t111.5 -60.5l-86 -160
q-36 31 -84 48.5t-80 17.5q-56 0 -56 -28q0 -4 1.5 -7.5t5.5 -6.5t7 -5t8.5 -4.5t8.5 -3.5t9.5 -3t7.5 -2q3 -1 35.5 -10.5t46.5 -14.5q77 -26 115 -58q65 -56 65 -150zM405 870l80 -145h-145l-47 85l-48 -85h-145l80 145h225z" />
    <glyph glyph-name="scircumflex" unicode="&#x15d;" horiz-adv-x="487" 
d="M472 160q0 -78 -67 -128q-60 -45 -165 -45q-143 0 -236 71l76 132q32 -21 71 -34t61 -16.5t34 -3.5q29 0 29 16q0 5 -6 10t-18.5 9.5l-21 7.5t-23.5 7t-16 4q-35 10 -60 20q-95 33 -95 140q0 78 60.5 124.5t154.5 46.5q124 0 216 -59l-61 -126q-76 48 -147 48
q-28 0 -28 -17q0 -12 55 -27q58 -17 72 -23q47 -19 73 -45q42 -42 42 -112zM358 690l80 -145h-145l-47 85l-48 -85h-145l80 145h225z" />
    <glyph glyph-name="Scedilla" unicode="&#x15e;" horiz-adv-x="570" 
d="M560 227q0 -110 -90 -180q-34 -25 -74 -40l-69 -147h-155l77 128q-133 5 -249 92l100 170q43 -36 98.5 -55.5t85.5 -19.5q51 0 51 29q0 9 -8.5 16.5t-16.5 11t-25 8.5q-43 12 -100 32q-67 27 -95 51q-63 54 -63 147q0 101 80 167q72 60 203 60q68 0 134.5 -22.5
t111.5 -60.5l-86 -160q-36 31 -84 48.5t-80 17.5q-56 0 -56 -28q0 -4 1.5 -7.5t5.5 -6.5t7 -5t8.5 -4.5t8.5 -3.5t9.5 -3t7.5 -2q3 -1 35.5 -10.5t46.5 -14.5q77 -26 115 -58q65 -56 65 -150z" />
    <glyph glyph-name="scedilla" unicode="&#x15f;" horiz-adv-x="487" 
d="M472 160q0 -78 -67 -128q-26 -20 -53 -29l-68 -145h-155l78 130q-122 7 -203 70l76 132q32 -21 71 -34t61 -16.5t34 -3.5q29 0 29 16q0 5 -6 10t-18.5 9.5l-21 7.5t-23.5 7t-16 4q-35 10 -60 20q-95 33 -95 140q0 78 60.5 124.5t154.5 46.5q124 0 216 -59l-61 -126
q-76 48 -147 48q-28 0 -28 -17q0 -12 55 -27q58 -17 72 -23q47 -19 73 -45q42 -42 42 -112z" />
    <glyph glyph-name="Scaron" unicode="&#x160;" horiz-adv-x="570" 
d="M357 865h145l-80 -145h-225l-80 145h145l48 -85zM560 227q0 -110 -90 -180q-77 -59 -204 -59q-142 0 -266 92l100 170q43 -36 98.5 -55.5t85.5 -19.5q51 0 51 29q0 9 -8.5 16.5t-16.5 11t-25 8.5q-43 12 -100 32q-67 27 -95 51q-63 54 -63 147q0 101 80 167q72 60 203 60
q68 0 134.5 -22.5t111.5 -60.5l-86 -160q-36 31 -84 48.5t-80 17.5q-56 0 -56 -28q0 -4 1.5 -7.5t5.5 -6.5t7 -5t8.5 -4.5t8.5 -3.5t9.5 -3t7.5 -2q3 -1 35.5 -10.5t46.5 -14.5q77 -26 115 -58q65 -56 65 -150z" />
    <glyph glyph-name="scaron" unicode="&#x161;" horiz-adv-x="487" 
d="M297 690h145l-80 -145h-225l-80 145h145l48 -85zM472 160q0 -78 -67 -128q-60 -45 -165 -45q-143 0 -236 71l76 132q32 -21 71 -34t61 -16.5t34 -3.5q29 0 29 16q0 5 -6 10t-18.5 9.5l-21 7.5t-23.5 7t-16 4q-35 10 -60 20q-95 33 -95 140q0 78 60.5 124.5t154.5 46.5
q124 0 216 -59l-61 -126q-76 48 -147 48q-28 0 -28 -17q0 -12 55 -27q58 -17 72 -23q47 -19 73 -45q42 -42 42 -112z" />
    <glyph glyph-name="Tcommaaccent" unicode="&#x162;" horiz-adv-x="551" 
d="M551 690v-176h-163v-514h-226v514h-162v176h551zM187 -50h210l-62 -140h-182z" />
    <glyph glyph-name="tcommaaccent" unicode="&#x163;" horiz-adv-x="405" 
d="M400 510v-165h-105v-140q0 -21 9.5 -28t30.5 -7q11 0 23.5 2t19.5 4l7 1l10 -172q-68 -17 -140 -17q-91 0 -140 44q-45 42 -45 148v165h-70v165h70v125h225v-125h105zM144 -50h210l-62 -140h-182z" />
    <glyph glyph-name="Tcaron" unicode="&#x164;" horiz-adv-x="551" 
d="M551 690v-176h-163v-514h-226v514h-162v176h551zM323 870h145l-80 -145h-225l-80 145h145l48 -85z" />
    <glyph glyph-name="tcaron" unicode="&#x165;" horiz-adv-x="405" 
d="M400 510v-165h-105v-140q0 -21 9.5 -28t30.5 -7q11 0 23.5 2t19.5 4l7 1l10 -172q-68 -17 -140 -17q-91 0 -140 44q-45 42 -45 148v165h-70v165h70v125h225v-125h105zM424 835h210l-115 -285h-185z" />
    <glyph glyph-name="Tbar" unicode="&#x166;" horiz-adv-x="551" 
d="M463 385v-130h-75v-255h-226v255h-74v130h74v129h-162v176h551v-176h-163v-129h75z" />
    <glyph glyph-name="tbar" unicode="&#x167;" horiz-adv-x="405" 
d="M400 510v-165h-105v-39h95v-80h-95v-21q0 -21 9.5 -28t30.5 -7q11 0 23.5 2t19.5 4l7 1l10 -172q-68 -17 -140 -17q-91 0 -140 44q-45 42 -45 148v46h-55v80h55v39h-70v165h70v125h225v-125h105z" />
    <glyph glyph-name="Utilde" unicode="&#x168;" horiz-adv-x="720" 
d="M675 690v-395q0 -150 -75 -225q-81 -81 -240 -81t-240 81q-75 75 -75 225v395h227v-405q0 -52 23 -75q25 -25 65 -25t65 25q22 22 22 75v405h228zM475 870l90 -10q0 -54 -40 -96t-95 -42q-42 0 -83 23q-37 22 -55 22q-33 0 -47 -42l-90 10q0 54 40 95.5t95 41.5
q45 0 82 -22q41 -23 55 -23q34 0 48 43z" />
    <glyph glyph-name="utilde" unicode="&#x169;" horiz-adv-x="622" 
d="M582 510v-510h-215l-2 45q-57 -57 -140 -57q-106 0 -150 62q-38 53 -38 150v310h225v-270q0 -68 48 -68q47 0 47 68v270h225zM426 690l90 -10q0 -54 -40 -96t-95 -42q-42 0 -83 23q-37 22 -55 22q-33 0 -47 -42l-90 10q0 54 40 95.5t95 41.5q45 0 82 -22q41 -23 55 -23
q34 0 48 43z" />
    <glyph glyph-name="Umacron" unicode="&#x16a;" horiz-adv-x="720" 
d="M675 690v-395q0 -150 -75 -225q-81 -81 -240 -81t-240 81q-75 75 -75 225v395h227v-405q0 -52 23 -75q25 -25 65 -25t65 25q22 22 22 75v405h228zM547 847v-100h-375v100h375z" />
    <glyph glyph-name="umacron" unicode="&#x16b;" horiz-adv-x="622" 
d="M582 510v-510h-215l-2 45q-57 -57 -140 -57q-106 0 -150 62q-38 53 -38 150v310h225v-270q0 -68 48 -68q47 0 47 68v270h225zM498 667v-100h-375v100h375z" />
    <glyph glyph-name="Ubreve" unicode="&#x16c;" horiz-adv-x="720" 
d="M675 690v-395q0 -150 -75 -225q-81 -81 -240 -81t-240 81q-75 75 -75 225v395h227v-405q0 -52 23 -75q25 -25 65 -25t65 25q22 22 22 75v405h228zM460 870h90q-11 -73 -61.5 -109t-128.5 -36t-128.5 36t-61.5 109h90q21 -50 100 -50t100 50z" />
    <glyph glyph-name="ubreve" unicode="&#x16d;" horiz-adv-x="622" 
d="M582 510v-510h-215l-2 45q-57 -57 -140 -57q-106 0 -150 62q-38 53 -38 150v310h225v-270q0 -68 48 -68q47 0 47 68v270h225zM411 690h90q-11 -73 -61.5 -109t-128.5 -36t-128.5 36t-61.5 109h90q21 -50 100 -50t100 50z" />
    <glyph glyph-name="Uring" unicode="&#x16e;" horiz-adv-x="720" 
d="M675 690v-395q0 -150 -75 -225q-81 -81 -240 -81t-240 81q-75 75 -75 225v395h227v-405q0 -52 23 -75q25 -25 65 -25t65 25q22 22 22 75v405h228zM490 830q0 -54 -37 -82t-93 -28t-93 28t-37 82t37 82t93 28t93 -28t37 -82zM410 830q0 45 -50 45t-50 -45t50 -45t50 45z
" />
    <glyph glyph-name="uring" unicode="&#x16f;" horiz-adv-x="622" 
d="M582 510v-510h-215l-2 45q-57 -57 -140 -57q-106 0 -150 62q-38 53 -38 150v310h225v-270q0 -68 48 -68q47 0 47 68v270h225zM441 650q0 -54 -37 -82t-93 -28t-93 28t-37 82t37 82t93 28t93 -28t37 -82zM361 650q0 45 -50 45t-50 -45t50 -45t50 45z" />
    <glyph glyph-name="Uhungarumlaut" unicode="&#x170;" horiz-adv-x="720" 
d="M675 690v-395q0 -150 -75 -225q-81 -81 -240 -81t-240 81q-75 75 -75 225v395h227v-405q0 -52 23 -75q25 -25 65 -25t65 25q22 22 22 75v405h228zM460 870h175l-100 -145h-150zM240 870h175l-100 -145h-150z" />
    <glyph glyph-name="uhungarumlaut" unicode="&#x171;" horiz-adv-x="622" 
d="M582 510v-510h-215l-2 45q-57 -57 -140 -57q-106 0 -150 62q-38 53 -38 150v310h225v-270q0 -68 48 -68q47 0 47 68v270h225zM401 690h175l-100 -145h-150zM181 690h175l-100 -145h-150z" />
    <glyph glyph-name="Uogonek" unicode="&#x172;" horiz-adv-x="720" 
d="M500 -100l25 -50q-7 -6 -19 -14t-46 -22t-65 -14q-57 0 -93.5 22t-36.5 68q0 62 55 101q-130 9 -200 79q-75 75 -75 225v395h227v-405q0 -52 23 -75q25 -25 65 -25t65 25q22 22 22 75v405h228v-395q0 -150 -75 -225q-59 -59 -160 -75q-60 -34 -60 -75q0 -40 55 -40
q35 0 65 20z" />
    <glyph glyph-name="uogonek" unicode="&#x173;" horiz-adv-x="622" 
d="M577 -100l25 -50q-7 -6 -19 -14t-46 -22t-65 -14q-57 0 -93.5 22t-36.5 68q0 70 70 110h-45l-2 45q-57 -57 -140 -57q-106 0 -150 62q-38 53 -38 150v310h225v-270q0 -68 48 -68q47 0 47 68v270h225v-510h-55q-27 -14 -48.5 -35t-21.5 -45q0 -40 55 -40q35 0 65 20z" />
    <glyph glyph-name="Wcircumflex" unicode="&#x174;" horiz-adv-x="1015" 
d="M790 690h235l-195 -690h-230l-93 390l-92 -390h-230l-195 690h235l85 -385l85 385h225l85 -385zM620 870l80 -145h-145l-47 85l-48 -85h-145l80 145h225z" />
    <glyph glyph-name="wcircumflex" unicode="&#x175;" horiz-adv-x="885" 
d="M665 510h225l-165 -510h-215l-68 250l-67 -250h-215l-165 510h225l65 -270l65 270h185l65 -270zM555 690l80 -145h-145l-47 85l-48 -85h-145l80 145h225z" />
    <glyph glyph-name="Ycircumflex" unicode="&#x176;" 
d="M435 690h250l-240 -420v-270h-226v270l-239 420h250l102 -233zM445 870l80 -145h-145l-47 85l-48 -85h-145l80 145h225z" />
    <glyph glyph-name="ycircumflex" unicode="&#x177;" horiz-adv-x="610" 
d="M390 510h230l-210 -520q-35 -87 -76 -131t-119 -44q-51 0 -97.5 7.5t-67.5 15.5l-20 7l45 160q30 -15 70 -15q20 0 30.5 6t14.5 24l-200 490h235l82 -265zM417 690l80 -145h-145l-47 85l-48 -85h-145l80 145h225z" />
    <glyph glyph-name="Ydieresis" unicode="&#x178;" 
d="M519 790q0 -36 -23.5 -58t-59.5 -22t-59 22t-23 58q0 35 23.5 57.5t58.5 22.5q36 0 59.5 -22.5t23.5 -57.5zM311 790q0 -36 -23 -58t-59 -22t-59.5 22t-23.5 58q0 35 23.5 57.5t59.5 22.5q35 0 58.5 -22.5t23.5 -57.5zM435 690h250l-240 -420v-270h-226v270l-239 420h250
l102 -233z" />
    <glyph glyph-name="Zacute" unicode="&#x179;" horiz-adv-x="660" 
d="M635 185v-185h-605v160l300 350h-290v180h580v-155l-300 -350h315zM300 870h180l-95 -145h-155z" />
    <glyph glyph-name="zacute" unicode="&#x17a;" horiz-adv-x="535" 
d="M525 175v-175h-515v125l220 220h-210v165h495v-120l-215 -215h225zM237 690h180l-95 -145h-155z" />
    <glyph glyph-name="Zdotaccent" unicode="&#x17b;" horiz-adv-x="660" 
d="M635 185v-185h-605v160l300 350h-290v180h580v-155l-300 -350h315zM412 800q0 -36 -24 -59.5t-58 -23.5t-58.5 24t-24.5 59t24.5 57.5t58.5 22.5t58 -22.5t24 -57.5z" />
    <glyph glyph-name="zdotaccent" unicode="&#x17c;" horiz-adv-x="535" 
d="M525 175v-175h-515v125l220 220h-210v165h495v-120l-215 -215h225zM350 620q0 -36 -24 -59.5t-58 -23.5t-58.5 24t-24.5 59t24.5 57.5t58.5 22.5t58 -22.5t24 -57.5z" />
    <glyph glyph-name="Zcaron" unicode="&#x17d;" horiz-adv-x="660" 
d="M377 865h145l-80 -145h-225l-80 145h145l48 -85zM635 185v-185h-605v160l300 350h-290v180h580v-155l-300 -350h315z" />
    <glyph glyph-name="zcaron" unicode="&#x17e;" horiz-adv-x="535" 
d="M315 690h145l-80 -145h-225l-80 145h145l47 -85zM525 175v-175h-515v125l220 220h-210v165h495v-120l-215 -215h225z" />
    <glyph glyph-name="florin" unicode="&#x192;" 
d="M620 700l-45 -150q-30 15 -55 15q-39 0 -50 -60l-8 -40h103l-28 -145h-102l-45 -245q-21 -111 -74.5 -160.5t-160.5 -49.5q-60 0 -110 25l50 160q25 -10 45 -10q27 0 39.5 21.5t20.5 63.5l37 195h-95l28 145h95q0 2 4.5 30t6 36t6.5 31.5t9 35.5t10.5 28.5t13.5 28.5
q49 82 160 82q36 0 72 -9.5t55 -18.5z" />
    <glyph glyph-name="AEacute" unicode="&#x1fc;" horiz-adv-x="985" 
d="M955 180v-180h-470v97h-223l-52 -97h-255l410 690h580v-178h-235v-75h220v-177h-220v-80h245zM354 270h131v245zM613 870h180l-95 -145h-155z" />
    <glyph glyph-name="aeacute" unicode="&#x1fd;" horiz-adv-x="897" 
d="M885 265l-3 -63h-335q10 -57 98 -57q80 0 140 40l85 -110q-2 -1 -5 -4q-100 -83 -253 -83q-129 0 -200 67q-43 -37 -88.5 -52t-116.5 -15q-81 0 -138 40t-57 127q0 36 14 64t35 44.5t49 27.5t52.5 15.5t49.5 5.5l118 5v5q0 48 -83 48q-81 0 -160 -45l-55 142
q115 53 245 53q126 0 180 -40q66 40 158 40q121 0 195.5 -69.5t74.5 -185.5zM547 320h130q-2 27 -19.5 43.5t-45.5 16.5q-27 0 -45 -16.5t-20 -43.5zM347 145q-11 23 -17 63l-43 -3q-50 -4 -50 -40q0 -40 50 -40q30 0 60 20zM434 690h180l-95 -145h-155z" />
    <glyph glyph-name="Oslashacute" unicode="&#x1fe;" horiz-adv-x="790" 
d="M387 865h180l-95 -145h-155zM770 344q0 -165 -105 -260.5t-270 -95.5q-118 0 -209 51l-71 -72l-95 93l66 67q-66 90 -66 217q0 166 105 261.5t270 95.5q118 0 209 -51l71 72l95 -92l-67 -67q67 -89 67 -219zM254 297l200 202q-28 11 -59 11q-67 0 -107.5 -44.5
t-40.5 -116.5q0 -24 7 -52zM542 349q0 27 -4 46l-196 -198q24 -9 53 -9q67 0 107 44.5t40 116.5z" />
    <glyph glyph-name="oslashacute" unicode="&#x1ff;" horiz-adv-x="620" 
d="M300 690h180l-95 -145h-155zM605 254q0 -125 -82 -195.5t-213 -70.5q-93 0 -162 36l-51 -49l-80 77l46 44q-48 65 -48 158q0 125 82 195.5t213 70.5q89 0 159 -34l51 49l80 -78l-45 -42q50 -66 50 -161zM231 240l112 112q-15 5 -31 5q-36 0 -59 -27t-23 -73q0 -11 1 -17z
M395 257q0 11 -1 16l-110 -110q12 -6 28 -6q37 0 60 27t23 73z" />
    <glyph glyph-name="dotlessj" unicode="&#x237;" horiz-adv-x="305" 
d="M265 510v-485q0 -111 -53 -160q-53 -50 -155 -50q-30 0 -55.5 2.5t-35.5 4.5l-11 3l5 170q15 -5 40 -5q21 0 30.5 9.5t9.5 37.5v473h225z" />
    <glyph glyph-name="circumflex" unicode="&#x2c6;" horiz-adv-x="500" 
d="M362 690l80 -145h-145l-47 85l-48 -85h-145l80 145h225z" />
    <glyph glyph-name="caron" unicode="&#x2c7;" horiz-adv-x="500" 
d="M297 690h145l-80 -145h-225l-80 145h145l48 -85z" />
    <glyph glyph-name="breve" unicode="&#x2d8;" horiz-adv-x="500" 
d="M350 690h90q-11 -73 -61.5 -109t-128.5 -36t-128.5 36t-61.5 109h90q21 -50 100 -50t100 50z" />
    <glyph glyph-name="dotaccent" unicode="&#x2d9;" horiz-adv-x="500" 
d="M332 620q0 -36 -24 -59.5t-58 -23.5t-58.5 24t-24.5 59t24.5 57.5t58.5 22.5t58 -22.5t24 -57.5z" />
    <glyph glyph-name="ring" unicode="&#x2da;" horiz-adv-x="500" 
d="M380 650q0 -54 -37 -82t-93 -28t-93 28t-37 82t37 82t93 28t93 -28t37 -82zM300 650q0 45 -50 45t-50 -45t50 -45t50 45z" />
    <glyph glyph-name="ogonek" unicode="&#x2db;" horiz-adv-x="500" 
d="M355 -100l25 -50q-7 -6 -19 -14t-46 -22t-65 -14q-57 0 -93.5 22t-36.5 68q0 75 80 115h105v-5q-27 -14 -48.5 -35t-21.5 -45q0 -40 55 -40q35 0 65 20z" />
    <glyph glyph-name="tilde" unicode="&#x2dc;" horiz-adv-x="500" 
d="M365 690l90 -10q0 -54 -40 -96t-95 -42q-42 0 -83 23q-37 22 -55 22q-33 0 -47 -42l-90 10q0 54 40 95.5t95 41.5q45 0 82 -22q41 -23 55 -23q34 0 48 43z" />
    <glyph glyph-name="hungarumlaut" unicode="&#x2dd;" horiz-adv-x="500" 
d="M310 690h175l-100 -145h-150zM90 690h175l-100 -145h-150z" />
    <glyph glyph-name="Wgrave" unicode="&#x1e80;" horiz-adv-x="1015" 
d="M790 690h235l-195 -690h-230l-93 390l-92 -390h-230l-195 690h235l85 -385l85 385h225l85 -385zM562 870l70 -145h-155l-95 145h180z" />
    <glyph glyph-name="wgrave" unicode="&#x1e81;" horiz-adv-x="885" 
d="M665 510h225l-165 -510h-215l-68 250l-67 -250h-215l-165 510h225l65 -270l65 270h185l65 -270zM497 690l70 -145h-155l-95 145h180z" />
    <glyph glyph-name="Wacute" unicode="&#x1e82;" horiz-adv-x="1015" 
d="M790 690h235l-195 -690h-230l-93 390l-92 -390h-230l-195 690h235l85 -385l85 385h225l85 -385zM452 870h180l-95 -145h-155z" />
    <glyph glyph-name="wacute" unicode="&#x1e83;" horiz-adv-x="885" 
d="M665 510h225l-165 -510h-215l-68 250l-67 -250h-215l-165 510h225l65 -270l65 270h185l65 -270zM387 690h180l-95 -145h-155z" />
    <glyph glyph-name="Wdieresis" unicode="&#x1e84;" horiz-adv-x="1015" 
d="M790 690h235l-195 -690h-230l-93 390l-92 -390h-230l-195 690h235l85 -385l85 385h225l85 -385zM695 797q0 -35 -23.5 -57.5t-58.5 -22.5q-36 0 -59.5 22.5t-23.5 57.5q0 36 23.5 58t59.5 22t59 -22t23 -58zM485 797q0 -35 -23.5 -57.5t-58.5 -22.5q-36 0 -59.5 22.5
t-23.5 57.5q0 36 23.5 58t59.5 22t59 -22t23 -58z" />
    <glyph glyph-name="wdieresis" unicode="&#x1e85;" horiz-adv-x="885" 
d="M665 510h225l-165 -510h-215l-68 250l-67 -250h-215l-165 510h225l65 -270l65 270h185l65 -270zM630 617q0 -35 -23.5 -57.5t-58.5 -22.5q-36 0 -59.5 22.5t-23.5 57.5q0 36 23.5 58t59.5 22t59 -22t23 -58zM420 617q0 -35 -23.5 -57.5t-58.5 -22.5q-36 0 -59.5 22.5
t-23.5 57.5q0 36 23.5 58t59.5 22t59 -22t23 -58z" />
    <glyph glyph-name="Ygrave" unicode="&#x1ef2;" 
d="M435 690h250l-240 -420v-270h-226v270l-239 420h250l102 -233zM357 870l70 -145h-155l-95 145h180z" />
    <glyph glyph-name="ygrave" unicode="&#x1ef3;" horiz-adv-x="610" 
d="M390 510h230l-210 -520q-35 -87 -76 -131t-119 -44q-51 0 -97.5 7.5t-67.5 15.5l-20 7l45 160q30 -15 70 -15q20 0 30.5 6t14.5 24l-200 490h235l82 -265zM330 690l70 -145h-155l-95 145h180z" />
    <glyph glyph-name="endash" unicode="&#x2013;" horiz-adv-x="500" 
d="M500 345v-165h-500v165h500z" />
    <glyph glyph-name="emdash" unicode="&#x2014;" horiz-adv-x="1000" 
d="M975 345v-165h-950v165h950z" />
    <glyph glyph-name="quoteleft" unicode="&#x2018;" horiz-adv-x="395" 
d="M170 690h185l-90 -285h-210z" />
    <glyph glyph-name="quoteright" unicode="&#x2019;" horiz-adv-x="395" 
d="M130 690h210l-115 -285h-185z" />
    <glyph glyph-name="quotesinglbase" unicode="&#x201a;" horiz-adv-x="395" 
d="M130 165h210l-115 -285h-185z" />
    <glyph glyph-name="quotedblleft" unicode="&#x201c;" horiz-adv-x="650" 
d="M430 690h175l-90 -285h-200zM175 690h175l-90 -285h-200z" />
    <glyph glyph-name="quotedblright" unicode="&#x201d;" horiz-adv-x="650" 
d="M390 690h200l-115 -285h-175zM135 690h200l-115 -285h-175z" />
    <glyph glyph-name="quotedblbase" unicode="&#x201e;" horiz-adv-x="650" 
d="M390 165h200l-115 -285h-175zM135 165h200l-115 -285h-175z" />
    <glyph glyph-name="dagger" unicode="&#x2020;" horiz-adv-x="725" 
d="M650 510v-160h-200v-485h-175v485h-200v160h200v220h175v-220h200z" />
    <glyph glyph-name="daggerdbl" unicode="&#x2021;" horiz-adv-x="725" 
d="M650 225v-160h-200v-200h-175v200h-200v160h200v145h-200v160h200v200h175v-200h200v-160h-200v-145h200z" />
    <glyph glyph-name="bullet" unicode="&#x2022;" 
d="M515 365q0 -75 -54 -129t-129 -54t-128.5 54t-53.5 129t53.5 128.5t128.5 53.5t129 -53.5t54 -128.5z" />
    <glyph glyph-name="ellipsis" unicode="&#x2026;" horiz-adv-x="1000" 
d="M947 97q0 -51 -33.5 -79.5t-88.5 -28.5q-56 0 -89.5 28.5t-33.5 79.5q0 52 33.5 80.5t89.5 28.5q55 0 88.5 -29t33.5 -80zM622 97q0 -51 -33.5 -79.5t-88.5 -28.5q-56 0 -89.5 28.5t-33.5 79.5q0 52 33.5 80.5t89.5 28.5q55 0 88.5 -29t33.5 -80zM297 97
q0 -51 -33.5 -79.5t-88.5 -28.5q-56 0 -89.5 28.5t-33.5 79.5q0 52 33.5 80.5t89.5 28.5q55 0 88.5 -29t33.5 -80z" />
    <glyph glyph-name="perthousand" unicode="&#x2030;" horiz-adv-x="1375" 
d="M1345 177q0 -87 -54 -139.5t-141 -52.5t-141 52.5t-54 139.5q0 88 54 140.5t141 52.5t141 -52.5t54 -140.5zM920 177q0 -87 -54 -139.5t-141 -52.5t-141 52.5t-54 139.5q0 88 54 140.5t141 52.5t141 -52.5t54 -140.5zM647 710l88 -53l-433 -682l-87 52zM420 507
q0 -87 -54 -139.5t-141 -52.5t-141 52.5t-54 139.5q0 88 54 140.5t141 52.5t141 -52.5t54 -140.5zM1207 180q0 70 -57 70q-55 0 -55 -70t55 -70q57 0 57 70zM782 180q0 70 -57 70q-55 0 -55 -70t55 -70q57 0 57 70zM282 510q0 70 -57 70q-55 0 -55 -70t55 -70q57 0 57 70z
" />
    <glyph glyph-name="guilsinglleft" unicode="&#x2039;" horiz-adv-x="415" 
d="M227 255l118 -163l-105 -72l-170 235l170 235l105 -73z" />
    <glyph glyph-name="guilsinglright" unicode="&#x203a;" horiz-adv-x="415" 
d="M175 490l170 -235l-170 -235l-105 72l117 163l-117 162z" />
    <glyph glyph-name="fraction" unicode="&#x2044;" horiz-adv-x="350" 
d="M351 715l85 -52l-437 -689l-85 52z" />
    <glyph glyph-name="Euro" unicode="&#x20ac;" 
d="M585 215l55 -165q-1 -1 -7.5 -5.5l-12 -8t-17 -10t-22.5 -11t-28 -10t-35.5 -8.5t-42.5 -5.5t-50 -2.5q-238 0 -300 218h-60v120h43q-1 13 -1 23v20h-42v120h65q32 110 110.5 160t184.5 50q58 0 109 -12.5t74 -25.5l22 -12l-55 -160q-63 42 -125 42q-78 0 -95 -42h135
v-120h-168v-43h168v-120h-135q4 -18 27.5 -29.5t62.5 -11.5q75 0 140 49z" />
    <glyph glyph-name="trademark" unicode="&#x2122;" horiz-adv-x="925" 
d="M840 690l25 -420h-110l-10 275h-3l-72 -275h-93l-72 275h-3l-10 -275h-110l25 420h145l70 -265h3l70 265h145zM362 690v-88h-105v-332h-107v332h-105v88h317z" />
    <glyph glyph-name="product" unicode="&#x220f;" horiz-adv-x="873" 
d="M823 309v-110h-97q-28 -69 -85 -117q-97 -82 -266 -82h-234v199h-91v110h91v77h-91v110h91v194h234q167 0 266 -83q56 -48 83 -111h99v-110h-72q2 -26 2 -41q0 -14 -2 -36h72zM589 345q0 21 -3 41h-284v-77h285q2 22 2 36zM302 137h82q92 0 144 50q6 5 12 12h-238v-62z
M538 496l-10 11q-53 49 -144 49h-82v-60h236z" />
    <glyph glyph-name="minus" unicode="&#x2212;" horiz-adv-x="735" 
d="M655 425v-160h-575v160h575z" />
    <glyph glyph-name="notequal" unicode="&#x2260;" horiz-adv-x="735" 
d="M655 295v-160h-243l-15 -90h-165l15 90h-167v160h196l18 100h-214v160h242l15 90h165l-15 -90h168v-160h-196l-18 -100h214z" />
    <glyph glyph-name="lessequal" unicode="&#x2264;" horiz-adv-x="984" 
d="M358 -1q-23 0 -39.5 16.5t-16.5 39.5t16.5 39.5t39.5 16.5t39.5 -16.5t16.5 -39.5t-16.5 -39.5t-39.5 -16.5zM273 114q-23 0 -39.5 16.5t-16.5 39.5t16.5 39.5t39.5 16.5t39.5 -16.5t16.5 -39.5t-16.5 -39.5t-39.5 -16.5zM188 229q-23 0 -39.5 16.5t-16.5 39.5t16.5 39.5
t39.5 16.5t39.5 -16.5t16.5 -39.5t-16.5 -39.5t-39.5 -16.5zM358 801q23 0 39.5 -16.5t16.5 -39.5t-16.5 -39.5t-39.5 -16.5t-39.5 16.5t-16.5 39.5t16.5 39.5t39.5 16.5zM273 686q23 0 39.5 -16.5t16.5 -39.5t-16.5 -39.5t-39.5 -16.5t-39.5 16.5t-16.5 39.5t16.5 39.5
t39.5 16.5zM188 571q23 0 39.5 -16.5t16.5 -39.5t-16.5 -39.5t-39.5 -16.5t-39.5 16.5t-16.5 39.5t16.5 39.5t39.5 16.5zM928 456q23 0 39.5 -16.5t16.5 -39.5t-16.5 -39.5t-39.5 -16.5t-39.5 16.5t-16.5 39.5t16.5 39.5t39.5 16.5zM763 456q23 0 39.5 -16.5t16.5 -39.5
t-16.5 -39.5t-39.5 -16.5t-39.5 16.5t-16.5 39.5t16.5 39.5t39.5 16.5zM268 456q23 0 39.5 -16.5t16.5 -39.5t-16.5 -39.5t-39.5 -16.5t-39.5 16.5t-16.5 39.5t16.5 39.5t39.5 16.5zM103 456q23 0 39.5 -16.5t16.5 -39.5t-16.5 -39.5t-39.5 -16.5t-39.5 16.5t-16.5 39.5
t16.5 39.5t39.5 16.5zM433 456q23 0 39.5 -16.5t16.5 -39.5t-16.5 -39.5t-39.5 -16.5t-39.5 16.5t-16.5 39.5t16.5 39.5t39.5 16.5zM598 456q23 0 39.5 -16.5t16.5 -39.5t-16.5 -39.5t-39.5 -16.5t-39.5 16.5t-16.5 39.5t16.5 39.5t39.5 16.5z" />
    <glyph glyph-name="greaterequal" unicode="&#x2265;" horiz-adv-x="984" 
d="M386 456q23 0 39.5 -16.5t16.5 -39.5t-16.5 -39.5t-39.5 -16.5t-39.5 16.5t-16.5 39.5t16.5 39.5t39.5 16.5zM551 456q23 0 39.5 -16.5t16.5 -39.5t-16.5 -39.5t-39.5 -16.5t-39.5 16.5t-16.5 39.5t16.5 39.5t39.5 16.5zM881 456q23 0 39.5 -16.5t16.5 -39.5t-16.5 -39.5
t-39.5 -16.5t-39.5 16.5t-16.5 39.5t16.5 39.5t39.5 16.5zM716 456q23 0 39.5 -16.5t16.5 -39.5t-16.5 -39.5t-39.5 -16.5t-39.5 16.5t-16.5 39.5t16.5 39.5t39.5 16.5zM221 456q23 0 39.5 -16.5t16.5 -39.5t-16.5 -39.5t-39.5 -16.5t-39.5 16.5t-16.5 39.5t16.5 39.5
t39.5 16.5zM56 456q23 0 39.5 -16.5t16.5 -39.5t-16.5 -39.5t-39.5 -16.5t-39.5 16.5t-16.5 39.5t16.5 39.5t39.5 16.5zM796 571q23 0 39.5 -16.5t16.5 -39.5t-16.5 -39.5t-39.5 -16.5t-39.5 16.5t-16.5 39.5t16.5 39.5t39.5 16.5zM711 686q23 0 39.5 -16.5t16.5 -39.5
t-16.5 -39.5t-39.5 -16.5t-39.5 16.5t-16.5 39.5t16.5 39.5t39.5 16.5zM626 801q23 0 39.5 -16.5t16.5 -39.5t-16.5 -39.5t-39.5 -16.5t-39.5 16.5t-16.5 39.5t16.5 39.5t39.5 16.5zM796 229q-23 0 -39.5 16.5t-16.5 39.5t16.5 39.5t39.5 16.5t39.5 -16.5t16.5 -39.5
t-16.5 -39.5t-39.5 -16.5zM711 114q-23 0 -39.5 16.5t-16.5 39.5t16.5 39.5t39.5 16.5t39.5 -16.5t16.5 -39.5t-16.5 -39.5t-39.5 -16.5zM626 -1q-23 0 -39.5 16.5t-16.5 39.5t16.5 39.5t39.5 16.5t39.5 -16.5t16.5 -39.5t-16.5 -39.5t-39.5 -16.5z" />
    <glyph glyph-name="commaaccent" unicode="&#xf6c3;" horiz-adv-x="350" 
d="M84 -50h210l-62 -140h-182z" />
    <glyph glyph-name="apple" unicode="&#xf8ff;" horiz-adv-x="1439" 
d="M629 -62h-7q25 21 25 45q0 35 -29 41q5 -30 5 -52q0 -38 -32 -58t-72 -20q-26 0 -46.5 14.5t-20.5 39.5q0 23 15.5 32.5t30.5 9.5q9 0 13 -1q14 27 45 40v3q-3 7 -3 23q-20 -41 -55 -41q-19 0 -32 20.5t-13 50.5q0 21 18 66.5t18 59.5q0 23 -9 23q-11 0 -21.5 -12
t-11.5 -18q0 -35 -34 -53q0 -142 -116 -142q-34 0 -57 16t-23 49q0 21 12 38t31 17q25 0 25 -29q0 -21 -11 -37.5t-30 -16.5q-3 0 -8.5 2.5t-7.5 2.5q3 -12 13 -20.5t20 -8.5q16 0 29 10.5t22 33t14 39t12 46.5q-22 9 -35 31q-9 -3 -14 -3q-56 0 -56 58q0 45 32 80.5
t77 35.5q36 0 63.5 -12.5t35.5 -12.5q6 0 16 2v-4q-56 -13 -92 -63q-2 19 -16 30.5t-34 11.5q-29 0 -51.5 -24.5t-22.5 -54.5q0 -42 45 -42q8 0 14 3q-5 10 -5 28q0 20 10.5 34t21.5 14q17 0 17 -20q0 -16 -10.5 -32t-25.5 -25q8 -18 31 -28q17 68 47 105q11 13 31.5 29
t38.5 18v-5q-47 -22 -47 -109q0 -10 2 -38q32 17 32 46q0 24 -12 38v1q13 -6 15 -30q17 32 49 32q23 0 35 -21.5t12 -52.5q0 -11 -17.5 -57t-17.5 -67q0 -17 9 -17q12 0 22 15t17.5 42t13 52t12 57.5l9.5 46.5q16 -8 26 -8q11 0 34 16q-2 -12 -12.5 -57t-16.5 -79t-6 -58v-7
l1 -14q37 -8 37 -50q0 -28 -24 -48zM1393 90l-113 -22l8 -40l-70 56q-25 -57 -64 -98q17 -7 41 -7q53 0 73 41h2q-4 -23 -25.5 -37t-45.5 -14q-25 0 -53 10q-57 -59 -113 -59q-58 0 -58 95q-1 -1 -6 -1q-31 0 -53.5 28.5t-22.5 80.5q0 35 41 78.5t86 43.5q17 0 28.5 -12.5
t11.5 -39.5q0 -34 -32.5 -59t-68.5 -29q-10 -50 -10 -66q0 -17 20 -17q4 0 6 1v1q0 31 19.5 63.5t47.5 32.5q13 0 13 -20q0 -25 -23.5 -53t-49.5 -31q0 -87 56 -87q44 0 98 54q-63 30 -63 96q0 25 14.5 47t38.5 27v-3q-23 -6 -35 -27t-12 -47q0 -58 64 -86q44 49 60 102
l-90 27l39 16l-52 107l42 -13l-9 63l41 -45l24 35l24 -78l34 107l17 -28l62 37v-71h38l-82 -81l81 23l-13 -42l61 -6l-59 -28zM797 -4v-4q-8 0 -15 -5t-7 -13q0 -9 6.5 -15t15.5 -6q29 0 50 30t21 59q0 17 -11 35q-30 -63 -70 -63q-30 0 -30 42q0 27 14.5 43t29.5 19
q11 70 11 109q0 8 -9 8q-5 0 -12.5 -6t-14.5 -21t-7 -35q0 -21 -23 -138t-27 -130q-16 8 -26 8q-9 0 -33 -16l17 90l27.5 151t12.5 84q0 23 -12.5 37t-27 22.5t-27 38t-12.5 79.5q0 27 18.5 86.5t18.5 88.5q0 17 -7 17q-9 0 -23.5 -17t-24.5 -43q-2 -13 -9 -50.5l-13.5 -73
t-7.5 -38.5q-18 9 -26 9q-18 0 -31 -10q1 10 10.5 61t16 93t6.5 54q0 14 -7 14q-13 0 -30 -42h-8q5 16 9.5 25.5t15.5 18t26 8.5q40 0 47 -45l7.5 11.5t9 13t9.5 10.5t13 8.5t15 2.5q23 0 36.5 -27.5t13.5 -63.5q0 -40 -20 -99t-20 -87q0 -29 11.5 -44t26 -18.5t28 -17
t17.5 -37.5q23 38 46 38q27 0 43.5 -34.5t16.5 -64.5q0 -31 -13 -61q15 -22 15 -46q0 -35 -20 -64t-54 -29q-13 0 -22 8t-9 20q0 9 6.5 15.5t15.5 6.5h6zM171 257h-4l3 3q9 0 21 8.5t12 20.5v5q-18 -7 -39 -7t-44.5 8.5t-23.5 25.5q0 12 14 18t27 6q17 0 39.5 -11.5
t31.5 -26.5q35 15 35 46q0 19 -8 28q-27 -16 -56 -16q-47 0 -77.5 33t-30.5 89q0 15 10 43q-26 19 -26 58q0 37 23.5 69.5t56.5 32.5q3 0 7.5 -0.5t5.5 -0.5v-5h-9q-32 0 -55 -30t-23 -65q0 -33 24 -50q27 61 79 121t86 60q31 0 31 -53q0 -43 -35.5 -82.5t-81.5 -56.5v-1
q-1 -1 -1 -2q-22 -90 -22 -116q0 -15 9 -24.5t16 -11.5t12 -2q24 0 49 18q-14 10 -34 10q-22 0 -28 -6v3q9 9 25 9q26 0 42 -12q42 37 42 91q0 44 -28 44q-27 0 -44 -23.5t-17 -50.5q0 -30 18 -30q14 0 22.5 17.5t8.5 34.5q0 4 -2 12h6q2 -4 2 -12q0 -19 -11 -38.5
t-26 -19.5q-24 0 -24 38q0 27 18.5 53t45.5 26q21 0 33.5 -18.5t12.5 -44.5q0 -53 -48 -87q12 -12 12 -34q0 -37 -43 -55q1 -1 1 -4q0 -14 -13 -24.5t-27 -10.5zM1177 457h9q-23 -86 -61 -86q-17 0 -31.5 12.5t-18.5 36.5q-15 -30 -26.5 -40t-25.5 -10q-27 0 -41.5 34
t-14.5 67q0 35 37.5 82.5t67.5 47.5q17 0 24 -19q4 24 9.5 50l9 41.5t3.5 17.5q16 -8 26 -8t35 16q-55 -291 -55 -304t7 -13q13 0 26.5 25.5t19.5 49.5zM949 424h7q-13 -53 -45 -53q-38 0 -48 48q-15 -29 -26.5 -39t-24.5 -10q-27 0 -42 34t-15 67q0 35 37.5 82.5t67.5 47.5
q19 0 26 -23l5 20q19 -7 27 -7t33 15q-38 -195 -38 -211q0 -13 6 -13q14 0 30 42zM1393 424h8q-15 -53 -46 -53q-39 0 -47 48q-16 -30 -27 -39.5t-24 -9.5q-27 0 -42.5 34t-15.5 67q0 35 38 82.5t68 47.5q17 0 26 -23l5 20q19 -7 26 -7q10 0 33 15q-2 -11 -12 -61t-18 -94
t-8 -56q0 -13 7 -13q13 0 29 42zM500 424h7q-13 -53 -46 -53q-16 0 -29.5 12t-17.5 36q-15 -30 -26 -39.5t-26 -9.5q-26 0 -40.5 34t-14.5 67q0 35 38 82.5t68 47.5q15 0 24 -23l5 20q19 -7 26 -7t12.5 2t13 7.5t8.5 5.5q-2 -12 -12.5 -61.5t-18.5 -93.5t-8 -56q0 -13 8 -13
q13 0 29 42zM336 -74h-4q-18 0 -37 9.5t-19 28.5q0 21 26 21q18 0 33.5 -12.5t15.5 -28.5q0 -1 -0.5 -4t-0.5 -4q24 6 42 23t18 44q0 14 -5 29h3q6 -9 6 -29q0 -28 -20 -49t-48 -26q-15 -28 -57 -28q-27 0 -51.5 12.5t-24.5 36.5q0 12 7 20t19 8q7 0 12 -1q-64 56 -144 56
q-26 0 -85 -8q18 7 42 14t31 10q35 13 63 44t28 59q0 33 -22.5 52t-56.5 19q-71 0 -71 -41q0 -12 13.5 -19.5t29.5 -7.5q19 0 52 27v-7q-22 -31 -52 -31q-20 0 -35.5 10.5t-15.5 27.5q0 48 75 48q44 0 68 -22.5t24 -59.5q0 -28 -25 -56t-46 -41l14 -4q42 -9 70 -25.5
t53 -51.5h-1v-1q-3 0 -8.5 1.5t-8.5 1.5q-25 0 -25 -22q0 -21 24.5 -32.5t46.5 -11.5q31 0 47 21zM1091 557q-2 36 -15 36q-5 0 -8.5 -3t-6 -7t-4.5 -10.5t-3 -11l-2.5 -11.5t-1.5 -8q-25 -110 -25 -153q0 -8 7 -8q19 0 30 34t29 142zM506 -24h-12q-33 0 -33 -31
q0 -21 17 -33t39 -12q21 0 40.5 13.5t19.5 35.5q0 10 -3.5 22.5t-9 28.5t-7.5 21q-29 -10 -40 -34q14 -5 22 -16t8 -20q0 -6 -5.5 -12.5t-14.5 -6.5t-16 9.5t-7 19.5t2 15zM1306 452q2 29 17 97q0 44 -14 44q-19 0 -26 -51q-24 -132 -24 -153q0 -8 6 -8q24 0 41 71zM862 452
q1 21 17 97q0 44 -14 44q-6 0 -10 -3.5t-7 -11t-4.5 -12.5t-3 -14t-1.5 -10q-24 -132 -24 -153q0 -8 5 -8q25 0 42 71zM413 452q2 29 17 97q0 44 -14 44q-9 0 -16.5 -18t-9.5 -33q-24 -106 -24 -153q0 -8 6 -8q23 0 41 71zM212 662q0 -1 -4 -10t-9 -23.5l-11 -30.5l-12 -33
l-10 -28q40 18 69 62t29 91q0 20 -14 20q-9 0 -17 -10t-21 -38zM1182 388h2q-5 -31 -26.5 -49.5t-49.5 -22.5q0 -21 -21 -37t-49 -16q-24 0 -43.5 11.5t-19.5 37.5q0 15 12.5 29t29.5 15v-3q-13 -2 -23.5 -12.5t-10.5 -22.5q0 -41 57 -41q61 0 63 39q-2 -1 -6 -1
q-18 0 -30.5 7.5t-12.5 20.5q0 6 6 10.5t12 4.5q12 0 22 -9.5t14 -22.5q25 3 46.5 21t27.5 41zM936 356l8 -4q-6 -27 -33.5 -46.5t-60.5 -19.5h-8q-13 -13 -38 -13q-56 0 -78 42v1q35 -39 76 -39q22 0 33 10q-35 5 -68 25.5t-33 56.5q0 18 8 27l4 -3q-4 -14 -4 -22
q0 -33 32 -51t70 -22q3 6 3 14q0 18 -15 30.5t-35 12.5q-18 0 -31 -8l-3 1q12 12 33 12t38.5 -13.5t17.5 -33.5q0 -7 -2 -15h3q29 0 53 14.5t30 43.5zM960 113q28 4 46 41t18 66q0 17 -8 17q-32 0 -56 -124zM981 26v-2q19 0 42.5 27.5t23.5 51.5q0 11 -7 11
q-22 0 -40.5 -30.5t-18.5 -57.5zM200 304q-9 14 -28 24.5t-35 10.5q-31 0 -31 -18q0 -24 53 -24q21 0 41 7zM630 255l-4 1v2q-3 20 -14.5 29.5t-22.5 9.5q-7 0 -31 -11.5t-48 -11.5q-26 0 -26 20q0 13 11 19t23 6l46 -5q25 0 25 18q0 11 -9 17.5t-21 6.5q-22 0 -22 -14
q0 -11 12 -11q9 0 17 5l1 -6q-8 -4 -17 -4q-19 0 -19 15q0 8 10 14t19 6q15 0 25 -8t10 -20q0 -23 -31 -23l-46 5q-30 0 -30 -21q0 -14 21 -14q13 0 39 12.5t35 12.5q21 0 34 -14t13 -36zM800 109q-16 -1 -27 -19t-11 -38q0 -28 18 -28q4 0 7 6t5 17.5l3.5 20t3 23t1.5 18.5
zM344 -54q0 14 -12.5 23.5t-26.5 9.5q-21 0 -21 -20q0 -13 15 -19.5t30 -6.5t15 13zM306 191q33 23 33 51q0 15 -12 15q-13 0 -19 -14t-6 -29t4 -23zM1099 326h3q-6 26 -27 26q-12 0 -12 -10q0 -16 36 -16zM514 -26q-1 -4 -1 -10q0 -24 12 -24t12 9q0 15 -23 25z" />
    </font>
</defs>
</svg>
