<?xml version="1.0" standalone="no"?>
<!DOCTYPE svg PUBLIC "-//W3C//DTD SVG 1.1//EN" "http://www.w3.org/Graphics/SVG/1.1/DTD/svg11.dtd" >
<svg xmlns="http://www.w3.org/2000/svg" xmlns:xlink="http://www.w3.org/1999/xlink" version="1.1">
<metadata>
Created by FontForge 20150318 at Mon Oct  5 07:50:27 2015
 By uniteet7
Copyright (c) 1992-97 Hewlett-Packard. All rights reserved.
</metadata>
<defs>
<font id="HelveticaOblique_22559" horiz-adv-x="1139" >
  <font-face 
    font-family="HelveticaOblique_22559"
    font-weight="400"
    font-style="oblique"
    font-stretch="normal"
    units-per-em="2048"
    panose-1="2 11 6 4 2 2 2 10 2 4"
    ascent="1638"
    descent="-410"
    x-height="1072"
    cap-height="1470"
    bbox="-675 -632 2288 1907"
    underline-thickness="102"
    underline-position="-154"
    slope="-12"
    unicode-range="U+0020-FB01"
  />
<missing-glyph horiz-adv-x="669" 
d="M0 1274h569v-1274h-569v1274zM100 1174v-1074h369v1074h-369z" />
    <glyph glyph-name=".notdef" horiz-adv-x="669" 
d="M0 1274h569v-1274h-569v1274zM100 1174v-1074h369v1074h-369z" />
    <glyph glyph-name="glyph1" horiz-adv-x="0" 
 />
    <glyph glyph-name="nonmarkingreturn" horiz-adv-x="682" 
 />
    <glyph glyph-name="space" unicode=" " horiz-adv-x="569" 
 />
    <glyph glyph-name="exclam" unicode="!" horiz-adv-x="569" 
d="M302 350l88 657l96 466h101h102l-96 -466l-184 -657h-54v0h-53zM226 207h198l-42 -207h-198z" />
    <glyph glyph-name="quotedbl" unicode="&#x22;" horiz-adv-x="727" 
d="M344 947l109 523h149l-108 -523h-150zM636 947l109 523h149l-108 -523h-150z" />
    <glyph glyph-name="numbersign" unicode="#" 
d="M846 1411l-156 -433h262l156 433h136l-156 -433h208l-47 -129h-207l-104 -290h208l-47 -129h-208l-155 -432h-136l155 432h-262l-155 -432h-136l155 432h-207l47 129h207l104 290h-208l47 129h207l156 433h136zM643 849l-104 -290h263l104 290h-263z" />
    <glyph glyph-name="dollar" unicode="$" 
d="M951 1580l-24 -116q173 -13 262 -101q82 -81 83 -218q0 -36 -6 -75v0h-179v0q18 118 -48 182q-49 49 -144 59l-103 -499l45 -12q203 -55 276 -153q51 -65 51 -167q0 -45 -11 -98q-41 -194 -194 -308q-140 -104 -343 -115l-41 -199h-98l41 201q-214 14 -306 113
q-70 79 -71 213q1 65 16 141v0h183v0q-34 -165 31 -239q54 -58 179 -72l111 536l-27 7q-201 55 -276 149q-51 64 -51 159q-1 43 10 91q39 187 187 297q136 100 325 110l24 114h98zM798 1314q-115 -8 -189 -63q-86 -64 -111 -187q-18 -86 31 -140q47 -55 170 -86l98 475z
M648 117q126 6 206 64q90 65 116 189q21 99 -27 160q-46 60 -170 93l-19 5l-106 -512v1z" />
    <glyph glyph-name="percent" unicode="%" horiz-adv-x="1821" 
d="M582 724q-124 0 -202.5 79.5t-78.5 204.5q1 167 129 292t298 125q125 0 203.5 -77.5t78.5 -198.5q0 -170 -128.5 -297.5t-299.5 -127.5v0zM698 1281q-100 0 -175.5 -74t-75.5 -172q0 -73 46 -120t119 -47q101 0 176.5 75t75.5 175q0 72 -46.5 117.5t-119.5 45.5v0z
M447 -34l1110 1474h114l-1110 -1474h-114zM1390 -6q-124 0 -203 79.5t-79 204.5q1 167 128.5 292t297.5 125q125 0 204 -77.5t79 -198.5q0 -170 -128 -297.5t-299 -127.5v0zM1505 551q-100 0 -175.5 -74t-75.5 -172q0 -73 46 -120t119 -47q101 0 176.5 75t75.5 175
q0 72 -46.5 117.5t-119.5 45.5v0z" />
    <glyph glyph-name="ampersand" unicode="&#x26;" horiz-adv-x="1366" 
d="M499 1112q34 166 147 259.5t278 93.5q143 0 215.5 -88t44.5 -227q-21 -102 -144 -215q-93 -86 -214 -151l195 -318l13 -22l8 12q69 114 103 228h163q-42 -143 -132 -288q-29 -46 -58 -86l196 -310h-233l-100 158q-111 -91 -229 -141t-241 -50q-190 0 -289 108.5
t-64 279.5q34 166 145 275q90 88 275 186h-1q-46 74 -68 157t-10 139zM557 125q73 0 168.5 42t170.5 108l8 6l-77 125l-177 289q-108 -57 -183 -124q-107 -96 -128 -198q-23 -109 39 -179q60 -69 179 -69zM682 1143q-8 -40 6.5 -98t45.5 -109l23 -38q80 44 142 97
q92 80 106 149q16 75 -19 122.5t-106 47.5q-76 0 -129 -46q-52 -45 -69 -125z" />
    <glyph glyph-name="quotesingle" unicode="'" horiz-adv-x="391" 
d="M322 947l109 523h149l-108 -523h-150z" />
    <glyph glyph-name="parenleft" unicode="(" horiz-adv-x="682" 
d="M236 540q52 250 184 480.5t366 481.5h123q-201 -258 -317 -489t-166 -473q-50 -243 -29.5 -474t114.5 -489h-123q-130 251 -167 482q-36 231 15 481z" />
    <glyph glyph-name="parenright" unicode=")" horiz-adv-x="682" 
d="M654 539q-52 -250 -183 -480.5t-365 -481.5h-123q200 258 315.5 489t165.5 473q50 243 30 474t-113 489h123q130 -251 166 -482t-16 -481z" />
    <glyph glyph-name="asterisk" unicode="*" horiz-adv-x="797" 
d="M773 1472l-52 -230v0l236 75l15 -115l-239 -67v0l104 -181l-116 -72l-95 188v0l-172 -187l-86 72l180 182v0l-210 66l61 115l207 -75v0l42 229h125z" />
    <glyph glyph-name="plus" unicode="+" horiz-adv-x="1196" 
d="M617 443h-443l31 150h443l92 443h150l-92 -443h443l-31 -150h-443l-91 -443h-150z" />
    <glyph glyph-name="comma" unicode="," horiz-adv-x="569" 
d="M204 110l24 109h107h106l-45 -204q-31 -143 -94 -213q-61 -70 -187 -106v0l21 95v0q63 11 99 70q28 45 52 139v0h-107z" />
    <glyph glyph-name="hyphen" unicode="-" horiz-adv-x="682" 
d="M228 659h502l-38 -183h-502z" />
    <glyph glyph-name="period" unicode="." horiz-adv-x="569" 
d="M223 218h214l-45 -218h-214z" />
    <glyph glyph-name="slash" unicode="/" horiz-adv-x="569" 
d="M926 1514l-833 -1552h-135l833 1552h135z" />
    <glyph glyph-name="zero" unicode="0" 
d="M564 -38q-184 0 -279 107.5t-95 314.5v4q0 64 9 141t27 163q74 359 241 553.5t402 194.5q179 0 276.5 -114t97.5 -322q0 -56 -8 -125.5t-23 -140.5q-81 -388 -242.5 -582t-405.5 -194v0zM596 125q149 0 254.5 150t168.5 451q15 74 23 141t8 122q1 142 -54 215t-161 73
q-149 0 -253.5 -144.5t-163.5 -434.5q-18 -89 -28 -162q-8 -72 -8 -134q0 -141 52.5 -209t161.5 -68v0z" />
    <glyph glyph-name="one" unicode="1" 
d="M550 0l211 1022v0l-337 1l30 143q125 -3 251 74q129 79 194 200h145v0l-298 -1440v0h-98h-98v0z" />
    <glyph glyph-name="two" unicode="2" 
d="M1259 1105q0 -195 -120.5 -325t-453.5 -294q-226 -112 -321 -214q-38 -42 -69 -97v0h781l-36 -175h-987v0q46 223 175 359.5t439 289.5q235 116 319.5 205.5t84.5 221.5q1 93 -64.5 147.5t-175.5 54.5q-137 0 -230 -90t-128 -257v0h-179v0q51 244 205 376.5t388 132.5
q169 0 271 -92t101 -243z" />
    <glyph glyph-name="three" unicode="3" 
d="M1052 1104q0 78 -61.5 125t-162.5 47q-141 0 -225.5 -75.5t-119.5 -233.5v0h-179v0q51 232 191.5 352.5t359.5 120.5q175 0 281.5 -79t106.5 -209q0 -203 -150 -327q-45 -38 -100 -64v0q26 -13 49 -29q118 -82 118 -218q0 -232 -176 -392q-174 -160 -429 -160
q-235 0 -335 118t-66 355v0h185v0q-24 -161 35 -235.5t210 -74.5q159 0 268.5 100.5t109.5 245.5q-1 89 -73 144q-56 43 -144 51q-50 4 -95 4t-60 -3l32 156q19 -5 65.5 -4.5t94.5 5.5q108 13 180 75q90 78 90 205z" />
    <glyph glyph-name="four" unicode="4" 
d="M754 360h-629l18 85l17 85l854 909h74h74l-191 -927v0h203l-32 -152h-203v0l-74 -360h-185l74 360v0zM786 512v0l131 634v0v0l-576 -616l-17 -18v0h462z" />
    <glyph glyph-name="five" unicode="5" 
d="M1167 580q0 -260 -179 -439q-177 -179 -436 -179q-220 0 -329 105q-107 106 -84 301v0h196v0q-14 -119 53.5 -183.5t206.5 -64.5q156 0 263.5 117.5t107.5 288.5q1 108 -70.5 173.5t-189.5 65.5q-75 0 -161 -38.5t-135 -93.5l-155 10l263 768v0h750l-38 -180h-611v0
l-142 -392v0l7 4q142 85 267 85q188 0 302 -96q113 -95 114 -252z" />
    <glyph glyph-name="six" unicode="6" 
d="M908 1440q186 0 280.5 -104t68.5 -282v0h-174v0q5 107 -49 165t-160 58q-164 0 -291 -167q-108 -141 -166 -375v0l16 19q145 167 367 167q168 0 269.5 -95.5t101.5 -252.5q0 -257 -172 -434q-169 -177 -416 -177q-241 0 -340 182q-58 108 -57 264q-1 110 27 241
q77 372 261 582q185 209 434 209zM373 363q-1 -108 65.5 -173t176.5 -65q146 0 256 121.5t109 283.5q0 104 -65 166t-175 62q-151 0 -260 -117q-108 -116 -107 -278z" />
    <glyph glyph-name="seven" unicode="7" 
d="M281 0q110 314 361 672q239 341 493 564v0h-787l37 175h992l-16 -76l-16 -77q-263 -229 -509 -588q-244 -358 -349 -670h-206z" />
    <glyph glyph-name="eight" unicode="8" 
d="M971 764v0q38 -16 69 -39q114 -83 114 -220q0 -228 -173 -386q-171 -157 -421 -157q-184 0 -296 95.5t-112 252.5q0 210 169 355q72 61 156 96v0l-37 25q-103 74 -103 197q0 192 153 324.5t375 132.5q169 0 270.5 -80.5t101.5 -212.5q0 -183 -152 -310q-52 -43 -114 -73z
M740 838q126 0 214 79t88 194q0 75 -58 120.5t-153 45.5q-126 0 -212.5 -77.5t-87.5 -190.5q1 -77 58 -124t151 -47zM708 682q-152 0 -257.5 -99t-105.5 -243q0 -97 67.5 -156t179.5 -59q153 0 259 101t107 248q0 94 -69 151q-68 57 -181 57z" />
    <glyph glyph-name="nine" unicode="9" 
d="M525 -38q-190 0 -286.5 104t-70.5 282v0h180v0q-6 -115 47.5 -177.5t158.5 -62.5q157 0 286 178q101 139 159 355v0q-145 -160 -367 -160q-165 0 -264 95.5t-100 252.5q0 257 169 434t413 177q252 0 343 -168q51 -95 52 -242q0 -116 -32 -263q-80 -386 -259 -596
q-178 -209 -429 -209zM1051 1047q0 107 -62.5 168.5t-172.5 61.5q-144 0 -252 -127t-108 -297q0 -102 60 -155.5t175 -53.5q162 0 261 111t99 292z" />
    <glyph glyph-name="colon" unicode=":" horiz-adv-x="569" 
d="M223 218h214l-45 -218h-214zM397 1061h214l-45 -218h-214z" />
    <glyph glyph-name="semicolon" unicode=";" horiz-adv-x="569" 
d="M202 111l22 106h106h105l-37 -180q-30 -152 -95.5 -229t-187.5 -105v0l20 97v0q67 7 104 65q28 45 49 139h-2h-106zM400 1061h214l-45 -218h-214z" />
    <glyph glyph-name="less" unicode="&#x3c;" horiz-adv-x="1196" 
d="M193 452l14 69l15 69l1094 429l-34 -161l-877 -338v0l737 -339l-33 -158z" />
    <glyph glyph-name="equal" unicode="=" horiz-adv-x="1196" 
d="M160 388h1036l-31 -151h-1036zM245 800h1036l-31 -151h-1036z" />
    <glyph glyph-name="greater" unicode="&#x3e;" horiz-adv-x="1196" 
d="M1196 452l-1094 -429l33 158l877 339v0l-737 338l34 161l916 -429l-15 -69z" />
    <glyph glyph-name="question" unicode="?" 
d="M863 1340q-140 0 -222 -75.5t-128 -245.5v0h-183v0q63 233 207 354.5t358 121.5q190 0 288 -111t62 -285q-21 -100 -93 -191t-215 -198q-89 -67 -136.5 -143.5t-66.5 -183.5h-174q25 142 94 247.5t200 203.5q92 69 139 131t62 134q23 111 -29 176t-163 65zM510 209h202
l-43 -209h-202z" />
    <glyph glyph-name="at" unicode="@" horiz-adv-x="2079" 
d="M1439 419q133 0 268.5 180t135.5 358q0 188 -131.5 301.5t-348.5 113.5q-317 0 -545.5 -232.5t-228.5 -555.5q0 -224 138.5 -360t367.5 -136q160 0 313 64t244 169h139q-124 -163 -319 -262.5t-393 -99.5q-288 0 -464 165t-175 438q0 385 279 662t666 277
q266 0 428 -141.5t161 -374.5q0 -253 -205 -478q-203 -224 -432 -224q-74 0 -91 66q-5 23 -4 49l-4 -3q-138 -112 -263 -112q-104 0 -172 65.5t-71 168.5q-7 237 181.5 447.5t408.5 210.5q162 0 196 -139q5 -16 5 -33v0l70 140v0h144l-294 -592q-35 -70 -36 -101t32 -31z
M1286 1026q-141 0 -267.5 -156t-120.5 -324q1 -55 41.5 -85t111.5 -30q85 0 176.5 75t149.5 193q75 150 50.5 238.5t-141.5 88.5z" />
    <glyph glyph-name="A" unicode="A" horiz-adv-x="1366" 
d="M29 0l873 1470h111h112l213 -1470v0h-106h-107v0l-57 426v0h-587v0l-243 -426v0h-104h-105v0zM957 1251l-374 -650v0h463v0l-89 650v0v0z" />
    <glyph glyph-name="B" unicode="B" horiz-adv-x="1366" 
d="M152 0l304 1470v0h99v0h552q164 0 256.5 -74t92.5 -205q0 -215 -152 -336q-47 -36 -103 -62v0q36 -16 69 -38q120 -81 120 -222q-1 -229 -171 -381t-427 -152h-541v0h-99v0zM619 1297l-93 -451v0h379q162 0 253 79t91 219q0 76 -67 114.5t-197 38.5h-366v0zM492 682
l-106 -509v0h441q159 0 260 94.5t101 243.5q1 79 -74 125t-204 46h-418v0z" />
    <glyph glyph-name="C" unicode="C" horiz-adv-x="1479" 
d="M1516 544v0q-102 -280 -296.5 -432t-451.5 -152q-260 0 -403.5 141t-143.5 397q0 425 251.5 718.5t615.5 293.5q259 0 393 -125q124 -115 124 -322l-1 -34v0h-195v0q7 148 -85.5 228t-271.5 80q-257 0 -442 -240t-185 -574q-1 -190 96 -290t282 -100q177 0 311.5 107
t206.5 304v0h195z" />
    <glyph glyph-name="D" unicode="D" horiz-adv-x="1479" 
d="M166 0l304 1470v0h99v0h473q251 0 386 -125.5t135 -358.5q0 -424 -233 -705t-584 -281h-481v0h-99v0zM400 173v0h381q241 0 408.5 223t167.5 546q0 171 -91 263t-260 92h-373v0z" />
    <glyph glyph-name="E" unicode="E" horiz-adv-x="1366" 
d="M176 0v0l304 1470v0h1071v0l-17 -87l-16 -88v0h-875v0l-94 -451v0h807l-18 -87l-18 -88v0h-807v0l-102 -494v0h886v0l-19 -87l-20 -88v0h-1082z" />
    <glyph glyph-name="F" unicode="F" horiz-adv-x="1251" 
d="M176 0l304 1470v0h1019v0l-17 -87l-16 -88v0h-823v0l-94 -451v0h718l-18 -87l-18 -88v0h-718v0l-138 -669h-99h-100z" />
    <glyph glyph-name="G" unicode="G" horiz-adv-x="1593" 
d="M782 -40q-258 0 -406.5 149.5t-148.5 404.5v4q0 417 257.5 704.5t630.5 287.5q246 0 389.5 -132.5t133.5 -348.5v0h-195v0q7 142 -93 225t-278 83q-263 0 -452.5 -237t-189.5 -566q-1 -196 104 -301.5t299 -105.5q261 0 451 225q32 38 63 108.5t45 134.5l3 16v0h-465
l35 168h648l-161 -778h-130l-10 186v0q-222 -227 -530 -227z" />
    <glyph glyph-name="H" unicode="H" horiz-adv-x="1479" 
d="M158 0l304 1470v0h99h100v0l-125 -604v0h769v0l125 604v0h99h100v0l-304 -1470v0h-99h-100v0l143 691v0h-769v0l-143 -691v0h-99h-100v0z" />
    <glyph glyph-name="I" unicode="I" horiz-adv-x="569" 
d="M186 0l304 1470v0h99h100v0l-304 -1470v0h-99h-100v0z" />
    <glyph glyph-name="J" unicode="J" horiz-adv-x="1024" 
d="M960 1470v0h99h100v0l-222 -1072q-45 -218 -173 -328q-126 -110 -335 -110q-201 0 -287.5 107.5t-45.5 305.5l21 102h184l-21 -102q-24 -116 20 -178.5t150 -62.5q119 0 189.5 65t98.5 201v0z" />
    <glyph glyph-name="K" unicode="K" horiz-adv-x="1366" 
d="M156 0l304 1470v0h99h100v0l-148 -713v0l859 713v0h139h140v0l-730 -587v0l438 -883v0h-128h-128v0l-361 740v0l-279 -225v0l-106 -515v0h-99h-100v0z" />
    <glyph glyph-name="L" unicode="L" 
d="M156 0v0l304 1470v0h99h100v0l-268 -1295v0h743v0l-19 -87l-20 -88v0h-939z" />
    <glyph glyph-name="M" unicode="M" horiz-adv-x="1706" 
d="M345 0v0h-97h-98v0l304 1470v0h142h142v0l169 -1243v0v0l670 1243v0h142h142v0l-304 -1470v0h-96h-97v0l258 1232v0l-669 -1232h-98h-98l-160 1221v0z" />
    <glyph glyph-name="N" unicode="N" horiz-adv-x="1479" 
d="M347 0v0h-95h-96v0l304 1470v0h116h117v0l495 -1195v0v0l248 1195v0h95h96v0l-304 -1470h-113h-113l-502 1199v0v0z" />
    <glyph glyph-name="O" unicode="O" horiz-adv-x="1593" 
d="M790 -40q-267 0 -421 151t-154 412q0 415 259.5 701t635.5 286q269 0 424.5 -146t155.5 -397v-4q0 -421 -262 -712q-260 -291 -638 -291v0zM825 133q270 0 464 232.5t194 555.5q0 193 -109.5 304.5t-299.5 111.5q-268 0 -460.5 -229t-192.5 -547q-1 -199 107.5 -313.5
t296.5 -114.5v0z" />
    <glyph glyph-name="P" unicode="P" horiz-adv-x="1366" 
d="M176 0l304 1470v0h99v0h579q161 0 253.5 -86t93.5 -234q-1 -224 -155.5 -379t-378.5 -155h-469v0l-127 -616v0h-99h-100v0zM538 789v0h394q169 0 268.5 92t99.5 249q0 79 -61.5 123t-173.5 44h-422v0z" />
    <glyph glyph-name="Q" unicode="Q" horiz-adv-x="1593" 
d="M1372 -103l-180 162v0q-181 -99 -402 -99q-267 0 -421 151t-154 412q0 415 259.5 701t635.5 286q269 0 424.5 -146t155.5 -397v-4q0 -421 -262 -712q-44 -49 -91 -90v0l160 -146zM918 305l124 124l165 -148v0q44 38 82 85q194 232 194 555q0 193 -109.5 304.5
t-299.5 111.5q-268 0 -460.5 -229t-192.5 -547q-1 -199 107.5 -313.5t296.5 -114.5q123 1 231 47v0z" />
    <glyph glyph-name="R" unicode="R" horiz-adv-x="1479" 
d="M180 0l304 1470v0h99v0h623q180 0 278.5 -74t99.5 -208q0 -229 -156 -375q-59 -55 -129 -89v0q41 -18 67 -42q77 -73 47 -239l-47 -265q-11 -64 -3 -93t43 -52l-6 -32h-241q-2 40 6 117t21 149l19 109q25 136 -23.5 196t-179.5 60h-493v0l-130 -632v0h-99h-100v0z
M544 801v0h492q161 0 248 88.5t87 252.5q0 76 -56.5 117.5t-158.5 41.5h-508v0z" />
    <glyph glyph-name="S" unicode="S" horiz-adv-x="1366" 
d="M1263 1044v0q29 141 -49 217t-251 76q-164 0 -262.5 -66t-124.5 -193q-19 -90 28 -133q47 -42 206 -79l245 -57q193 -45 263 -143q46 -65 46 -162q0 -51 -12 -110q-41 -200 -218 -317q-174 -117 -433 -117q-292 0 -423 132q-95 95 -94 250q0 59 14 128v0h189v0
q-34 -162 57 -249.5t292 -87.5q181 0 288.5 64.5t132.5 187.5q23 112 -28 163q-50 51 -225 92l-245 57q-178 42 -245 126q-46 57 -46 145q0 39 9 84q44 211 212 334.5t410 123.5q264 0 381 -121q85 -88 85 -227q0 -56 -13 -118v0h-189z" />
    <glyph glyph-name="T" unicode="T" horiz-adv-x="1251" 
d="M532 0l268 1295v0h-497v0l19 87l20 88v0h1186v0l-17 -87l-16 -88v0h-496v0l-268 -1295v0h-99h-100v0z" />
    <glyph glyph-name="U" unicode="U" horiz-adv-x="1479" 
d="M1424 514q-53 -255 -245.5 -404.5t-469.5 -149.5q-260 0 -377 147q-80 101 -80 254q0 71 17 153l198 956v0h99h100v0l-190 -919q-17 -80 -17 -145q0 -106 45 -169q70 -102 263 -102q181 0 302 108t163 308l190 919v0h100h100v0z" />
    <glyph glyph-name="V" unicode="V" horiz-adv-x="1366" 
d="M354 1470v0h110h111v0l165 -1241v0v0l677 1241v0h110h111v0l-841 -1470h-105h-105z" />
    <glyph glyph-name="W" unicode="W" horiz-adv-x="1933" 
d="M420 0l-74 1470v0h107h108v0l19 -1205v0v0l591 1205h109h109l79 -1189v0v0l532 1189v0h107h108v0l-696 -1470h-105h-105l-80 1227v0v0l-599 -1227h-105h-105z" />
    <glyph glyph-name="X" unicode="X" horiz-adv-x="1366" 
d="M39 0l690 755v0l-343 715v0h126h126v0l255 -571v0v0l483 571v0h118h119v0l-639 -727v0l349 -743v0h-123h-124v0l-258 607v0v0l-534 -607v0h-122h-123v0z" />
    <glyph glyph-name="Y" unicode="Y" horiz-adv-x="1366" 
d="M703 598v0l-361 872v0h116h117v0l271 -701v0l574 701v0h115h116v0l-752 -888v0l-120 -582h-99h-100z" />
    <glyph glyph-name="Z" unicode="Z" horiz-adv-x="1251" 
d="M81 165l1140 1130v0h-829v0l19 87l20 88v0h1082l-17 -82l-17 -83l-1141 -1130v0h900v0l-19 -87l-20 -88v0h-1152l16 82z" />
    <glyph glyph-name="bracketleft" unicode="[" horiz-adv-x="569" 
d="M43 -402l389 1882v0h385l-30 -144h-224v0l-329 -1594v0h224l-30 -144h-385v0z" />
    <glyph glyph-name="backslash" unicode="\" horiz-adv-x="569" 
d="M463 -38l-176 1552h135l176 -1552h-135z" />
    <glyph glyph-name="bracketright" unicode="]" horiz-adv-x="569" 
d="M357 -402v0h-385l30 144h224v0l329 1594v0h-224l30 144h385v0z" />
    <glyph glyph-name="asciicircum" unicode="^" horiz-adv-x="961" 
d="M846 1409l258 -867h-160l-207 696v0l-491 -696h-160l616 867h72h72z" />
    <glyph glyph-name="underscore" unicode="_" 
d="M-54 -258l22 106h1139l-22 -106h-1139z" />
    <glyph glyph-name="grave" unicode="`" horiz-adv-x="682" 
d="M552 1215l-204 289h220l122 -289h-138z" />
    <glyph glyph-name="a" unicode="a" 
d="M410 -29q-132 0 -208.5 65.5t-76.5 178.5q1 157 108.5 266t283.5 131l219 27l94 14q48 7 79 39.5t42 88.5l1 3q18 86 -33.5 127t-176.5 41q-112 0 -184.5 -49.5t-111.5 -152.5v0h-164v0q61 184 184.5 269t329.5 85q199 0 283 -80q60 -58 59 -155q1 -40 -9 -85l-125 -601
q-5 -26 8.5 -43t40.5 -17q8 0 24.5 2t34.5 6l-27 -130q-26 -9 -58 -16q-30 -6 -49 -6q-98 0 -134 58q-21 37 -22 101v0q-25 -24 -54 -46q-161 -121 -358 -121zM878 428l24 117v0q-83 -35 -177 -49l-170 -24q-112 -15 -175 -75t-63 -152q0 -59 41.5 -91.5t116.5 -32.5
q143 0 257 77q81 54 116 127q7 15 15 43q9 28 15 60z" />
    <glyph glyph-name="b" unicode="b" 
d="M423 1470v0h90h91v0l-115 -555v0l14 15q161 174 351 174q161 0 253.5 -103.5t92.5 -283.5q0 -313 -178.5 -529.5t-437.5 -216.5q-177 0 -261 147l-6 10v0l-26 -128v0h-172v0zM611 127q174 0 284.5 162t110.5 417q0 113 -59 175t-167 62q-131 0 -233 -121t-145 -328v0v0v0
q-35 -169 21 -268q57 -99 188 -99z" />
    <glyph glyph-name="c" unicode="c" horiz-adv-x="1024" 
d="M1057 375v0q-69 -190 -207.5 -297t-315.5 -107q-179 0 -280.5 99t-101.5 271v4q-1 36 4.5 80t13.5 85q58 279 226 436.5t410 157.5q176 0 257 -101q66 -82 67 -225l-4 -70v0h-174v0q6 116 -44 176t-152 60q-148 0 -247.5 -109t-143.5 -319q-8 -38 -12 -75t-4 -67
q0 -118 58 -182.5t163 -64.5q102 0 184 65.5t124 182.5v0h179z" />
    <glyph glyph-name="d" unicode="d" 
d="M537 -29q-169 0 -267 107.5t-98 294.5q0 314 163.5 522.5t409.5 208.5q193 0 280 -171l10 -21v0l116 558v0h90h91v0l-304 -1470v0h-86h-86v0l29 144v0l-24 -24q-148 -149 -324 -149zM747 941q-172 0 -281 -157t-109 -404q0 -121 58 -187.5t163 -66.5q127 0 228.5 102.5
t135.5 264.5q46 224 -2.5 336t-192.5 112z" />
    <glyph glyph-name="e" unicode="e" 
d="M563 -29q-183 0 -286.5 99.5t-104.5 276.5q0 34 5 77.5t14 85.5q58 279 226 436.5t409 157.5q172 0 266.5 -98.5t94.5 -277.5q1 -134 -32 -254v0h-782v0l-5 -34q-5 -39 -5 -73q0 -120 59.5 -180t178.5 -60q117 0 209.5 59.5t128.5 156.5v0h175v0q-64 -175 -209.5 -273.5
t-341.5 -98.5zM1004 618v0q4 43 4 85q0 117 -61 178t-179 61q-135 0 -242 -115q-78 -84 -121 -209v0h599z" />
    <glyph glyph-name="f" unicode="f" horiz-adv-x="569" 
d="M548 923v0l-191 -923v0h-90h-91v0l191 923v0h-141l30 149h141v0l35 168q27 131 110 192t235 61q45 0 80 -6l-40 -159q0 4 -72 4q-60 0 -93.5 -34t-49.5 -111l-24 -115v0h193l-30 -149h-193z" />
    <glyph glyph-name="g" unicode="g" 
d="M477 -299q155 0 247.5 89.5t129.5 275.5l12 55l-3 -3q-146 -147 -321 -147q-171 0 -265.5 101t-94.5 285q1 321 163 534t406 213q191 0 276 -173l11 -22v0l33 163v0h172l-208 -1006q-52 -258 -205 -388t-403 -130q-168 0 -258.5 87t-82.5 242v0h178v0q-4 -83 52.5 -129.5
t160.5 -46.5zM752 943q-170 0 -278.5 -155.5t-107.5 -400.5q0 -124 57 -192t160 -68q125 0 225 100.5t133 258.5q47 224 -1.5 340.5t-187.5 116.5z" />
    <glyph glyph-name="h" unicode="h" 
d="M133 0l304 1470v0h90h91v0l-114 -552v0v0l37 39q149 147 320 147q186 0 260 -93.5t36 -279.5l-151 -731v0h-90h-91v0l145 703q25 121 -13 179t-142 58q-157 0 -253.5 -103.5t-140.5 -318.5v0l-107 -518v0h-90h-91v0z" />
    <glyph glyph-name="i" unicode="i" horiz-adv-x="455" 
d="M137 0l221 1072v0h90h91v0l-221 -1072v0h-90h-91v0zM444 1470h182l-42 -203h-182z" />
    <glyph glyph-name="j" unicode="j" horiz-adv-x="455" 
d="M355 1072v0h90h91v0l-251 -1217q-32 -157 -108 -222q-74 -64 -223 -64q-42 0 -76 5l33 157h36q81 0 111.5 24t45.5 100v0zM442 1470h182l-42 -203h-182z" />
    <glyph glyph-name="k" unicode="k" horiz-adv-x="1024" 
d="M137 0l304 1470v0h90h91v0l-175 -844v0l552 446v0h117h118v0l-502 -400v0l299 -672v0h-116h-117v0l-223 548v0l-173 -138v0l-84 -410v0h-90h-91v0z" />
    <glyph glyph-name="l" unicode="l" horiz-adv-x="455" 
d="M137 0l304 1470v0h90h91v0l-304 -1470v0h-90h-91v0z" />
    <glyph glyph-name="m" unicode="m" horiz-adv-x="1706" 
d="M133 0l221 1072v0h86h86v0l-34 -166v0v0l48 51q148 147 317 147q145 0 213 -85q31 -40 42 -95v0l48 45q151 135 296 135q165 0 236 -90q49 -61 49 -157q0 -45 -11 -98l-157 -759v0h-90h-91v0l151 732q21 102 -13.5 155t-122.5 53q-121 0 -213 -87.5t-122 -230.5v0
l-128 -622v0h-90h-91v0l155 751q20 96 -10.5 142.5t-113.5 46.5q-146 0 -237.5 -103.5t-135.5 -318.5v0l-107 -518v0h-90h-91v0z" />
    <glyph glyph-name="n" unicode="n" 
d="M133 0l221 1072v0h86h86v0l-34 -167v0v0l49 52q149 147 320 147q186 0 260 -93.5t36 -279.5l-151 -731v0h-90h-91v0l145 703q25 121 -13 179t-142 58q-157 0 -253.5 -103.5t-140.5 -318.5v0l-107 -518v0h-90h-91v0z" />
    <glyph glyph-name="o" unicode="o" 
d="M564 -29q-182 0 -288 110t-106 300q0 304 182.5 513.5t445.5 209.5q185 0 291 -106.5t106 -288.5v-4q1 -308 -182.5 -521t-448.5 -213v0zM596 127q171 0 289 159t118 389q0 130 -62 201.5t-175 71.5q-170 0 -288 -158q-116 -157 -117 -385q0 -132 61.5 -205t173.5 -73v0z
" />
    <glyph glyph-name="p" unicode="p" 
d="M337 1072v0h85h85v0l-35 -172v0l28 30q161 174 351 174q161 0 253.5 -103.5t92.5 -283.5q0 -313 -178.5 -529.5t-437.5 -216.5q-174 0 -261 144v0l-110 -538v0h-90h-91v0zM608 127q174 0 284.5 162t110.5 417q0 113 -59 175t-167 62q-131 0 -233 -121t-145 -328v0v0v0
q-35 -169 21.5 -268t187.5 -99z" />
    <glyph glyph-name="q" unicode="q" 
d="M530 -29q-166 0 -261.5 107t-96.5 293q1 315 162.5 524t404.5 209q191 0 277 -171l10 -21v0l33 160v0h172v0l-308 -1495v0h-90h-91v0l112 545l-3 -2q-146 -149 -321 -149zM742 941q-169 0 -277 -157.5t-108 -404.5q0 -120 57 -186.5t160 -66.5q124 0 223.5 102.5
t133.5 264.5q46 224 -1 336t-188 112z" />
    <glyph glyph-name="r" unicode="r" horiz-adv-x="682" 
d="M158 0l221 1072v0h86h86v0l-41 -198v0v0q46 63 92 109q123 121 264 121q27 0 51 -7l-42 -187h-65q-122 0 -219.5 -82t-123.5 -206v0l-128 -622v0h-90h-91v0z" />
    <glyph glyph-name="s" unicode="s" horiz-adv-x="1024" 
d="M906 772v0q9 86 -43.5 131t-162.5 45q-109 0 -174.5 -40t-81.5 -117q-11 -53 24 -81q33 -27 147 -58l176 -47q146 -39 199 -110q36 -47 36 -118q0 -33 -8 -72q-31 -147 -169 -240.5t-325 -93.5q-231 0 -327 93q-68 67 -68 179q0 46 11 100v0h174v0q-15 -114 42 -165
t200 -51q121 0 193 43t89 125q12 61 -29 93q-42 32 -178 69l-176 47q-125 34 -170 96q-30 42 -30 104q0 31 7 66q30 147 162 240.5t308 93.5q184 0 273 -84q77 -74 77 -205l-2 -43v0h-174z" />
    <glyph glyph-name="t" unicode="t" horiz-adv-x="569" 
d="M514 0q-91 -13 -137 -13q-115 0 -154.5 57.5t-13.5 186.5l144 692v0h-141l30 149h141v0l63 300h181l-63 -300v0h171l-30 -149h-171v0l-144 -692q-9 -46 13.5 -68t78.5 -22h61z" />
    <glyph glyph-name="u" unicode="u" 
d="M538 1072l-146 -708q-24 -116 15.5 -176.5t139.5 -60.5q157 0 253.5 105t141.5 323v0l107 517v0h90h91v0l-221 -1072v0h-86h-86v0l34 168v0v0q-26 -33 -53 -60q-138 -137 -318 -137q-185 0 -259 93q-49 60 -48 161q0 53 13 116l151 731v0h90h91v0z" />
    <glyph glyph-name="v" unicode="v" horiz-adv-x="1024" 
d="M244 1072v0h103h104v0l98 -878v0v0l490 878v0h98h99v0l-634 -1072h-96h-96z" />
    <glyph glyph-name="w" unicode="w" horiz-adv-x="1479" 
d="M335 0l-79 1072v0h97h97v0l28 -855v0v0l398 855h96h96l30 -854v0v0l397 854v0h89h90v0l-528 -1072h-94h-94l-40 840v0v0l-397 -840h-93h-93z" />
    <glyph glyph-name="x" unicode="x" horiz-adv-x="1024" 
d="M23 0l498 552v0l-252 520v0h117h118v0l166 -378v0v0l324 378v0h109h109v0l-469 -522v0l262 -550v0h-114h-114v0l-177 406v0v0l-349 -406v0h-114h-114v0z" />
    <glyph glyph-name="y" unicode="y" horiz-adv-x="1024" 
d="M1230 1072l-619 -1073q-169 -289 -250.5 -363.5t-227.5 -74.5q-61 0 -102 17l34 164q39 -18 109 -18q63 0 101 41.5t142 216.5v0l-169 1090v0h103h103v0l102 -883v0v0l475 883v0h99h100v0z" />
    <glyph glyph-name="z" unicode="z" horiz-adv-x="1024" 
d="M93 147l813 776v0h-589v0l15 74l15 75v0h818l-15 -73l-15 -74l-806 -776v0h663v0l-15 -74l-15 -75v0h-899l15 73z" />
    <glyph glyph-name="braceleft" unicode="{" horiz-adv-x="684" 
d="M526 -402q-195 0 -259 59.5t-33 211.5l73 354q22 108 -12.5 182t-106.5 74l25 120q72 0 137 74t88 182l73 354q31 152 120 211.5t284 59.5l-27 -132q-113 0 -160.5 -37.5t-69.5 -145.5l-74 -354q-29 -141 -130 -217q-47 -35 -106 -54v0q50 -22 83 -56q70 -76 41 -217
l-73 -354q-22 -108 10 -145.5t145 -37.5z" />
    <glyph glyph-name="bar" unicode="|" horiz-adv-x="532" 
d="M84 -512l424 2048h151l-424 -2048h-151z" />
    <glyph glyph-name="braceright" unicode="}" horiz-adv-x="684" 
d="M0 -402l28 132q113 0 160 37.5t69 145.5l73 354q29 141 131 217q47 34 105 56v0q-51 19 -82 54q-71 76 -42 217l74 354q22 108 -9.5 145.5t-144.5 37.5l27 132q195 0 259 -59.5t33 -211.5l-73 -354q-23 -108 12 -182t107 -74l-25 -120q-72 0 -137.5 -74t-87.5 -182
l-73 -354q-31 -152 -121 -212q-88 -59 -283 -59z" />
    <glyph glyph-name="asciitilde" unicode="~" horiz-adv-x="1196" 
d="M227 480q62 92 133 136t156 44q56 0 105 -15t113 -52q62 -35 116 -55.5t84 -20.5q41 0 99 41.5t107 107.5l49 -108q-66 -88 -141.5 -135.5t-147.5 -47.5q-50 0 -103.5 20t-134.5 70q-40 24 -90.5 38.5t-96.5 14.5q-45 0 -105 -44t-94 -102z" />
    <glyph glyph-name="uni00A0" unicode="&#xa0;" horiz-adv-x="569" 
 />
    <glyph glyph-name="exclamdown" unicode="&#xa1;" horiz-adv-x="682" 
d="M542 722l-91 -666l-94 -457h-99h-100l94 457l185 666h53v0h52zM619 865h-198l42 207h198z" />
    <glyph glyph-name="cent" unicode="&#xa2;" 
d="M1018 1291h86l-103 -212q64 -27 110 -74q93 -99 93 -286v-12v0h-168v0q-3 120 -65 182q-21 21 -45 34l-382 -786q36 -9 80 -10q116 0 205 65.5t131 182.5v0h175v0q-69 -190 -212.5 -297t-330.5 -107q-64 0 -120 15l-110 -225h-86l121 253q-51 28 -93 71
q-109 114 -109 298q-1 32 4 74t12 77q52 252 224.5 412.5t391.5 160.5q52 0 98 -8zM475 173l376 774q-25 4 -57 4q-130 0 -246 -125.5t-153 -306.5q-6 -31 -10 -64.5t-4 -60.5q0 -123 66 -195q13 -15 28 -26z" />
    <glyph glyph-name="sterling" unicode="&#xa3;" 
d="M1132 60q-55 -42 -138.5 -71t-151.5 -29q-18 0 -56.5 11t-128.5 42q-61 21 -108 29t-116 8q-56 0 -131 -22q-73 -21 -124 -53l-78 143q125 75 217.5 182t111.5 201q10 47 1 99q-3 24 -13 52h-216l26 129h145q-27 77 -34 130q-8 68 8 146q38 183 196 299.5t367 116.5
q225 0 323 -122t54 -348v0h-183v0q29 148 -30 228.5t-195 80.5q-128 0 -223 -69t-118 -178q-10 -50 -4 -102t33 -141l11 -41h350l-26 -129h-297l1 -6q6 -68 -9 -142q-26 -124 -152 -245q-55 -52 -118 -94l6 1q141 43 245 43q40 0 75 -7t91 -27q69 -24 102.5 -32.5t56.5 -8.5
q39 0 88.5 19t81.5 47z" />
    <glyph glyph-name="currency" unicode="&#xa4;" 
d="M1080 717q31 152 -50.5 257t-231.5 105t-275 -105t-156 -257t50 -256.5t231 -104.5t275.5 104.5t156.5 256.5zM618 210q-176 2 -287 101v0l-133 -111l-75 95l134 113v0q-73 132 -36 309q37 178 166 310v0l-89 114l114 95l89 -113v0q152 102 327 102q176 1 285 -102v0
l135 113l76 -95l-137 -114v0q76 -131 39 -310q-37 -176 -164 -311v0l87 -111l-115 -95l-88 112v0q-153 -102 -328 -102z" />
    <glyph glyph-name="yen" unicode="&#xa5;" 
d="M226 663l23 114h327v0l-268 634v0h103h104v0l228 -607v0l479 607v0h103h103v0l-536 -634v0h331l-23 -114h-394v0l-37 -176v0h394l-23 -114h-394v0l-77 -373v0h-92h-93v0l77 373v0h-395l23 114h395v0l37 176v0h-395z" />
    <glyph glyph-name="brokenbar" unicode="&#xa6;" horiz-adv-x="532" 
d="M122 -342l140 683h151l-140 -683h-151zM333 682l141 683h151l-141 -683h-151z" />
    <glyph glyph-name="section" unicode="&#xa7;" 
d="M884 1510q168 0 243 -97.5t46 -278.5v0h-175v0q16 105 -22.5 162t-126.5 57q-85 0 -150.5 -51t-83.5 -131q-10 -46 48.5 -109t188.5 -144q186 -116 253.5 -210t43.5 -201q-39 -175 -200 -287q-43 -29 -89 -51q16 -15 27 -33q63 -91 41 -191q-32 -144 -163 -236
q-129 -92 -302 -92q-177 0 -256.5 99t-50.5 281v0h192v0q-17 -107 22 -165t128 -58q94 0 163.5 45t85.5 116q14 61 -27.5 110t-196.5 159q-213 152 -275 237t-38 193q38 169 198 277q41 28 87 49l-7 11q-75 98 -54 190q34 154 160 252q126 97 290 97zM961 469
q16 72 -35.5 139.5t-192.5 155.5q-94 59 -158 115q-28 -12 -53 -30q-100 -69 -124 -177q-18 -77 27.5 -135.5t221.5 -182.5q77 -55 133 -104q29 13 55 32q101 73 126 187z" />
    <glyph glyph-name="dieresis" unicode="&#xa8;" horiz-adv-x="682" 
d="M387 1447h186l-43 -209h-186zM719 1447h186l-43 -209h-186z" />
    <glyph glyph-name="copyright" unicode="&#xa9;" horiz-adv-x="1509" 
d="M1056 1506q337 0 515.5 -220.5t109.5 -552.5q-68 -332 -338 -553q-268 -220 -606 -220t-516 220.5t-110 552.5q69 332 338.5 552.5t606.5 220.5v0zM1524 733q58 277 -83 461t-411 184t-487 -184t-275 -461q-57 -277 84 -461t411 -184t487 184t274 461v0zM1270 594v0
q-63 -159 -178 -245.5t-263 -86.5q-171 0 -269.5 96t-98.5 263q0 246 163.5 415.5t399.5 169.5q147 0 227 -81.5t80 -231.5v0h-137v0q0 85 -51.5 131.5t-146.5 46.5q-154 0 -265 -125.5t-111 -299.5q0 -116 63.5 -182.5t173.5 -66.5q95 0 166.5 51t109.5 146v0h137z" />
    <glyph glyph-name="ordfeminine" unicode="&#xaa;" horiz-adv-x="758" 
d="M452 831q-89 0 -139.5 37t-51.5 102q1 107 73.5 173t207.5 80l100 11l58 7q39 4 62 25.5t28 57.5q4 37 -28 58t-100 21q-75 0 -121.5 -26.5t-68.5 -82.5v0h-114v0q38 112 117 164t213 52q131 0 187 -48q41 -36 42 -98l-5 -45l-72 -345q-5 -25 2.5 -37t27.5 -12
q-13 0 38 7l-20 -90q-16 -4 -35.5 -7t-33.5 -3q-69 0 -90 35q-12 21 -11 64v0l-31 -25q-105 -75 -235 -75zM748 1123l8 39v0q-55 -17 -123 -25l-68 -8q-89 -11 -128.5 -40t-39.5 -85q1 -33 26.5 -50.5t74.5 -17.5q89 0 159 44q35 24 57 51q9 12 19 37q9 25 15 55zM225 723
h611l-20 -98h-611z" />
    <glyph glyph-name="guillemotleft" unicode="&#xab;" 
d="M674 734l-250 -167v0l180 -168l-36 -176l-269 250l20 94l19 94l372 249zM1096 734l-250 -167v0l180 -168l-36 -176l-269 250l20 94l19 94l372 249z" />
    <glyph glyph-name="logicalnot" unicode="&#xac;" horiz-adv-x="1196" 
d="M1102 652h-885l30 149h1036l-119 -576h-151z" />
    <glyph glyph-name="uni00AD" unicode="&#xad;" horiz-adv-x="682" 
d="M228 659h502l-38 -183h-502z" />
    <glyph glyph-name="registered" unicode="&#xae;" horiz-adv-x="1509" 
d="M1056 1506q337 0 515.5 -220.5t109.5 -552.5q-68 -332 -338 -553q-268 -220 -606 -220t-516 220.5t-110 552.5q69 332 338.5 552.5t606.5 220.5v0zM1524 733q58 277 -83 461t-411 184t-487 -184t-275 -461q-57 -277 84 -461t411 -184t487 184t274 461v0zM502 288l186 896
v0h68v0h294q122 0 188.5 -50.5t66.5 -141.5v-3q0 -136 -102 -223q-79 -66 -196 -83v0l175 -395v0h-76h-77v0l-155 391v0l-154 -1v0l-81 -390v0h-68h-69v0zM744 792v0h176q120 0 182 46t62 135q0 47 -45 72.5t-127 25.5h-191v0z" />
    <glyph glyph-name="macron" unicode="&#xaf;" horiz-adv-x="682" 
d="M293 1285l24 117h641l-24 -117h-641z" />
    <glyph glyph-name="degree" unicode="&#xb0;" horiz-adv-x="819" 
d="M704 1437q125 0 193 -86.5t42 -212.5t-130 -212.5t-229 -86.5q-124 0 -192 86.5t-42 212.5t130 212.5t228 86.5zM843 1138q18 88 -28 148.5t-130 60.5t-154.5 -60.5t-88.5 -148.5t27.5 -148.5t129.5 -60.5t155 60.5t89 148.5z" />
    <glyph glyph-name="plusminus" unicode="&#xb1;" horiz-adv-x="1196" 
d="M638 557h-443l31 150h443l68 329h150l-68 -329h443l-31 -150h-443l-68 -329h-150zM110 147h1036l-30 -151h-1036z" />
    <glyph glyph-name="uni00B2" unicode="&#xb2;" horiz-adv-x="682" 
d="M915 1228v-6q0 -109 -76 -185.5t-290 -175.5q-146 -67 -207 -128q-15 -15 -28 -34v0h496l-26 -126h-653v0q29 140 112.5 224t285.5 177q143 66 194 117t50 128q0 52 -38 78t-114 26q-85 0 -141.5 -51t-75.5 -146v0h-126v0q31 151 131.5 232.5t255.5 81.5q113 0 182 -58
q68 -58 68 -154z" />
    <glyph glyph-name="uni00B3" unicode="&#xb3;" horiz-adv-x="682" 
d="M736 1221q0 47 -37.5 74t-102.5 27q-72 0 -124.5 -45t-69.5 -121v0h-126v0q31 139 121.5 211.5t234.5 72.5q117 0 186.5 -49.5t69.5 -132.5q0 -117 -96 -188q-30 -23 -68 -38v0l47 -21q70 -42 70 -128q1 -139 -112.5 -234.5t-277.5 -95.5q-154 0 -221 71t-46 213v0h139v0
q-13 -87 23 -127t127 -40q99 0 160 53t61 140q1 51 -38 74t-123 23h-70l23 108h52q90 0 144 42t54 111z" />
    <glyph glyph-name="acute" unicode="&#xb4;" horiz-adv-x="682" 
d="M508 1215l247 289h218l-328 -289h-137z" />
    <glyph glyph-name="mu" unicode="&#xb5;" 
d="M538 1072l-143 -693q-25 -123 13 -189.5t135 -66.5q145 0 244 98.5t137 281.5v0l117 569h181l-221 -1072h-172l34 165v0v0q-23 -34 -51 -61q-130 -133 -336 -133q-96 0 -139 53l-12 15v0l-95 -467h-181l153 750l155 750h181z" />
    <glyph glyph-name="paragraph" unicode="&#xb6;" horiz-adv-x="1100" 
d="M630 701v0q-171 1 -271.5 81.5t-100.5 220.5q1 205 149.5 336t381.5 131h542v0l-376 -1819h-148l350 1695v0h-248v0l-350 -1695h-146z" />
    <glyph glyph-name="periodcentered" unicode="&#xb7;" horiz-adv-x="569" 
d="M355 834h214l-45 -220h-214z" />
    <glyph glyph-name="cedilla" unicode="&#xb8;" horiz-adv-x="682" 
d="M390 2l-120 -128v0l63 8q80 0 117 -41t22 -113q-17 -83 -95.5 -136t-184.5 -53q-36 0 -89 13t-99 33l51 83q30 -14 65.5 -22.5t61.5 -8.5q59 0 91.5 21t41.5 65q6 30 -19 54.5t-62 24.5q-11 0 -33.5 -4.5t-47.5 -11.5l-25 38l167 178h95z" />
    <glyph glyph-name="uni00B9" unicode="&#xb9;" horiz-adv-x="682" 
d="M432 573l124 598v0l-216 6l21 98q79 -5 161 42q83 47 128 123h107v0l-180 -867v0h-72h-73v0z" />
    <glyph glyph-name="ordmasculine" unicode="&#xba;" horiz-adv-x="748" 
d="M554 831q-127 0 -195.5 62t-68.5 178q0 194 113 317t291 123q128 0 196.5 -60.5t68.5 -173.5q-1 -196 -115 -321q-112 -125 -290 -125v0zM575 934q103 0 174.5 92.5t71.5 226.5q0 76 -38 115.5t-110 39.5q-103 0 -174 -91.5t-71 -224.5q0 -77 37.5 -117.5t109.5 -40.5v0z
M225 723h612l-20 -98h-612z" />
    <glyph glyph-name="guillemotright" unicode="&#xbb;" 
d="M282 399l250 167v0l-180 168l36 176l268 -250l-19 -94l-20 -94l-371 -249zM704 399l250 167v0l-180 168l36 176l268 -250l-19 -94l-20 -94l-371 -249z" />
    <glyph glyph-name="onequarter" unicode="&#xbc;" horiz-adv-x="1708" 
d="M1657 1441l-1233 -1485h-117l1233 1485h117zM494 573l124 598v0l-216 6l21 98q79 -5 161 42q83 47 128 123h107v0l-180 -867v0h-72h-73v0zM1326 184h-420l13 63l13 63l561 528h61h62l-113 -545v0h101l-23 -109h-101v0l-38 -184h-154l38 184v0zM1349 293v0l67 325v0v0
l-327 -308l-18 -17v0h278z" />
    <glyph glyph-name="onehalf" unicode="&#xbd;" horiz-adv-x="1708" 
d="M1583 1441l-1233 -1485h-117l1233 1485h117zM433 573l124 598v0l-216 6l21 98q79 -5 161 42q83 47 128 123h107v0l-180 -867v0h-72h-73v0zM1718 655v-6q0 -109 -76 -185.5t-290 -175.5q-146 -67 -207 -128q-15 -15 -28 -34v0h496l-26 -126h-653v0q29 140 112.5 224
t285.5 177q143 66 194 117t50 128q0 52 -38 78t-114 26q-85 0 -141.5 -51t-75.5 -146v0h-126v0q31 151 131.5 232.5t255.5 81.5q113 0 182 -58q68 -58 68 -154z" />
    <glyph glyph-name="threequarters" unicode="&#xbe;" horiz-adv-x="1708" 
d="M1765 1441l-1233 -1485h-117l1233 1485h117zM818 1221q0 47 -37.5 74t-102.5 27q-72 0 -124.5 -45t-69.5 -121v0h-126v0q31 139 121.5 211.5t234.5 72.5q117 0 186.5 -49.5t69.5 -132.5q0 -117 -96 -188q-30 -23 -68 -38v0l47 -21q70 -42 70 -128q1 -139 -112.5 -234.5
t-277.5 -95.5q-154 0 -221 71t-46 213v0h139v0q-13 -87 23 -127t127 -40q99 0 160 53t61 140q1 51 -38 74t-123 23h-70l23 108h52q90 0 144 42t54 111zM1421 184h-420l13 63l13 63l561 528h61h62l-113 -545v0h101l-23 -109h-101v0l-38 -184h-154l38 184v0zM1444 293v0
l67 325v0v0l-327 -308l-18 -17v0h278z" />
    <glyph glyph-name="questiondown" unicode="&#xbf;" horiz-adv-x="1251" 
d="M554 -258q146 0 229.5 75.5t126.5 245.5v0h175v0q-59 -233 -202.5 -354.5t-360.5 -121.5q-189 0 -286.5 111t-61.5 285q19 97 91 188t216 201q89 68 135.5 144t65.5 183h174q-25 -143 -93.5 -248t-199.5 -203q-91 -68 -138 -130t-61 -135q-23 -111 29 -176
q51 -65 161 -65zM906 873h-202l44 209h202z" />
    <glyph glyph-name="Agrave" unicode="&#xc0;" horiz-adv-x="1366" 
d="M29 0l873 1470h111h112l213 -1470v0h-106h-107v0l-57 426v0h-587v0l-243 -426v0h-104h-105v0zM957 1251l-374 -650v0h463v0l-89 650v0v0zM975 1613l-204 289h220l122 -289h-138z" />
    <glyph glyph-name="Aacute" unicode="&#xc1;" horiz-adv-x="1366" 
d="M29 0l873 1470h111h112l213 -1470v0h-106h-107v0l-57 426v0h-587v0l-243 -426v0h-104h-105v0zM957 1251l-374 -650v0h463v0l-89 650v0v0zM931 1613l246 289h218l-327 -289h-137z" />
    <glyph glyph-name="Acircumflex" unicode="&#xc2;" horiz-adv-x="1366" 
d="M29 0l873 1470h111h112l213 -1470v0h-106h-107v0l-57 426v0h-587v0l-243 -426v0h-104h-105v0zM957 1251l-374 -650v0h463v0l-89 650v0v0zM1174 1903l146 -290h-163l-97 190v0l-174 -190h-164l266 290h93h93z" />
    <glyph glyph-name="Atilde" unicode="&#xc3;" horiz-adv-x="1366" 
d="M29 0l873 1470h111h112l213 -1470v0h-106h-107v0l-57 426v0h-587v0l-243 -426v0h-104h-105v0zM957 1251l-374 -650v0h463v0l-89 650v0v0zM672 1635q26 97 97 156t161 59q26 0 70 -11.5t81 -28.5q30 -14 64.5 -23.5t53.5 -9.5q40 0 71.5 24t45.5 65h102
q-24 -90 -96.5 -152.5t-153.5 -62.5q-25 0 -71 12t-88 29q-32 13 -67.5 22.5t-53.5 9.5q-39 0 -73 -26t-45 -63h-98z" />
    <glyph glyph-name="Adieresis" unicode="&#xc4;" horiz-adv-x="1366" 
d="M29 0l873 1470h111h112l213 -1470v0h-106h-107v0l-57 426v0h-587v0l-243 -426v0h-104h-105v0zM957 1251l-374 -650v0h463v0l-89 650v0v0zM809 1845h186l-44 -209h-186zM1141 1845h186l-44 -209h-186z" />
    <glyph glyph-name="Aring" unicode="&#xc5;" horiz-adv-x="1366" 
d="M29 0l873 1470h111h112l213 -1470v0h-106h-107v0l-57 426v0h-587v0l-243 -426v0h-104h-105v0zM957 1251l-374 -650v0h463v0l-89 650v0v0zM1010 1531q-79 0 -123 54.5t-28 133.5q17 79 82.5 133.5t144.5 54.5t122.5 -54.5t26.5 -133.5q-16 -79 -81 -133.5t-144 -54.5v0z
M1026 1613q45 0 81.5 30.5t45.5 75.5q10 45 -14.5 75.5t-69.5 30.5t-81.5 -30.5t-46.5 -75.5q-9 -45 15.5 -75.5t69.5 -30.5v0z" />
    <glyph glyph-name="AE" unicode="&#xc6;" horiz-adv-x="2048" 
d="M942 0v0l88 426v0h-533v0l-255 -426v0h-113h-113v0l926 1470v0h503v0h804v0l-17 -87l-16 -88v0h-807v0l-94 -451v0h733l-18 -87l-18 -88v0h-733v0l-102 -494v0h818v0l-19 -87l-20 -88v0h-815v0h-199zM1024 1295l-419 -694v0h461v0l144 694h-186v0z" />
    <glyph glyph-name="Ccedilla" unicode="&#xc7;" horiz-adv-x="1479" 
d="M1516 544v0q-102 -280 -296.5 -432t-451.5 -152q-260 0 -403.5 141t-143.5 397q0 425 251.5 718.5t615.5 293.5q259 0 393 -125q124 -115 124 -322l-1 -34v0h-195v0q7 148 -85.5 228t-271.5 80q-257 0 -442 -240t-185 -574q-1 -190 96 -290t282 -100q177 0 311.5 107
t206.5 304v0h195zM793 2l-121 -129v0l64 9q80 0 117 -41t22 -113q-17 -83 -95.5 -136t-184.5 -53q-37 0 -89.5 13t-98.5 33l51 83q30 -14 65.5 -22.5t61.5 -8.5q59 0 91.5 21t41.5 65q6 30 -19 54.5t-62 24.5q-11 0 -33.5 -4.5t-47.5 -11.5l-25 38l167 178h95z" />
    <glyph glyph-name="Egrave" unicode="&#xc8;" horiz-adv-x="1366" 
d="M176 0v0l304 1470v0h1071v0l-17 -87l-16 -88v0h-875v0l-94 -451v0h807l-18 -87l-18 -88v0h-807v0l-102 -494v0h886v0l-19 -87l-20 -88v0h-1082zM963 1613l-204 289h220l122 -289h-138z" />
    <glyph glyph-name="Eacute" unicode="&#xc9;" horiz-adv-x="1366" 
d="M176 0v0l304 1470v0h1071v0l-17 -87l-16 -88v0h-875v0l-94 -451v0h807l-18 -87l-18 -88v0h-807v0l-102 -494v0h886v0l-19 -87l-20 -88v0h-1082zM919 1613l246 289h218l-327 -289h-137z" />
    <glyph glyph-name="Ecircumflex" unicode="&#xca;" horiz-adv-x="1366" 
d="M176 0v0l304 1470v0h1071v0l-17 -87l-16 -88v0h-875v0l-94 -451v0h807l-18 -87l-18 -88v0h-807v0l-102 -494v0h886v0l-19 -87l-20 -88v0h-1082zM1162 1903l146 -290h-163l-97 190v0l-174 -190h-164l266 290h93h93z" />
    <glyph glyph-name="Edieresis" unicode="&#xcb;" horiz-adv-x="1366" 
d="M176 0v0l304 1470v0h1071v0l-17 -87l-16 -88v0h-875v0l-94 -451v0h807l-18 -87l-18 -88v0h-807v0l-102 -494v0h886v0l-19 -87l-20 -88v0h-1082zM797 1845h186l-44 -209h-186zM1129 1845h186l-44 -209h-186z" />
    <glyph glyph-name="Igrave" unicode="&#xcc;" horiz-adv-x="569" 
d="M186 0l304 1470v0h99h100v0l-304 -1470v0h-99h-100v0zM590 1613l-204 289h220l122 -289h-138z" />
    <glyph glyph-name="Iacute" unicode="&#xcd;" horiz-adv-x="569" 
d="M186 0l304 1470v0h99h100v0l-304 -1470v0h-99h-100v0zM546 1613l246 289h218l-327 -289h-137z" />
    <glyph glyph-name="Icircumflex" unicode="&#xce;" horiz-adv-x="569" 
d="M186 0l304 1470v0h99h100v0l-304 -1470v0h-99h-100v0zM789 1903l146 -290h-163l-97 190v0l-174 -190h-164l266 290h93h93z" />
    <glyph glyph-name="Idieresis" unicode="&#xcf;" horiz-adv-x="569" 
d="M186 0l304 1470v0h99h100v0l-304 -1470v0h-99h-100v0zM424 1845h186l-44 -209h-186zM756 1845h186l-44 -209h-186z" />
    <glyph glyph-name="Eth" unicode="&#xd0;" horiz-adv-x="1479" 
d="M171 0v0l138 667v0h-168l36 178h168v0l130 625v0h99v0h471q250 0 384 -125.5t134 -358.5q0 -424 -232 -705t-582 -281h-479v0h-99zM638 1297v0l-94 -452v0h395l-36 -178h-395v0l-103 -494v0h379q240 0 406 223.5t166 546.5q0 171 -90 262.5t-257 91.5h-371z" />
    <glyph glyph-name="Ntilde" unicode="&#xd1;" horiz-adv-x="1479" 
d="M347 0v0h-95h-96v0l304 1470v0h116h117v0l495 -1195v0v0l248 1195v0h95h96v0l-304 -1470h-113h-113l-502 1199v0v0zM741 1635q26 97 97 156t161 59q26 0 70 -11.5t81 -28.5q30 -14 64.5 -23.5t53.5 -9.5q40 0 71.5 24t45.5 65h102q-24 -90 -96.5 -152.5t-153.5 -62.5
q-25 0 -71 12t-88 29q-32 13 -67.5 22.5t-53.5 9.5q-39 0 -73 -26t-45 -63h-98z" />
    <glyph glyph-name="Ograve" unicode="&#xd2;" horiz-adv-x="1593" 
d="M790 -40q-267 0 -421 151t-154 412q0 415 259.5 701t635.5 286q269 0 424.5 -146t155.5 -397v-4q0 -421 -262 -712q-260 -291 -638 -291v0zM825 133q270 0 464 232.5t194 555.5q0 193 -109.5 304.5t-299.5 111.5q-268 0 -460.5 -229t-192.5 -547q-1 -199 107.5 -313.5
t296.5 -114.5v0zM1089 1613l-204 289h220l122 -289h-138z" />
    <glyph glyph-name="Oacute" unicode="&#xd3;" horiz-adv-x="1593" 
d="M790 -40q-267 0 -421 151t-154 412q0 415 259.5 701t635.5 286q269 0 424.5 -146t155.5 -397v-4q0 -421 -262 -712q-260 -291 -638 -291v0zM825 133q270 0 464 232.5t194 555.5q0 193 -109.5 304.5t-299.5 111.5q-268 0 -460.5 -229t-192.5 -547q-1 -199 107.5 -313.5
t296.5 -114.5v0zM1045 1613l246 289h218l-327 -289h-137z" />
    <glyph glyph-name="Ocircumflex" unicode="&#xd4;" horiz-adv-x="1593" 
d="M790 -40q-267 0 -421 151t-154 412q0 415 259.5 701t635.5 286q269 0 424.5 -146t155.5 -397v-4q0 -421 -262 -712q-260 -291 -638 -291v0zM825 133q270 0 464 232.5t194 555.5q0 193 -109.5 304.5t-299.5 111.5q-268 0 -460.5 -229t-192.5 -547q-1 -199 107.5 -313.5
t296.5 -114.5v0zM1288 1903l146 -290h-163l-97 190v0l-174 -190h-164l266 290h93h93z" />
    <glyph glyph-name="Otilde" unicode="&#xd5;" horiz-adv-x="1593" 
d="M790 -40q-267 0 -421 151t-154 412q0 415 259.5 701t635.5 286q269 0 424.5 -146t155.5 -397v-4q0 -421 -262 -712q-260 -291 -638 -291v0zM825 133q270 0 464 232.5t194 555.5q0 193 -109.5 304.5t-299.5 111.5q-268 0 -460.5 -229t-192.5 -547q-1 -199 107.5 -313.5
t296.5 -114.5v0zM786 1635q26 97 97 156t161 59q26 0 70 -11.5t81 -28.5q30 -14 64.5 -23.5t53.5 -9.5q40 0 71.5 24t45.5 65h102q-24 -90 -96.5 -152.5t-153.5 -62.5q-25 0 -71 12t-88 29q-32 13 -67.5 22.5t-53.5 9.5q-39 0 -73 -26t-45 -63h-98z" />
    <glyph glyph-name="Odieresis" unicode="&#xd6;" horiz-adv-x="1593" 
d="M790 -40q-267 0 -421 151t-154 412q0 415 259.5 701t635.5 286q269 0 424.5 -146t155.5 -397v-4q0 -421 -262 -712q-260 -291 -638 -291v0zM825 133q270 0 464 232.5t194 555.5q0 193 -109.5 304.5t-299.5 111.5q-268 0 -460.5 -229t-192.5 -547q-1 -199 107.5 -313.5
t296.5 -114.5v0zM923 1845h186l-44 -209h-186zM1255 1845h186l-44 -209h-186z" />
    <glyph glyph-name="multiply" unicode="&#xd7;" horiz-adv-x="1196" 
d="M682 412l-496 -411l-84 106l496 411l-326 411l128 106l326 -411l496 411l84 -106l-496 -411l326 -411l-128 -106z" />
    <glyph glyph-name="Oslash" unicode="&#xd8;" horiz-adv-x="1593" 
d="M939 671l-438 -388l31 -36q108 -114 296 -114v0q270 0 464 232.5t194 555.5q0 114 -38 200zM793 -40q-267 0 -422 151l-29 31l-201 -179l-53 58l208 185q-78 130 -78 317q0 415 259.5 701t635.5 286q269 0 425 -147l32 -30l196 174l52 -58l-204 -180q80 -124 79 -302v-4
q0 -421 -262 -712q-260 -291 -638 -291v0zM1077 1337q-268 0 -460.5 -229t-192.5 -547q0 -119 37 -209l505 447l441 390q-14 21 -31 37q-109 111 -299 111z" />
    <glyph glyph-name="Ugrave" unicode="&#xd9;" horiz-adv-x="1479" 
d="M1424 514q-53 -255 -245.5 -404.5t-469.5 -149.5q-260 0 -377 147q-80 101 -80 254q0 71 17 153l198 956v0h99h100v0l-190 -919q-17 -80 -17 -145q0 -106 45 -169q70 -102 263 -102q181 0 302 108t163 308l190 919v0h100h100v0zM1044 1613l-204 289h220l122 -289h-138z
" />
    <glyph glyph-name="Uacute" unicode="&#xda;" horiz-adv-x="1479" 
d="M1424 514q-53 -255 -245.5 -404.5t-469.5 -149.5q-260 0 -377 147q-80 101 -80 254q0 71 17 153l198 956v0h99h100v0l-190 -919q-17 -80 -17 -145q0 -106 45 -169q70 -102 263 -102q181 0 302 108t163 308l190 919v0h100h100v0zM1000 1613l246 289h218l-327 -289h-137z
" />
    <glyph glyph-name="Ucircumflex" unicode="&#xdb;" horiz-adv-x="1479" 
d="M1424 514q-53 -255 -245.5 -404.5t-469.5 -149.5q-260 0 -377 147q-80 101 -80 254q0 71 17 153l198 956v0h99h100v0l-190 -919q-17 -80 -17 -145q0 -106 45 -169q70 -102 263 -102q181 0 302 108t163 308l190 919v0h100h100v0zM1243 1903l146 -290h-163l-97 190v0
l-174 -190h-164l266 290h93h93z" />
    <glyph glyph-name="Udieresis" unicode="&#xdc;" horiz-adv-x="1479" 
d="M1424 514q-53 -255 -245.5 -404.5t-469.5 -149.5q-260 0 -377 147q-80 101 -80 254q0 71 17 153l198 956v0h99h100v0l-190 -919q-17 -80 -17 -145q0 -106 45 -169q70 -102 263 -102q181 0 302 108t163 308l190 919v0h100h100v0zM878 1845h186l-44 -209h-186zM1210 1845
h186l-44 -209h-186z" />
    <glyph glyph-name="Yacute" unicode="&#xdd;" horiz-adv-x="1366" 
d="M703 598v0l-361 872v0h116h117v0l271 -701v0l574 701v0h115h116v0l-752 -888v0l-120 -582h-99h-100zM953 1613l246 289h218l-327 -289h-137z" />
    <glyph glyph-name="Thorn" unicode="&#xde;" horiz-adv-x="1366" 
d="M176 0l304 1470v0h99h100v0l-51 -244v0l477 1q159 0 251 -81.5t92 -222.5q-1 -230 -153.5 -389t-373.5 -159h-469v0l-77 -375v0h-99h-100v0zM1243 888q1 83 -58.5 127.5t-170.5 44.5h-420v0l-106 -514v0h414q150 0 245 96q96 96 96 246z" />
    <glyph glyph-name="germandbls" unicode="&#xdf;" horiz-adv-x="1251" 
d="M530 1028l-212 -1028v0h-90h-91v0l212 1028l14 64q39 188 189.5 294.5t377.5 106.5q220 0 333 -102t79 -269q-36 -173 -222 -292l-13 -9q41 -17 72 -41q133 -100 92 -300q-50 -239 -215.5 -374t-409.5 -135q-23 0 -49 3.5t-55 9.5v0l30 151v0q25 -4 49 -6t47 -2
q161 0 269 82t138 227q32 157 -54 227q-52 43 -158 58q-41 5 -87 4t-72 -7l34 163q27 -7 70.5 -7t80.5 6q80 15 139 48q107 60 131 176q21 103 -49.5 165.5t-207.5 62.5q-164 0 -252 -72q-86 -71 -120 -232z" />
    <glyph glyph-name="agrave" unicode="&#xe0;" 
d="M410 -29q-132 0 -208.5 65.5t-76.5 178.5q1 157 108.5 266t283.5 131l219 27l94 14q48 7 79 39.5t42 88.5l1 3q18 86 -33.5 127t-176.5 41q-112 0 -184.5 -49.5t-111.5 -152.5v0h-164v0q61 184 184.5 269t329.5 85q199 0 283 -80q60 -58 59 -155q1 -40 -9 -85l-125 -601
q-5 -26 8.5 -43t40.5 -17q8 0 24.5 2t34.5 6l-27 -130q-26 -9 -58 -16q-30 -6 -49 -6q-98 0 -134 58q-21 37 -22 101v0q-25 -24 -54 -46q-161 -121 -358 -121zM878 428l24 117v0q-83 -35 -177 -49l-170 -24q-112 -15 -175 -75t-63 -152q0 -59 41.5 -91.5t116.5 -32.5
q143 0 257 77q81 54 116 127q7 15 15 43q9 28 15 60zM770 1215l-204 289h220l122 -289h-138z" />
    <glyph glyph-name="aacute" unicode="&#xe1;" 
d="M410 -29q-132 0 -208.5 65.5t-76.5 178.5q1 157 108.5 266t283.5 131l219 27l94 14q48 7 79 39.5t42 88.5l1 3q18 86 -33.5 127t-176.5 41q-112 0 -184.5 -49.5t-111.5 -152.5v0h-164v0q61 184 184.5 269t329.5 85q199 0 283 -80q60 -58 59 -155q1 -40 -9 -85l-125 -601
q-5 -26 8.5 -43t40.5 -17q8 0 24.5 2t34.5 6l-27 -130q-26 -9 -58 -16q-30 -6 -49 -6q-98 0 -134 58q-21 37 -22 101v0q-25 -24 -54 -46q-161 -121 -358 -121zM878 428l24 117v0q-83 -35 -177 -49l-170 -24q-112 -15 -175 -75t-63 -152q0 -59 41.5 -91.5t116.5 -32.5
q143 0 257 77q81 54 116 127q7 15 15 43q9 28 15 60zM710 1215l246 289h218l-327 -289h-137z" />
    <glyph glyph-name="acircumflex" unicode="&#xe2;" 
d="M410 -29q-132 0 -208.5 65.5t-76.5 178.5q1 157 108.5 266t283.5 131l219 27l94 14q48 7 79 39.5t42 88.5l1 3q18 86 -33.5 127t-176.5 41q-112 0 -184.5 -49.5t-111.5 -152.5v0h-164v0q61 184 184.5 269t329.5 85q199 0 283 -80q60 -58 59 -155q1 -40 -9 -85l-125 -601
q-5 -26 8.5 -43t40.5 -17q8 0 24.5 2t34.5 6l-27 -130q-26 -9 -58 -16q-30 -6 -49 -6q-98 0 -134 58q-21 37 -22 101v0q-25 -24 -54 -46q-161 -121 -358 -121zM878 428l24 117v0q-83 -35 -177 -49l-170 -24q-112 -15 -175 -75t-63 -152q0 -59 41.5 -91.5t116.5 -32.5
q143 0 257 77q81 54 116 127q7 15 15 43q9 28 15 60zM952 1505l146 -290h-163l-97 190v0l-174 -190h-164l266 290h93h93z" />
    <glyph glyph-name="atilde" unicode="&#xe3;" 
d="M410 -29q-132 0 -208.5 65.5t-76.5 178.5q1 157 108.5 266t283.5 131l219 27l94 14q48 7 79 39.5t42 88.5l1 3q18 86 -33.5 127t-176.5 41q-112 0 -184.5 -49.5t-111.5 -152.5v0h-164v0q61 184 184.5 269t329.5 85q199 0 283 -80q60 -58 59 -155q1 -40 -9 -85l-125 -601
q-5 -26 8.5 -43t40.5 -17q8 0 24.5 2t34.5 6l-27 -130q-26 -9 -58 -16q-30 -6 -49 -6q-98 0 -134 58q-21 37 -22 101v0q-25 -24 -54 -46q-161 -121 -358 -121zM878 428l24 117v0q-83 -35 -177 -49l-170 -24q-112 -15 -175 -75t-63 -152q0 -59 41.5 -91.5t116.5 -32.5
q143 0 257 77q81 54 116 127q7 15 15 43q9 28 15 60zM454 1237q26 97 97 156t161 59q27 0 71 -11.5t80 -28.5q31 -14 65 -23.5t53 -9.5q40 0 71.5 24t45.5 65h102q-24 -90 -96.5 -152.5t-153.5 -62.5q-25 0 -71 12t-88 29q-32 13 -67.5 22.5t-53.5 9.5q-39 0 -73 -26
t-45 -63h-98z" />
    <glyph glyph-name="adieresis" unicode="&#xe4;" 
d="M410 -29q-132 0 -208.5 65.5t-76.5 178.5q1 157 108.5 266t283.5 131l219 27l94 14q48 7 79 39.5t42 88.5l1 3q18 86 -33.5 127t-176.5 41q-112 0 -184.5 -49.5t-111.5 -152.5v0h-164v0q61 184 184.5 269t329.5 85q199 0 283 -80q60 -58 59 -155q1 -40 -9 -85l-125 -601
q-5 -26 8.5 -43t40.5 -17q8 0 24.5 2t34.5 6l-27 -130q-26 -9 -58 -16q-30 -6 -49 -6q-98 0 -134 58q-21 37 -22 101v0q-25 -24 -54 -46q-161 -121 -358 -121zM878 428l24 117v0q-83 -35 -177 -49l-170 -24q-112 -15 -175 -75t-63 -152q0 -59 41.5 -91.5t116.5 -32.5
q143 0 257 77q81 54 116 127q7 15 15 43q9 28 15 60zM604 1447h186l-44 -209h-186zM936 1447h186l-44 -209h-186z" />
    <glyph glyph-name="aring" unicode="&#xe5;" 
d="M410 -29q-132 0 -208.5 65.5t-76.5 178.5q1 157 108.5 266t283.5 131l219 27l94 14q48 7 79 39.5t42 88.5l1 3q18 86 -33.5 127t-176.5 41q-112 0 -184.5 -49.5t-111.5 -152.5v0h-164v0q61 184 184.5 269t329.5 85q199 0 283 -80q60 -58 59 -155q1 -40 -9 -85l-125 -601
q-5 -26 8.5 -43t40.5 -17q8 0 24.5 2t34.5 6l-27 -130q-26 -9 -58 -16q-30 -6 -49 -6q-98 0 -134 58q-21 37 -22 101v0q-25 -24 -54 -46q-161 -121 -358 -121zM878 428l24 117v0q-83 -35 -177 -49l-170 -24q-112 -15 -175 -75t-63 -152q0 -59 41.5 -91.5t116.5 -32.5
q143 0 257 77q81 54 116 127q7 15 15 43q9 28 15 60zM823 1171q-79 0 -122.5 54.5t-27.5 133.5q17 79 82.5 133.5t144.5 54.5t122.5 -54.5t26.5 -133.5q-16 -79 -81.5 -133.5t-144.5 -54.5v0zM839 1253q45 0 82 30.5t46 75.5q10 45 -14.5 75.5t-69.5 30.5t-81.5 -30.5
t-46.5 -75.5q-9 -45 15 -75.5t69 -30.5v0z" />
    <glyph glyph-name="ae" unicode="&#xe6;" horiz-adv-x="1821" 
d="M787 1104q196 0 278 -80q32 -31 45 -74v0q167 154 406 154q172 0 266.5 -98.5t94.5 -277.5q1 -134 -32 -254v0h-801v0l-3 -31q-4 -35 -4 -66q0 -121 63.5 -185.5t182.5 -64.5q120 0 215 59.5t131 156.5v0h175v0q-64 -175 -209.5 -273.5t-341.5 -98.5q-183 0 -287 100
q-47 46 -73 107v0q-44 -46 -100 -86q-172 -121 -384 -121q-132 0 -208 65.5t-76 178.5q0 158 106 268t280 131l212 26q65 8 117 18q43 8 71 38.5t38 79.5l2 8q18 86 -33.5 127t-176.5 41q-112 0 -184.5 -49.5t-111.5 -152.5v0h-164v0q61 184 182.5 269t323.5 85zM875 419
l28 135v0q-89 -43 -191 -57l-161 -22q-110 -15 -171.5 -75.5t-62.5 -153.5q0 -60 42 -92.5t118 -32.5q142 0 255 77q81 55 116 127q6 13 14 39q7 26 13 55zM1693 618v0q5 42 5 83q0 118 -63.5 179.5t-184.5 61.5q-142 0 -250 -116q-76 -82 -121 -208v0h614z" />
    <glyph glyph-name="ccedilla" unicode="&#xe7;" horiz-adv-x="1024" 
d="M1057 375v0q-69 -190 -207.5 -297t-315.5 -107q-179 0 -280.5 99t-101.5 271v4q-1 36 4.5 80t13.5 85q58 279 226 436.5t410 157.5q176 0 257 -101q66 -82 67 -225l-4 -70v0h-174v0q6 116 -44 176t-152 60q-148 0 -247.5 -109t-143.5 -319q-8 -38 -12 -75t-4 -67
q0 -118 58 -182.5t163 -64.5q102 0 184 65.5t124 182.5v0h179zM566 2l-120 -128v0l63 8q80 0 117 -41t22 -113q-17 -83 -95.5 -136t-184.5 -53q-36 0 -89 13t-99 33l51 83q30 -14 65.5 -22.5t61.5 -8.5q59 0 91.5 21t41.5 65q6 30 -19 54.5t-62 24.5q-11 0 -33.5 -4.5
t-47.5 -11.5l-25 38l167 178h95z" />
    <glyph glyph-name="egrave" unicode="&#xe8;" 
d="M563 -29q-183 0 -286.5 99.5t-104.5 276.5q0 34 5 77.5t14 85.5q58 279 226 436.5t409 157.5q172 0 266.5 -98.5t94.5 -277.5q1 -134 -32 -254v0h-782v0l-5 -34q-5 -39 -5 -73q0 -120 59.5 -180t178.5 -60q117 0 209.5 59.5t128.5 156.5v0h175v0q-64 -175 -209.5 -273.5
t-341.5 -98.5zM1004 618v0q4 43 4 85q0 117 -61 178t-179 61q-135 0 -242 -115q-78 -84 -121 -209v0h599zM812 1215l-204 289h220l122 -289h-138z" />
    <glyph glyph-name="eacute" unicode="&#xe9;" 
d="M563 -29q-183 0 -286.5 99.5t-104.5 276.5q0 34 5 77.5t14 85.5q58 279 226 436.5t409 157.5q172 0 266.5 -98.5t94.5 -277.5q1 -134 -32 -254v0h-782v0l-5 -34q-5 -39 -5 -73q0 -120 59.5 -180t178.5 -60q117 0 209.5 59.5t128.5 156.5v0h175v0q-64 -175 -209.5 -273.5
t-341.5 -98.5zM1004 618v0q4 43 4 85q0 117 -61 178t-179 61q-135 0 -242 -115q-78 -84 -121 -209v0h599zM752 1215l246 289h218l-327 -289h-137z" />
    <glyph glyph-name="ecircumflex" unicode="&#xea;" 
d="M563 -29q-183 0 -286.5 99.5t-104.5 276.5q0 34 5 77.5t14 85.5q58 279 226 436.5t409 157.5q172 0 266.5 -98.5t94.5 -277.5q1 -134 -32 -254v0h-782v0l-5 -34q-5 -39 -5 -73q0 -120 59.5 -180t178.5 -60q117 0 209.5 59.5t128.5 156.5v0h175v0q-64 -175 -209.5 -273.5
t-341.5 -98.5zM1004 618v0q4 43 4 85q0 117 -61 178t-179 61q-135 0 -242 -115q-78 -84 -121 -209v0h599zM994 1505l146 -290h-163l-97 190v0l-174 -190h-164l266 290h93h93z" />
    <glyph glyph-name="edieresis" unicode="&#xeb;" 
d="M563 -29q-183 0 -286.5 99.5t-104.5 276.5q0 34 5 77.5t14 85.5q58 279 226 436.5t409 157.5q172 0 266.5 -98.5t94.5 -277.5q1 -134 -32 -254v0h-782v0l-5 -34q-5 -39 -5 -73q0 -120 59.5 -180t178.5 -60q117 0 209.5 59.5t128.5 156.5v0h175v0q-64 -175 -209.5 -273.5
t-341.5 -98.5zM1004 618v0q4 43 4 85q0 117 -61 178t-179 61q-135 0 -242 -115q-78 -84 -121 -209v0h599zM646 1447h186l-44 -209h-186zM978 1447h186l-44 -209h-186z" />
    <glyph glyph-name="igrave" unicode="&#xec;" horiz-adv-x="569" 
d="M195 0l221 1072v0h90h91v0l-221 -1072v0h-90h-91v0zM508 1215l-204 289h220l122 -289h-138z" />
    <glyph glyph-name="iacute" unicode="&#xed;" horiz-adv-x="569" 
d="M195 0l221 1072v0h90h91v0l-221 -1072v0h-90h-91v0zM448 1215l246 289h218l-327 -289h-137z" />
    <glyph glyph-name="icircumflex" unicode="&#xee;" horiz-adv-x="569" 
d="M195 0l221 1072v0h90h91v0l-221 -1072v0h-90h-91v0zM690 1505l146 -290h-163l-97 190v0l-174 -190h-164l266 290h93h93z" />
    <glyph glyph-name="idieresis" unicode="&#xef;" horiz-adv-x="569" 
d="M195 0l221 1072v0h90h91v0l-221 -1072v0h-90h-91v0zM342 1447h186l-44 -209h-186zM674 1447h186l-44 -209h-186z" />
    <glyph glyph-name="eth" unicode="&#xf0;" 
d="M565 -29q-185 0 -292 108.5t-107 295.5q0 280 179 490.5t418 210.5q163 0 256 -125v0q-14 66 -42 124q-45 95 -127 180l-284 -124l-69 84l270 118q-66 52 -146 103l164 78q81 -49 146 -109l250 110l76 -82l-245 -107q83 -93 133 -205q68 -152 68 -322q0 -93 -21 -193
q-63 -305 -225.5 -470t-401.5 -165zM358 401q0 -130 62.5 -202t176.5 -72q170 0 287.5 149.5t117.5 366.5q0 129 -64.5 203t-176.5 74q-161 0 -282 -156q-121 -155 -121 -363z" />
    <glyph glyph-name="ntilde" unicode="&#xf1;" 
d="M133 0l221 1072v0h86h86v0l-34 -167v0v0l49 52q149 147 320 147q186 0 260 -93.5t36 -279.5l-151 -731v0h-90h-91v0l145 703q25 121 -13 179t-142 58q-157 0 -253.5 -103.5t-140.5 -318.5v0l-107 -518v0h-90h-91v0zM476 1237q26 97 97 156t161 59q27 0 71 -11.5t80 -28.5
q31 -14 65 -23.5t53 -9.5q40 0 71.5 24t45.5 65h102q-24 -90 -96.5 -152.5t-153.5 -62.5q-25 0 -71 12t-88 29q-32 13 -67.5 22.5t-53.5 9.5q-39 0 -73 -26t-45 -63h-98z" />
    <glyph glyph-name="ograve" unicode="&#xf2;" 
d="M564 -29q-182 0 -288 110t-106 300q0 304 182.5 513.5t445.5 209.5q185 0 291 -106.5t106 -288.5v-4q1 -308 -182.5 -521t-448.5 -213v0zM596 127q171 0 289 159t118 389q0 130 -62 201.5t-175 71.5q-170 0 -288 -158q-116 -157 -117 -385q0 -132 61.5 -205t173.5 -73v0z
M783 1215l-204 289h220l122 -289h-138z" />
    <glyph glyph-name="oacute" unicode="&#xf3;" 
d="M564 -29q-182 0 -288 110t-106 300q0 304 182.5 513.5t445.5 209.5q185 0 291 -106.5t106 -288.5v-4q1 -308 -182.5 -521t-448.5 -213v0zM596 127q171 0 289 159t118 389q0 130 -62 201.5t-175 71.5q-170 0 -288 -158q-116 -157 -117 -385q0 -132 61.5 -205t173.5 -73v0z
M723 1215l246 289h218l-327 -289h-137z" />
    <glyph glyph-name="ocircumflex" unicode="&#xf4;" 
d="M564 -29q-182 0 -288 110t-106 300q0 304 182.5 513.5t445.5 209.5q185 0 291 -106.5t106 -288.5v-4q1 -308 -182.5 -521t-448.5 -213v0zM596 127q171 0 289 159t118 389q0 130 -62 201.5t-175 71.5q-170 0 -288 -158q-116 -157 -117 -385q0 -132 61.5 -205t173.5 -73v0z
M965 1505l146 -290h-163l-97 190v0l-174 -190h-164l266 290h93h93z" />
    <glyph glyph-name="otilde" unicode="&#xf5;" 
d="M564 -29q-182 0 -288 110t-106 300q0 304 182.5 513.5t445.5 209.5q185 0 291 -106.5t106 -288.5v-4q1 -308 -182.5 -521t-448.5 -213v0zM596 127q171 0 289 159t118 389q0 130 -62 201.5t-175 71.5q-170 0 -288 -158q-116 -157 -117 -385q0 -132 61.5 -205t173.5 -73v0z
M467 1237q26 97 97 156t161 59q27 0 71 -11.5t80 -28.5q31 -14 65 -23.5t53 -9.5q40 0 71.5 24t45.5 65h102q-24 -90 -96.5 -152.5t-153.5 -62.5q-25 0 -71 12t-88 29q-32 13 -67.5 22.5t-53.5 9.5q-39 0 -73 -26t-45 -63h-98z" />
    <glyph glyph-name="odieresis" unicode="&#xf6;" 
d="M564 -29q-182 0 -288 110t-106 300q0 304 182.5 513.5t445.5 209.5q185 0 291 -106.5t106 -288.5v-4q1 -308 -182.5 -521t-448.5 -213v0zM596 127q171 0 289 159t118 389q0 130 -62 201.5t-175 71.5q-170 0 -288 -158q-116 -157 -117 -385q0 -132 61.5 -205t173.5 -73v0z
M617 1447h186l-44 -209h-186zM949 1447h186l-44 -209h-186z" />
    <glyph glyph-name="divide" unicode="&#xf7;" horiz-adv-x="1196" 
d="M650 238q58 0 90 -40.5t20 -99.5q-12 -58 -60.5 -98.5t-106.5 -40.5t-90.5 40.5t-20.5 98.5q12 59 61 99.5t107 40.5zM206 594h1036l-32 -151h-1036zM824 1078q58 0 90 -40.5t20 -99.5q-12 -58 -62 -99q-48 -40 -106 -40t-90 40.5t-20 98.5q12 59 61 99.5t107 40.5z" />
    <glyph glyph-name="oslash" unicode="&#xf8;" horiz-adv-x="1251" 
d="M719 477l-268 -246l23 -31q61 -73 173 -73v0q171 0 289 159t118 389q1 55 -11 99zM615 -29q-182 0 -289 110l-18 18l-153 -142l-50 53l164 151q-47 91 -48 220q0 304 182.5 513.5t445.5 209.5q185 0 292 -107l19 -19l149 137l50 -52l-160 -146q47 -88 47 -208v-4
q1 -308 -182.5 -521t-448.5 -213v0zM817 948q-170 0 -288 -158q-116 -157 -117 -385q1 -57 11 -103l321 293l270 249q-8 18 -22 33q-62 71 -175 71z" />
    <glyph glyph-name="ugrave" unicode="&#xf9;" 
d="M538 1072l-146 -708q-24 -116 15.5 -176.5t139.5 -60.5q157 0 253.5 105t141.5 323v0l107 517v0h90h91v0l-221 -1072v0h-86h-86v0l34 168v0v0q-26 -33 -53 -60q-138 -137 -318 -137q-185 0 -259 93q-49 60 -48 161q0 53 13 116l151 731v0h90h91v0zM795 1215l-204 289h220
l122 -289h-138z" />
    <glyph glyph-name="uacute" unicode="&#xfa;" 
d="M538 1072l-146 -708q-24 -116 15.5 -176.5t139.5 -60.5q157 0 253.5 105t141.5 323v0l107 517v0h90h91v0l-221 -1072v0h-86h-86v0l34 168v0v0q-26 -33 -53 -60q-138 -137 -318 -137q-185 0 -259 93q-49 60 -48 161q0 53 13 116l151 731v0h90h91v0zM735 1215l246 289h218
l-327 -289h-137z" />
    <glyph glyph-name="ucircumflex" unicode="&#xfb;" 
d="M538 1072l-146 -708q-24 -116 15.5 -176.5t139.5 -60.5q157 0 253.5 105t141.5 323v0l107 517v0h90h91v0l-221 -1072v0h-86h-86v0l34 168v0v0q-26 -33 -53 -60q-138 -137 -318 -137q-185 0 -259 93q-49 60 -48 161q0 53 13 116l151 731v0h90h91v0zM977 1505l146 -290
h-163l-97 190v0l-174 -190h-164l266 290h93h93z" />
    <glyph glyph-name="udieresis" unicode="&#xfc;" 
d="M538 1072l-146 -708q-24 -116 15.5 -176.5t139.5 -60.5q157 0 253.5 105t141.5 323v0l107 517v0h90h91v0l-221 -1072v0h-86h-86v0l34 168v0v0q-26 -33 -53 -60q-138 -137 -318 -137q-185 0 -259 93q-49 60 -48 161q0 53 13 116l151 731v0h90h91v0zM629 1447h186l-44 -209
h-186zM961 1447h186l-44 -209h-186z" />
    <glyph glyph-name="yacute" unicode="&#xfd;" horiz-adv-x="1024" 
d="M1230 1072l-619 -1073q-169 -289 -250.5 -363.5t-227.5 -74.5q-61 0 -102 17l34 164q39 -18 109 -18q63 0 101 41.5t142 216.5v0l-169 1090v0h103h103v0l102 -883v0v0l475 883v0h99h100v0zM681 1215l246 289h218l-327 -289h-137z" />
    <glyph glyph-name="thorn" unicode="&#xfe;" 
d="M420 1470v0h90h91v0l-115 -555v0l14 15q161 174 351 174q161 0 253.5 -103.5t92.5 -283.5q0 -313 -178.5 -529.5t-437.5 -216.5q-175 0 -261 144v0l-110 -538v0h-90h-91v0zM608 127q174 0 284.5 162t110.5 417q0 113 -59 175t-167 62q-131 0 -233 -121t-145 -328v0v0v0
q-35 -169 21.5 -268t187.5 -99z" />
    <glyph glyph-name="ydieresis" unicode="&#xff;" horiz-adv-x="1024" 
d="M1230 1072l-619 -1073q-169 -289 -250.5 -363.5t-227.5 -74.5q-61 0 -102 17l34 164q39 -18 109 -18q63 0 101 41.5t142 216.5v0l-169 1090v0h103h103v0l102 -883v0v0l475 883v0h99h100v0zM575 1447h186l-44 -209h-186zM907 1447h186l-44 -209h-186z" />
    <glyph glyph-name="Amacron" unicode="&#x100;" horiz-adv-x="1366" 
d="M29 0l873 1470h111h112l213 -1470v0h-106h-107v0l-57 426v0h-587v0l-243 -426v0h-104h-105v0zM957 1251l-374 -650v0h463v0l-89 650v0v0zM718 1738h622l-25 -125h-622z" />
    <glyph glyph-name="amacron" unicode="&#x101;" 
d="M410 -29q-132 0 -208.5 65.5t-76.5 178.5q1 157 108.5 266t283.5 131l219 27l94 14q48 7 79 39.5t42 88.5l1 3q18 86 -33.5 127t-176.5 41q-112 0 -184.5 -49.5t-111.5 -152.5v0h-164v0q61 184 184.5 269t329.5 85q199 0 283 -80q60 -58 59 -155q1 -40 -9 -85l-125 -601
q-5 -26 8.5 -43t40.5 -17q8 0 24.5 2t34.5 6l-27 -130q-26 -9 -58 -16q-30 -6 -49 -6q-98 0 -134 58q-21 37 -22 101v0q-25 -24 -54 -46q-161 -121 -358 -121zM878 428l24 117v0q-83 -35 -177 -49l-170 -24q-112 -15 -175 -75t-63 -152q0 -59 41.5 -91.5t116.5 -32.5
q143 0 257 77q81 54 116 127q7 15 15 43q9 28 15 60zM513 1340h622l-25 -125h-622z" />
    <glyph glyph-name="Abreve" unicode="&#x102;" horiz-adv-x="1366" 
d="M29 0l873 1470h111h112l213 -1470v0h-106h-107v0l-57 426v0h-587v0l-243 -426v0h-104h-105v0zM957 1251l-374 -650v0h463v0l-89 650v0v0zM1004 1627q-136 0 -195.5 66.5t-52.5 211.5h101q10 -87 53.5 -124t134.5 -37q88 0 149.5 41t93.5 120h99q-37 -131 -138.5 -204.5
t-244.5 -73.5z" />
    <glyph glyph-name="abreve" unicode="&#x103;" 
d="M410 -29q-132 0 -208.5 65.5t-76.5 178.5q1 157 108.5 266t283.5 131l219 27l94 14q48 7 79 39.5t42 88.5l1 3q18 86 -33.5 127t-176.5 41q-112 0 -184.5 -49.5t-111.5 -152.5v0h-164v0q61 184 184.5 269t329.5 85q199 0 283 -80q60 -58 59 -155q1 -40 -9 -85l-125 -601
q-5 -26 8.5 -43t40.5 -17q8 0 24.5 2t34.5 6l-27 -130q-26 -9 -58 -16q-30 -6 -49 -6q-98 0 -134 58q-21 37 -22 101v0q-25 -24 -54 -46q-161 -121 -358 -121zM878 428l24 117v0q-83 -35 -177 -49l-170 -24q-112 -15 -175 -75t-63 -152q0 -59 41.5 -91.5t116.5 -32.5
q143 0 257 77q81 54 116 127q7 15 15 43q9 28 15 60zM798 1218q-136 0 -195.5 66.5t-52.5 211.5h101q10 -87 53.5 -124t134.5 -37q88 0 149.5 41t93.5 120h99q-38 -131 -139 -204.5t-244 -73.5z" />
    <glyph glyph-name="Aogonek" unicode="&#x104;" horiz-adv-x="1366" 
d="M29 0l873 1470h111h112l213 -1470v0h-106h-107v0l-57 426v0h-587v0l-243 -426v0h-104h-105v0zM957 1251l-374 -650v0h463v0l-89 650v0v0zM845 -273q20 95 94.5 168.5t181.5 104.5h160q-139 -62 -198.5 -117.5t-77.5 -139.5q-11 -54 10 -80t77 -26q29 0 66.5 7.5
t74.5 21.5l18 -82q-54 -21 -111 -34q-55 -12 -94 -12q-108 0 -163 52q-56 52 -38 137z" />
    <glyph glyph-name="aogonek" unicode="&#x105;" 
d="M410 -29q-132 0 -208.5 65.5t-76.5 178.5q1 157 108.5 266t283.5 131l219 27l94 14q48 7 79 39.5t42 88.5l1 3q18 86 -33.5 127t-176.5 41q-112 0 -184.5 -49.5t-111.5 -152.5v0h-164v0q61 184 184.5 269t329.5 85q199 0 283 -80q60 -58 59 -155q1 -40 -9 -85l-125 -601
q-5 -26 8.5 -43t40.5 -17q8 0 24.5 2t34.5 6l-27 -130q-26 -9 -58 -16q-30 -6 -49 -6q-98 0 -134 58q-21 37 -22 101v0q-25 -24 -54 -46q-161 -121 -358 -121zM878 428l24 117v0q-83 -35 -177 -49l-170 -24q-112 -15 -175 -75t-63 -152q0 -59 41.5 -91.5t116.5 -32.5
q143 0 257 77q81 54 116 127q7 15 15 43q9 28 15 60zM581 -273q20 95 94.5 168.5t181.5 104.5h160q-139 -62 -198.5 -117.5t-77.5 -139.5q-11 -54 10 -80t77 -26q29 0 66.5 7.5t74.5 21.5l18 -82q-54 -21 -111 -34q-55 -12 -94 -12q-108 0 -163 52q-56 52 -38 137z" />
    <glyph glyph-name="Cacute" unicode="&#x106;" horiz-adv-x="1479" 
d="M1516 544v0q-102 -280 -296.5 -432t-451.5 -152q-260 0 -403.5 141t-143.5 397q0 425 251.5 718.5t615.5 293.5q259 0 393 -125q124 -115 124 -322l-1 -34v0h-195v0q7 148 -85.5 228t-271.5 80q-257 0 -442 -240t-185 -574q-1 -190 96 -290t282 -100q177 0 311.5 107
t206.5 304v0h195zM1037 1613l246 289h218l-327 -289h-137z" />
    <glyph glyph-name="cacute" unicode="&#x107;" horiz-adv-x="1024" 
d="M1057 375v0q-69 -190 -207.5 -297t-315.5 -107q-179 0 -280.5 99t-101.5 271v4q-1 36 4.5 80t13.5 85q58 279 226 436.5t410 157.5q176 0 257 -101q66 -82 67 -225l-4 -70v0h-174v0q6 116 -44 176t-152 60q-148 0 -247.5 -109t-143.5 -319q-8 -38 -12 -75t-4 -67
q0 -118 58 -182.5t163 -64.5q102 0 184 65.5t124 182.5v0h179zM741 1215l246 289h218l-327 -289h-137z" />
    <glyph glyph-name="Ccaron" unicode="&#x10c;" horiz-adv-x="1479" 
d="M1516 544v0q-102 -280 -296.5 -432t-451.5 -152q-260 0 -403.5 141t-143.5 397q0 425 251.5 718.5t615.5 293.5q259 0 393 -125q124 -115 124 -322l-1 -34v0h-195v0q7 148 -85.5 228t-271.5 80q-257 0 -442 -240t-185 -574q-1 -190 96 -290t282 -100q177 0 311.5 107
t206.5 304v0h195zM1028 1613l-146 290h163l96 -190v0l175 190h164l-266 -290h-93h-93z" />
    <glyph glyph-name="ccaron" unicode="&#x10d;" horiz-adv-x="1024" 
d="M1057 375v0q-69 -190 -207.5 -297t-315.5 -107q-179 0 -280.5 99t-101.5 271v4q-1 36 4.5 80t13.5 85q58 279 226 436.5t410 157.5q176 0 257 -101q66 -82 67 -225l-4 -70v0h-174v0q6 116 -44 176t-152 60q-148 0 -247.5 -109t-143.5 -319q-8 -38 -12 -75t-4 -67
q0 -118 58 -182.5t163 -64.5q102 0 184 65.5t124 182.5v0h179zM737 1215l-146 290h163l96 -190v0l175 190h164l-266 -290h-93h-93z" />
    <glyph glyph-name="Dcaron" unicode="&#x10e;" horiz-adv-x="1479" 
d="M166 0l304 1470v0h99v0h473q251 0 386 -125.5t135 -358.5q0 -424 -233 -705t-584 -281h-481v0h-99v0zM400 173v0h381q241 0 408.5 223t167.5 546q0 171 -91 263t-260 92h-373v0zM903 1613l-146 290h163l96 -190v0l175 190h164l-266 -290h-93h-93z" />
    <glyph glyph-name="dcaron" unicode="&#x10f;" horiz-adv-x="1280" 
d="M477 -29q-169 0 -267 107.5t-98 294.5q0 314 163.5 522.5t409.5 208.5q193 0 280 -171l10 -21v0l116 558v0h90h91v0l-304 -1470v0h-86h-86v0l29 144v0l-24 -24q-148 -149 -324 -149zM687 941q-172 0 -281 -157t-109 -404q0 -121 58 -187.5t163 -66.5q127 0 228.5 102.5
t135.5 264.5q46 224 -2.5 336t-192.5 112zM1374 1371l20 99h95h95l-35 -170q-29 -141 -91 -217t-166 -100v0l15 75v0q62 6 97 65q30 49 53 148v0h-9h-95z" />
    <glyph glyph-name="Dcroat" unicode="&#x110;" horiz-adv-x="1479" 
d="M171 0v0l138 667v0h-168l36 178h168v0l130 625v0h99v0h471q250 0 384 -125.5t134 -358.5q0 -424 -232 -705t-582 -281h-479v0h-99zM638 1297v0l-94 -452v0h395l-36 -178h-395v0l-103 -494v0h379q240 0 406 223.5t166 546.5q0 171 -90 262.5t-257 91.5h-371z" />
    <glyph glyph-name="dcroat" unicode="&#x111;" 
d="M530 -29q-166 0 -261.5 107t-96.5 293q1 315 162.5 524t404.5 209q191 0 277 -171l4 -9v0l62 302h-350l30 144h350l21 100v0h90h91v0l-21 -100h120l-30 -144h-120l-253 -1226v0h-90h-91v0l25 122l-3 -2q-146 -149 -321 -149zM742 941q-169 0 -277 -157.5t-108 -404.5
q0 -120 57 -186.5t160 -66.5q124 0 223.5 102.5t133.5 264.5q46 224 -1 336t-188 112z" />
    <glyph glyph-name="Emacron" unicode="&#x112;" horiz-adv-x="1366" 
d="M176 0v0l304 1470v0h1071v0l-17 -87l-16 -88v0h-875v0l-94 -451v0h807l-18 -87l-18 -88v0h-807v0l-102 -494v0h886v0l-19 -87l-20 -88v0h-1082zM706 1738h622l-25 -125h-622z" />
    <glyph glyph-name="emacron" unicode="&#x113;" 
d="M563 -29q-183 0 -286.5 99.5t-104.5 276.5q0 34 5 77.5t14 85.5q58 279 226 436.5t409 157.5q172 0 266.5 -98.5t94.5 -277.5q1 -134 -32 -254v0h-782v0l-5 -34q-5 -39 -5 -73q0 -120 59.5 -180t178.5 -60q117 0 209.5 59.5t128.5 156.5v0h175v0q-64 -175 -209.5 -273.5
t-341.5 -98.5zM1004 618v0q4 43 4 85q0 117 -61 178t-179 61q-135 0 -242 -115q-78 -84 -121 -209v0h599zM555 1340h622l-25 -125h-622z" />
    <glyph glyph-name="Edotaccent" unicode="&#x116;" horiz-adv-x="1366" 
d="M176 0v0l304 1470v0h1071v0l-17 -87l-16 -88v0h-875v0l-94 -451v0h807l-18 -87l-18 -88v0h-807v0l-102 -494v0h886v0l-19 -87l-20 -88v0h-1082zM946 1844h186l-43 -209h-186z" />
    <glyph glyph-name="edotaccent" unicode="&#x117;" 
d="M563 -29q-183 0 -286.5 99.5t-104.5 276.5q0 34 5 77.5t14 85.5q58 279 226 436.5t409 157.5q172 0 266.5 -98.5t94.5 -277.5q1 -134 -32 -254v0h-782v0l-5 -34q-5 -39 -5 -73q0 -120 59.5 -180t178.5 -60q117 0 209.5 59.5t128.5 156.5v0h175v0q-64 -175 -209.5 -273.5
t-341.5 -98.5zM1004 618v0q4 43 4 85q0 117 -61 178t-179 61q-135 0 -242 -115q-78 -84 -121 -209v0h599zM795 1446h186l-43 -209h-186z" />
    <glyph glyph-name="Eogonek" unicode="&#x118;" horiz-adv-x="1366" 
d="M176 0v0l304 1470v0h1071v0l-17 -87l-16 -88v0h-875v0l-94 -451v0h807l-18 -87l-18 -88v0h-807v0l-102 -494v0h886v0l-19 -87l-20 -88v0h-1082zM762 -273q20 95 94.5 168.5t181.5 104.5h160q-139 -62 -198.5 -117.5t-77.5 -139.5q-11 -54 10 -80t77 -26q29 0 66.5 7.5
t74.5 21.5l18 -82q-54 -21 -111 -34q-55 -12 -94 -12q-108 0 -163 52q-56 52 -38 137z" />
    <glyph glyph-name="eogonek" unicode="&#x119;" 
d="M563 -29q-183 0 -286.5 99.5t-104.5 276.5q0 34 5 77.5t14 85.5q58 279 226 436.5t409 157.5q172 0 266.5 -98.5t94.5 -277.5q1 -134 -32 -254v0h-782v0l-5 -34q-5 -39 -5 -73q0 -120 59.5 -180t178.5 -60q117 0 209.5 59.5t128.5 156.5v0h175v0q-64 -175 -209.5 -273.5
t-341.5 -98.5zM1004 618v0q4 43 4 85q0 117 -61 178t-179 61q-135 0 -242 -115q-78 -84 -121 -209v0h599zM317 -273q20 95 94.5 168.5t181.5 104.5h160q-139 -62 -198.5 -117.5t-77.5 -139.5q-11 -54 10 -80t77 -26q29 0 66.5 7.5t74.5 21.5l18 -82q-54 -21 -111 -34
q-55 -12 -94 -12q-108 0 -163 52q-56 52 -38 137z" />
    <glyph glyph-name="Ecaron" unicode="&#x11a;" horiz-adv-x="1366" 
d="M176 0v0l304 1470v0h1071v0l-17 -87l-16 -88v0h-875v0l-94 -451v0h807l-18 -87l-18 -88v0h-807v0l-102 -494v0h886v0l-19 -87l-20 -88v0h-1082zM910 1613l-146 290h163l96 -190v0l175 190h164l-266 -290h-93h-93z" />
    <glyph glyph-name="ecaron" unicode="&#x11b;" 
d="M563 -29q-183 0 -286.5 99.5t-104.5 276.5q0 34 5 77.5t14 85.5q58 279 226 436.5t409 157.5q172 0 266.5 -98.5t94.5 -277.5q1 -134 -32 -254v0h-782v0l-5 -34q-5 -39 -5 -73q0 -120 59.5 -180t178.5 -60q117 0 209.5 59.5t128.5 156.5v0h175v0q-64 -175 -209.5 -273.5
t-341.5 -98.5zM1004 618v0q4 43 4 85q0 117 -61 178t-179 61q-135 0 -242 -115q-78 -84 -121 -209v0h599zM748 1215l-146 290h163l96 -190v0l175 190h164l-266 -290h-93h-93z" />
    <glyph glyph-name="Gbreve" unicode="&#x11e;" horiz-adv-x="1593" 
d="M782 -40q-258 0 -406.5 149.5t-148.5 404.5v4q0 417 257.5 704.5t630.5 287.5q246 0 389.5 -132.5t133.5 -348.5v0h-195v0q7 142 -93 225t-278 83q-263 0 -452.5 -237t-189.5 -566q-1 -196 104 -301.5t299 -105.5q261 0 451 225q32 38 63 108.5t45 134.5l3 16v0h-465
l35 168h648l-161 -778h-130l-10 186v0q-222 -227 -530 -227zM1137 1627q-136 0 -195.5 66.5t-52.5 211.5h101q10 -87 53.5 -124t134.5 -37q88 0 149.5 41t93.5 120h99q-37 -131 -138.5 -204.5t-244.5 -73.5z" />
    <glyph glyph-name="gbreve" unicode="&#x11f;" 
d="M477 -299q155 0 247.5 89.5t129.5 275.5l12 55l-3 -3q-146 -147 -321 -147q-171 0 -265.5 101t-94.5 285q1 321 163 534t406 213q191 0 276 -173l11 -22v0l33 163v0h172l-208 -1006q-52 -258 -205 -388t-403 -130q-168 0 -258.5 87t-82.5 242v0h178v0q-4 -83 52.5 -129.5
t160.5 -46.5zM752 943q-170 0 -278.5 -155.5t-107.5 -400.5q0 -124 57 -192t160 -68q125 0 225 100.5t133 258.5q47 224 -1.5 340.5t-187.5 116.5zM774 1218q-136 0 -195.5 66.5t-52.5 211.5h101q10 -87 53.5 -124t134.5 -37q88 0 149.5 41t93.5 120h99
q-38 -131 -139 -204.5t-244 -73.5z" />
    <glyph glyph-name="uni0122" unicode="&#x122;" horiz-adv-x="1593" 
d="M782 -40q-258 0 -406.5 149.5t-148.5 404.5v4q0 417 257.5 704.5t630.5 287.5q246 0 389.5 -132.5t133.5 -348.5v0h-195v0q7 142 -93 225t-278 83q-263 0 -452.5 -237t-189.5 -566q-1 -196 104 -301.5t299 -105.5q261 0 451 225q32 38 63 108.5t45 134.5l3 16v0h-465
l35 168h648l-161 -778h-130l-10 186v0q-222 -227 -530 -227zM655 -241l20 99h95h95l-35 -170q-29 -141 -91 -217t-166 -100v0l15 75v0q62 6 97 65q30 49 53 148v0h-9h-95z" />
    <glyph glyph-name="uni0123" unicode="&#x123;" 
d="M477 -299q155 0 247.5 89.5t129.5 275.5l12 55l-3 -3q-146 -147 -321 -147q-171 0 -265.5 101t-94.5 285q1 321 163 534t406 213q191 0 276 -173l11 -22v0l33 163v0h172l-208 -1006q-52 -258 -205 -388t-403 -130q-168 0 -258.5 87t-82.5 242v0h178v0q-4 -83 52.5 -129.5
t160.5 -46.5zM752 943q-170 0 -278.5 -155.5t-107.5 -400.5q0 -124 57 -192t160 -68q125 0 225 100.5t133 258.5q47 224 -1.5 340.5t-187.5 116.5zM889 1314l-20 -99h-95h-95l35 170q29 141 90.5 217t166.5 100v0l-15 -75v0q-62 -6 -98 -65q-29 -49 -52 -148v0h9h95z" />
    <glyph glyph-name="Imacron" unicode="&#x12a;" horiz-adv-x="569" 
d="M186 0l304 1470v0h99h100v0l-304 -1470v0h-99h-100v0zM333 1738h622l-25 -125h-622z" />
    <glyph glyph-name="imacron" unicode="&#x12b;" horiz-adv-x="455" 
d="M137 0l221 1072v0h90h91v0l-221 -1072v0h-90h-91v0zM193 1340h622l-25 -125h-622z" />
    <glyph glyph-name="Iogonek" unicode="&#x12e;" horiz-adv-x="569" 
d="M193 0l304 1470v0h99h100v0l-304 -1470v0h-99h-100v0zM-47 -273q20 95 94.5 168.5t181.5 104.5h160q-139 -62 -198.5 -117.5t-77.5 -139.5q-11 -54 10 -80t77 -26q29 0 66.5 7.5t74.5 21.5l18 -82q-54 -21 -111 -34q-55 -12 -94 -12q-108 0 -163 52q-56 52 -38 137z" />
    <glyph glyph-name="iogonek" unicode="&#x12f;" horiz-adv-x="569" 
d="M184 0l221 1072v0h90h91v0l-221 -1072v0h-90h-91v0zM491 1470h182l-42 -203h-182zM-65 -273q20 95 94.5 168.5t181.5 104.5h160q-139 -62 -198.5 -117.5t-77.5 -139.5q-11 -54 10 -80t77 -26q29 0 66.5 7.5t74.5 21.5l18 -82q-54 -21 -111 -34q-55 -12 -94 -12
q-108 0 -163 52q-56 52 -38 137z" />
    <glyph glyph-name="Idotaccent" unicode="&#x130;" horiz-adv-x="569" 
d="M186 0l304 1470v0h99h100v0l-304 -1470v0h-99h-100v0zM573 1844h186l-43 -209h-186z" />
    <glyph glyph-name="dotlessi" unicode="&#x131;" horiz-adv-x="569" 
d="M195 0l221 1072v0h90h91v0l-221 -1072v0h-90h-91v0z" />
    <glyph glyph-name="uni0136" unicode="&#x136;" horiz-adv-x="1366" 
d="M156 0l304 1470v0h99h100v0l-148 -713v0l859 713v0h139h140v0l-730 -587v0l438 -883v0h-128h-128v0l-361 740v0l-279 -225v0l-106 -515v0h-99h-100v0zM593 -241l20 99h95h95l-35 -170q-29 -141 -91 -217t-166 -100v0l15 75v0q62 6 97 65q30 49 53 148v0h-9h-95z" />
    <glyph glyph-name="uni0137" unicode="&#x137;" horiz-adv-x="1024" 
d="M137 0l304 1470v0h90h91v0l-175 -844v0l552 446v0h117h118v0l-502 -400v0l299 -672v0h-116h-117v0l-223 548v0l-173 -138v0l-84 -410v0h-90h-91v0zM423 -241l20 99h95h95l-35 -170q-29 -141 -91 -217t-166 -100v0l15 75v0q62 6 97 65q30 49 53 148v0h-9h-95z" />
    <glyph glyph-name="Lacute" unicode="&#x139;" 
d="M156 0v0l304 1470v0h99h100v0l-268 -1295v0h743v0l-19 -87l-20 -88v0h-939zM516 1613l246 289h218l-327 -289h-137z" />
    <glyph glyph-name="lacute" unicode="&#x13a;" horiz-adv-x="455" 
d="M137 0l304 1470v0h90h91v0l-304 -1470v0h-90h-91v0zM488 1613l246 289h218l-327 -289h-137z" />
    <glyph glyph-name="uni013B" unicode="&#x13b;" 
d="M156 0v0l304 1470v0h99h100v0l-268 -1295v0h743v0l-19 -87l-20 -88v0h-939zM490 -241l20 99h95h95l-35 -170q-29 -141 -91 -217t-166 -100v0l15 75v0q62 6 97 65q30 49 53 148v0h-9h-95z" />
    <glyph glyph-name="uni013C" unicode="&#x13c;" horiz-adv-x="455" 
d="M147 0l304 1470v0h90h91v0l-304 -1470v0h-90h-91v0zM102 -241l20 99h95h95l-35 -170q-29 -141 -91 -217t-166 -100v0l15 75v0q62 6 97 65q30 49 53 148v0h-9h-95z" />
    <glyph glyph-name="Lcaron" unicode="&#x13d;" 
d="M156 0v0l304 1470v0h99h100v0l-268 -1295v0h743v0l-19 -87l-20 -88v0h-939zM908 1371l20 99h95h95l-35 -170q-29 -141 -91 -217t-166 -100v0l15 75v0q62 6 97 65q30 49 53 148v0h-9h-95z" />
    <glyph glyph-name="lcaron" unicode="&#x13e;" horiz-adv-x="682" 
d="M205 0l304 1470v0h90h91v0l-304 -1470v0h-90h-91v0zM791 1371l20 99h95h95l-35 -170q-29 -141 -91 -217t-166 -100v0l15 75v0q62 6 97 65q30 49 53 148v0h-9h-95z" />
    <glyph glyph-name="Lslash" unicode="&#x141;" 
d="M134 0v0l144 698l-214 -106l25 122l214 106l135 650v0h99h100v0l-112 -540l271 134l-25 -122l-271 -134l-131 -633v0h743v0l-19 -87l-20 -88v0h-939z" />
    <glyph glyph-name="lslash" unicode="&#x142;" horiz-adv-x="455" 
d="M118 0l142 688l-200 -99l25 119l199 98l138 664v0h90h91v0l-117 -564l198 98l-24 -119l-199 -98l-162 -787v0h-90h-91v0z" />
    <glyph glyph-name="Nacute" unicode="&#x143;" horiz-adv-x="1479" 
d="M347 0v0h-95h-96v0l304 1470v0h116h117v0l495 -1195v0v0l248 1195v0h95h96v0l-304 -1470h-113h-113l-502 1199v0v0zM1000 1613l246 289h218l-327 -289h-137z" />
    <glyph glyph-name="nacute" unicode="&#x144;" 
d="M133 0l221 1072v0h86h86v0l-34 -167v0v0l49 52q149 147 320 147q186 0 260 -93.5t36 -279.5l-151 -731v0h-90h-91v0l145 703q25 121 -13 179t-142 58q-157 0 -253.5 -103.5t-140.5 -318.5v0l-107 -518v0h-90h-91v0zM732 1215l246 289h218l-327 -289h-137z" />
    <glyph glyph-name="uni0145" unicode="&#x145;" horiz-adv-x="1479" 
d="M347 0v0h-95h-96v0l304 1470v0h116h117v0l495 -1195v0v0l248 1195v0h95h96v0l-304 -1470h-113h-113l-502 1199v0v0zM604 -241l20 99h95h95l-35 -170q-29 -141 -91 -217t-166 -100v0l15 75v0q62 6 97 65q30 49 53 148v0h-9h-95z" />
    <glyph glyph-name="uni0146" unicode="&#x146;" 
d="M133 0l221 1072v0h86h86v0l-34 -167v0v0l49 52q149 147 320 147q186 0 260 -93.5t36 -279.5l-151 -731v0h-90h-91v0l145 703q25 121 -13 179t-142 58q-157 0 -253.5 -103.5t-140.5 -318.5v0l-107 -518v0h-90h-91v0zM434 -241l20 99h95h95l-35 -170q-29 -141 -91 -217
t-166 -100v0l15 75v0q62 6 97 65q30 49 53 148v0h-9h-95z" />
    <glyph glyph-name="Ncaron" unicode="&#x147;" horiz-adv-x="1479" 
d="M347 0v0h-95h-96v0l304 1470v0h116h117v0l495 -1195v0v0l248 1195v0h95h96v0l-304 -1470h-113h-113l-502 1199v0v0zM991 1613l-146 290h163l96 -190v0l175 190h164l-266 -290h-93h-93z" />
    <glyph glyph-name="ncaron" unicode="&#x148;" 
d="M133 0l221 1072v0h86h86v0l-34 -167v0v0l49 52q149 147 320 147q186 0 260 -93.5t36 -279.5l-151 -731v0h-90h-91v0l145 703q25 121 -13 179t-142 58q-157 0 -253.5 -103.5t-140.5 -318.5v0l-107 -518v0h-90h-91v0zM728 1215l-146 290h163l96 -190v0l175 190h164
l-266 -290h-93h-93z" />
    <glyph glyph-name="Omacron" unicode="&#x14c;" horiz-adv-x="1593" 
d="M790 -40q-267 0 -421 151t-154 412q0 415 259.5 701t635.5 286q269 0 424.5 -146t155.5 -397v-4q0 -421 -262 -712q-260 -291 -638 -291v0zM825 133q270 0 464 232.5t194 555.5q0 193 -109.5 304.5t-299.5 111.5q-268 0 -460.5 -229t-192.5 -547q-1 -199 107.5 -313.5
t296.5 -114.5v0zM832 1738h622l-25 -125h-622z" />
    <glyph glyph-name="omacron" unicode="&#x14d;" 
d="M564 -29q-182 0 -288 110t-106 300q0 304 182.5 513.5t445.5 209.5q185 0 291 -106.5t106 -288.5v-4q1 -308 -182.5 -521t-448.5 -213v0zM596 127q171 0 289 159t118 389q0 130 -62 201.5t-175 71.5q-170 0 -288 -158q-116 -157 -117 -385q0 -132 61.5 -205t173.5 -73v0z
M526 1340h622l-25 -125h-622z" />
    <glyph glyph-name="Ohungarumlaut" unicode="&#x150;" horiz-adv-x="1593" 
d="M790 -40q-267 0 -421 151t-154 412q0 415 259.5 701t635.5 286q269 0 424.5 -146t155.5 -397v-4q0 -421 -262 -712q-260 -291 -638 -291v0zM825 133q270 0 464 232.5t194 555.5q0 193 -109.5 304.5t-299.5 111.5q-268 0 -460.5 -229t-192.5 -547q-1 -199 107.5 -313.5
t296.5 -114.5v0zM814 1613l246 289h218l-327 -289h-137zM1187 1613l246 289h218l-327 -289h-137z" />
    <glyph glyph-name="ohungarumlaut" unicode="&#x151;" 
d="M564 -29q-182 0 -288 110t-106 300q0 304 182.5 513.5t445.5 209.5q185 0 291 -106.5t106 -288.5v-4q1 -308 -182.5 -521t-448.5 -213v0zM596 127q171 0 289 159t118 389q0 130 -62 201.5t-175 71.5q-170 0 -288 -158q-116 -157 -117 -385q0 -132 61.5 -205t173.5 -73v0z
M520 1215l246 289h218l-327 -289h-137zM893 1215l246 289h218l-327 -289h-137z" />
    <glyph glyph-name="OE" unicode="&#x152;" horiz-adv-x="2048" 
d="M1020 1509q194 0 304 -126l20 -27v0l24 114h199v0h721v0l-17 -87l-16 -88v0h-724v0l-94 -451v0h693l-18 -87l-18 -88v0h-693v0l-102 -494v0h734v0l-19 -87l-20 -88v0h-731v0h-199l28 140v0q-177 -177 -414 -176q-227 0 -352 130t-125 367q0 55 8 123.5t22 137.5
q73 354 290 571q217 216 499 216zM1001 1343q-216 0 -362.5 -166.5t-212.5 -485.5q-13 -59 -19 -112t-6 -98q-1 -173 87.5 -262t260.5 -89q161 0 311 142q31 30 60 82q28 52 37 97l126 607q9 43 1.5 92.5t-27.5 77.5l-8 11q-89 104 -248 104z" />
    <glyph glyph-name="oe" unicode="&#x153;" horiz-adv-x="1933" 
d="M796 1104q184 0 290 -107q44 -44 70 -102v0q22 28 49 52q167 157 408 157q172 0 266.5 -98.5t94.5 -277.5q1 -134 -32 -254v0h-782v0l-5 -34q-5 -39 -5 -73q0 -120 59.5 -180t178.5 -60q114 0 208.5 60.5t129.5 155.5v0h175v0q-64 -175 -209.5 -273.5t-341.5 -98.5
q-183 0 -287 100q-43 41 -68 97v0q-179 -197 -433 -197q-182 0 -287 109.5t-105 299.5q0 304 182 514q181 210 444 210zM764 948q-169 0 -285.5 -157.5t-117.5 -385.5q0 -132 61 -205t172 -73q170 0 287.5 159t117.5 390q0 129 -62 201q-61 71 -173 71zM1791 618v0
q8 47 7 92q0 113 -62 172.5t-181 59.5q-135 0 -242 -115q-78 -84 -121 -209v0h599z" />
    <glyph glyph-name="Racute" unicode="&#x154;" horiz-adv-x="1479" 
d="M180 0l304 1470v0h99v0h623q180 0 278.5 -74t99.5 -208q0 -229 -156 -375q-59 -55 -129 -89v0q41 -18 67 -42q77 -73 47 -239l-47 -265q-11 -64 -3 -93t43 -52l-6 -32h-241q-2 40 6 117t21 149l19 109q25 136 -23.5 196t-179.5 60h-493v0l-130 -632v0h-99h-100v0z
M544 801v0h492q161 0 248 88.5t87 252.5q0 76 -56.5 117.5t-158.5 41.5h-508v0zM962 1613l246 289h218l-327 -289h-137z" />
    <glyph glyph-name="racute" unicode="&#x155;" horiz-adv-x="682" 
d="M158 0l221 1072v0h86h86v0l-41 -198v0v0q46 63 92 109q123 121 264 121q27 0 51 -7l-42 -187h-65q-122 0 -219.5 -82t-123.5 -206v0l-128 -622v0h-90h-91v0zM587 1215l246 289h218l-327 -289h-137z" />
    <glyph glyph-name="uni0156" unicode="&#x156;" horiz-adv-x="1479" 
d="M180 0l304 1470v0h99v0h623q180 0 278.5 -74t99.5 -208q0 -229 -156 -375q-59 -55 -129 -89v0q41 -18 67 -42q77 -73 47 -239l-47 -265q-11 -64 -3 -93t43 -52l-6 -32h-241q-2 40 6 117t21 149l19 109q25 136 -23.5 196t-179.5 60h-493v0l-130 -632v0h-99h-100v0z
M544 801v0h492q161 0 248 88.5t87 252.5q0 76 -56.5 117.5t-158.5 41.5h-508v0zM624 -241l20 99h95h95l-35 -170q-29 -141 -91 -217t-166 -100v0l15 75v0q62 6 97 65q30 49 53 148v0h-9h-95z" />
    <glyph glyph-name="uni0157" unicode="&#x157;" horiz-adv-x="682" 
d="M167 0l221 1072v0h86h86v0l-41 -198v0v0q46 63 92 109q123 121 264 121q27 0 51 -7l-42 -187h-65q-122 0 -219.5 -82t-123.5 -206v0l-128 -622v0h-90h-91v0zM122 -241l20 99h95h95l-35 -170q-29 -141 -91 -217t-166 -100v0l15 75v0q62 6 97 65q30 49 53 148v0h-9h-95z
" />
    <glyph glyph-name="Rcaron" unicode="&#x158;" horiz-adv-x="1479" 
d="M180 0l304 1470v0h99v0h623q180 0 278.5 -74t99.5 -208q0 -229 -156 -375q-59 -55 -129 -89v0q41 -18 67 -42q77 -73 47 -239l-47 -265q-11 -64 -3 -93t43 -52l-6 -32h-241q-2 40 6 117t21 149l19 109q25 136 -23.5 196t-179.5 60h-493v0l-130 -632v0h-99h-100v0z
M544 801v0h492q161 0 248 88.5t87 252.5q0 76 -56.5 117.5t-158.5 41.5h-508v0zM953 1613l-146 290h163l96 -190v0l175 190h164l-266 -290h-93h-93z" />
    <glyph glyph-name="rcaron" unicode="&#x159;" horiz-adv-x="682" 
d="M158 0l221 1072v0h86h86v0l-41 -198v0v0q46 63 92 109q123 121 264 121q27 0 51 -7l-42 -187h-65q-122 0 -219.5 -82t-123.5 -206v0l-128 -622v0h-90h-91v0zM583 1215l-146 290h163l96 -190v0l175 190h164l-266 -290h-93h-93z" />
    <glyph glyph-name="Sacute" unicode="&#x15a;" horiz-adv-x="1366" 
d="M1263 1044v0q29 141 -49 217t-251 76q-164 0 -262.5 -66t-124.5 -193q-19 -90 28 -133q47 -42 206 -79l245 -57q193 -45 263 -143q46 -65 46 -162q0 -51 -12 -110q-41 -200 -218 -317q-174 -117 -433 -117q-292 0 -423 132q-95 95 -94 250q0 59 14 128v0h189v0
q-34 -162 57 -249.5t292 -87.5q181 0 288.5 64.5t132.5 187.5q23 112 -28 163q-50 51 -225 92l-245 57q-178 42 -245 126q-46 57 -46 145q0 39 9 84q44 211 212 334.5t410 123.5q264 0 381 -121q85 -88 85 -227q0 -56 -13 -118v0h-189zM948 1613l246 289h218l-327 -289h-137
z" />
    <glyph glyph-name="sacute" unicode="&#x15b;" horiz-adv-x="1024" 
d="M906 772v0q9 86 -43.5 131t-162.5 45q-109 0 -174.5 -40t-81.5 -117q-11 -53 24 -81q33 -27 147 -58l176 -47q146 -39 199 -110q36 -47 36 -118q0 -33 -8 -72q-31 -147 -169 -240.5t-325 -93.5q-231 0 -327 93q-68 67 -68 179q0 46 11 100v0h174v0q-15 -114 42 -165
t200 -51q121 0 193 43t89 125q12 61 -29 93q-42 32 -178 69l-176 47q-125 34 -170 96q-30 42 -30 104q0 31 7 66q30 147 162 240.5t308 93.5q184 0 273 -84q77 -74 77 -205l-2 -43v0h-174zM667 1215l246 289h218l-327 -289h-137z" />
    <glyph glyph-name="Scedilla" unicode="&#x15e;" horiz-adv-x="1366" 
d="M1263 1044v0q29 141 -49 217t-251 76q-164 0 -262.5 -66t-124.5 -193q-19 -90 28 -133q47 -42 206 -79l245 -57q193 -45 263 -143q46 -65 46 -162q0 -51 -12 -110q-41 -200 -218 -317q-174 -117 -433 -117q-292 0 -423 132q-95 95 -94 250q0 59 14 128v0h189v0
q-34 -162 57 -249.5t292 -87.5q181 0 288.5 64.5t132.5 187.5q23 112 -28 163q-50 51 -225 92l-245 57q-178 42 -245 126q-46 57 -46 145q0 39 9 84q44 211 212 334.5t410 123.5q264 0 381 -121q85 -88 85 -227q0 -56 -13 -118v0h-189zM727 2l-121 -129v0l64 9q80 0 117 -41
t22 -113q-17 -83 -95.5 -136t-184.5 -53q-37 0 -89.5 13t-98.5 33l51 83q30 -14 65.5 -22.5t61.5 -8.5q59 0 91.5 21t41.5 65q6 30 -19 54.5t-62 24.5q-11 0 -33.5 -4.5t-47.5 -11.5l-25 38l167 178h95z" />
    <glyph glyph-name="scedilla" unicode="&#x15f;" horiz-adv-x="1024" 
d="M906 772v0q9 86 -43.5 131t-162.5 45q-109 0 -174.5 -40t-81.5 -117q-11 -53 24 -81q33 -27 147 -58l176 -47q146 -39 199 -110q36 -47 36 -118q0 -33 -8 -72q-31 -147 -169 -240.5t-325 -93.5q-231 0 -327 93q-68 67 -68 179q0 46 11 100v0h174v0q-15 -114 42 -165
t200 -51q121 0 193 43t89 125q12 61 -29 93q-42 32 -178 69l-176 47q-125 34 -170 96q-30 42 -30 104q0 31 7 66q30 147 162 240.5t308 93.5q184 0 273 -84q77 -74 77 -205l-2 -43v0h-174zM556 2l-120 -128v0l63 8q80 0 117 -41t22 -113q-17 -83 -95.5 -136t-184.5 -53
q-36 0 -89 13t-99 33l51 83q30 -14 65.5 -22.5t61.5 -8.5q59 0 91.5 21t41.5 65q6 30 -19 54.5t-62 24.5q-11 0 -33.5 -4.5t-47.5 -11.5l-25 38l167 178h95z" />
    <glyph glyph-name="Scaron" unicode="&#x160;" horiz-adv-x="1366" 
d="M1263 1044v0q29 141 -49 217t-251 76q-164 0 -262.5 -66t-124.5 -193q-19 -90 28 -133q47 -42 206 -79l245 -57q193 -45 263 -143q46 -65 46 -162q0 -51 -12 -110q-41 -200 -218 -317q-174 -117 -433 -117q-292 0 -423 132q-95 95 -94 250q0 59 14 128v0h189v0
q-34 -162 57 -249.5t292 -87.5q181 0 288.5 64.5t132.5 187.5q23 112 -28 163q-50 51 -225 92l-245 57q-178 42 -245 126q-46 57 -46 145q0 39 9 84q44 211 212 334.5t410 123.5q264 0 381 -121q85 -88 85 -227q0 -56 -13 -118v0h-189zM939 1613l-146 290h163l96 -190v0
l175 190h164l-266 -290h-93h-93z" />
    <glyph glyph-name="scaron" unicode="&#x161;" horiz-adv-x="1024" 
d="M906 772v0q9 86 -43.5 131t-162.5 45q-109 0 -174.5 -40t-81.5 -117q-11 -53 24 -81q33 -27 147 -58l176 -47q146 -39 199 -110q36 -47 36 -118q0 -33 -8 -72q-31 -147 -169 -240.5t-325 -93.5q-231 0 -327 93q-68 67 -68 179q0 46 11 100v0h174v0q-15 -114 42 -165
t200 -51q121 0 193 43t89 125q12 61 -29 93q-42 32 -178 69l-176 47q-125 34 -170 96q-30 42 -30 104q0 31 7 66q30 147 162 240.5t308 93.5q184 0 273 -84q77 -74 77 -205l-2 -43v0h-174zM663 1215l-146 290h163l96 -190v0l175 190h164l-266 -290h-93h-93z" />
    <glyph glyph-name="uni0162" unicode="&#x162;" horiz-adv-x="1251" 
d="M532 0l268 1295v0h-497v0l19 87l20 88v0h1186v0l-17 -87l-16 -88v0h-496v0l-268 -1295v0h-99h-100v0zM498 -216l20 99h95h95l-35 -170q-29 -141 -91 -217t-166 -100v0l15 75v0q62 6 97 65q30 49 53 148v0h-9h-95z" />
    <glyph glyph-name="uni0163" unicode="&#x163;" horiz-adv-x="569" 
d="M494 0q-91 -13 -137 -13q-115 0 -154.5 57.5t-13.5 186.5l144 692v0h-141l30 149h141v0l63 300h181l-63 -300v0h171l-30 -149h-171v0l-144 -692q-9 -46 13.5 -68t78.5 -22h61zM157 -244l20 99h95h95l-35 -170q-29 -141 -90.5 -217t-166.5 -100v0l16 75v0q62 6 97 65
q28 49 52 148v0h-9h-95z" />
    <glyph glyph-name="Tcaron" unicode="&#x164;" horiz-adv-x="1251" 
d="M532 0l268 1295v0h-497v0l19 87l20 88v0h1186v0l-17 -87l-16 -88v0h-496v0l-268 -1295v0h-99h-100v0zM883 1613l-146 290h163l96 -190v0l175 190h164l-266 -290h-93h-93z" />
    <glyph glyph-name="tcaron" unicode="&#x165;" horiz-adv-x="755" 
d="M520 0q-91 -13 -137 -13q-115 0 -154.5 57.5t-13.5 186.5l144 692v0h-141l30 149h141v0l63 300h181l-63 -300v0h171l-30 -149h-171v0l-144 -692q-9 -46 13.5 -68t78.5 -22h61zM848 1367l20 99h95h95l-35 -170q-29 -141 -91 -217t-166 -100v0l15 75v0q62 6 97 65
q30 49 53 148v0h-9h-95z" />
    <glyph glyph-name="Umacron" unicode="&#x16a;" horiz-adv-x="1479" 
d="M1424 514q-53 -255 -245.5 -404.5t-469.5 -149.5q-260 0 -377 147q-80 101 -80 254q0 71 17 153l198 956v0h99h100v0l-190 -919q-17 -80 -17 -145q0 -106 45 -169q70 -102 263 -102q181 0 302 108t163 308l190 919v0h100h100v0zM787 1738h622l-25 -125h-622z" />
    <glyph glyph-name="umacron" unicode="&#x16b;" 
d="M538 1072l-146 -708q-24 -116 15.5 -176.5t139.5 -60.5q157 0 253.5 105t141.5 323v0l107 517v0h90h91v0l-221 -1072v0h-86h-86v0l34 168v0v0q-26 -33 -53 -60q-138 -137 -318 -137q-185 0 -259 93q-49 60 -48 161q0 53 13 116l151 731v0h90h91v0zM538 1340h622l-25 -125
h-622z" />
    <glyph glyph-name="Uring" unicode="&#x16e;" horiz-adv-x="1479" 
d="M1424 514q-53 -255 -245.5 -404.5t-469.5 -149.5q-260 0 -377 147q-80 101 -80 254q0 71 17 153l198 956v0h99h100v0l-190 -919q-17 -80 -17 -145q0 -106 45 -169q70 -102 263 -102q181 0 302 108t163 308l190 919v0h100h100v0zM1079 1531q-79 0 -123 54.5t-28 133.5
q17 79 82.5 133.5t144.5 54.5t122.5 -54.5t26.5 -133.5q-16 -79 -81 -133.5t-144 -54.5v0zM1095 1613q45 0 81.5 30.5t45.5 75.5q10 45 -14.5 75.5t-69.5 30.5t-81.5 -30.5t-46.5 -75.5q-9 -45 15.5 -75.5t69.5 -30.5v0z" />
    <glyph glyph-name="uring" unicode="&#x16f;" 
d="M538 1072l-146 -708q-24 -116 15.5 -176.5t139.5 -60.5q157 0 253.5 105t141.5 323v0l107 517v0h90h91v0l-221 -1072v0h-86h-86v0l34 168v0v0q-26 -33 -53 -60q-138 -137 -318 -137q-185 0 -259 93q-49 60 -48 161q0 53 13 116l151 731v0h90h91v0zM804 1171
q-79 0 -122.5 54.5t-27.5 133.5q17 79 82.5 133.5t144.5 54.5t122.5 -54.5t26.5 -133.5q-16 -79 -81.5 -133.5t-144.5 -54.5v0zM820 1253q45 0 82 30.5t46 75.5q10 45 -14.5 75.5t-69.5 30.5t-81.5 -30.5t-46.5 -75.5q-9 -45 15 -75.5t69 -30.5v0z" />
    <glyph glyph-name="Uhungarumlaut" unicode="&#x170;" horiz-adv-x="1479" 
d="M1424 514q-53 -255 -245.5 -404.5t-469.5 -149.5q-260 0 -377 147q-80 101 -80 254q0 71 17 153l198 956v0h99h100v0l-190 -919q-17 -80 -17 -145q0 -106 45 -169q70 -102 263 -102q181 0 302 108t163 308l190 919v0h100h100v0zM769 1613l246 289h218l-327 -289h-137z
M1142 1613l246 289h218l-327 -289h-137z" />
    <glyph glyph-name="uhungarumlaut" unicode="&#x171;" 
d="M538 1072l-146 -708q-24 -116 15.5 -176.5t139.5 -60.5q157 0 253.5 105t141.5 323v0l107 517v0h90h91v0l-221 -1072v0h-86h-86v0l34 168v0v0q-26 -33 -53 -60q-138 -137 -318 -137q-185 0 -259 93q-49 60 -48 161q0 53 13 116l151 731v0h90h91v0zM532 1215l246 289h218
l-327 -289h-137zM905 1215l246 289h218l-327 -289h-137z" />
    <glyph glyph-name="Uogonek" unicode="&#x172;" horiz-adv-x="1479" 
d="M1424 514q-53 -255 -245.5 -404.5t-469.5 -149.5q-260 0 -377 147q-80 101 -80 254q0 71 17 153l198 956v0h99h100v0l-190 -919q-17 -80 -17 -145q0 -106 45 -169q70 -102 263 -102q181 0 302 108t163 308l190 919v0h100h100v0zM529 -273q20 95 94.5 168.5t181.5 104.5
h160q-139 -62 -198.5 -117.5t-77.5 -139.5q-11 -54 10 -80t77 -26q29 0 66.5 7.5t74.5 21.5l18 -82q-54 -21 -111 -34q-55 -12 -94 -12q-108 0 -163 52q-56 52 -38 137z" />
    <glyph glyph-name="uogonek" unicode="&#x173;" 
d="M538 1072l-146 -708q-24 -116 15.5 -176.5t139.5 -60.5q157 0 253.5 105t141.5 323v0l107 517v0h90h91v0l-221 -1072v0h-86h-86v0l34 168v0v0q-26 -33 -53 -60q-138 -137 -318 -137q-185 0 -259 93q-49 60 -48 161q0 53 13 116l151 731v0h90h91v0zM584 -273
q20 95 94.5 168.5t181.5 104.5h160q-139 -62 -198.5 -117.5t-77.5 -139.5q-11 -54 10 -80t77 -26q29 0 66.5 7.5t74.5 21.5l18 -82q-54 -21 -111 -34q-55 -12 -94 -12q-108 0 -163 52q-56 52 -38 137z" />
    <glyph glyph-name="Ydieresis" unicode="&#x178;" horiz-adv-x="1366" 
d="M703 598v0l-361 872v0h116h117v0l271 -701v0l574 701v0h115h116v0l-752 -888v0l-120 -582h-99h-100zM831 1845h186l-44 -209h-186zM1163 1845h186l-44 -209h-186z" />
    <glyph glyph-name="Zacute" unicode="&#x179;" horiz-adv-x="1251" 
d="M81 165l1140 1130v0h-829v0l19 87l20 88v0h1082l-17 -82l-17 -83l-1141 -1130v0h900v0l-19 -87l-20 -88v0h-1152l16 82zM929 1613l246 289h218l-327 -289h-137z" />
    <glyph glyph-name="zacute" unicode="&#x17a;" horiz-adv-x="1024" 
d="M93 147l813 776v0h-589v0l15 74l15 75v0h818l-15 -73l-15 -74l-806 -776v0h663v0l-15 -74l-15 -75v0h-899l15 73zM698 1215l246 289h218l-327 -289h-137z" />
    <glyph glyph-name="Zdotaccent" unicode="&#x17b;" horiz-adv-x="1251" 
d="M81 165l1140 1130v0h-829v0l19 87l20 88v0h1082l-17 -82l-17 -83l-1141 -1130v0h900v0l-19 -87l-20 -88v0h-1152l16 82zM956 1844h186l-43 -209h-186z" />
    <glyph glyph-name="zdotaccent" unicode="&#x17c;" horiz-adv-x="1024" 
d="M93 147l813 776v0h-589v0l15 74l15 75v0h818l-15 -73l-15 -74l-806 -776v0h663v0l-15 -74l-15 -75v0h-899l15 73zM741 1446h186l-43 -209h-186z" />
    <glyph glyph-name="Zcaron" unicode="&#x17d;" horiz-adv-x="1251" 
d="M81 165l1140 1130v0h-829v0l19 87l20 88v0h1082l-17 -82l-17 -83l-1141 -1130v0h900v0l-19 -87l-20 -88v0h-1152l16 82zM920 1613l-146 290h163l96 -190v0l175 190h164l-266 -290h-93h-93z" />
    <glyph glyph-name="zcaron" unicode="&#x17e;" horiz-adv-x="1024" 
d="M93 147l813 776v0h-589v0l15 74l15 75v0h818l-15 -73l-15 -74l-806 -776v0h663v0l-15 -74l-15 -75v0h-899l15 73zM694 1215l-146 290h163l96 -190v0l175 190h164l-266 -290h-93h-93z" />
    <glyph glyph-name="florin" unicode="&#x192;" 
d="M820 804v0l-313 -791q-80 -203 -200.5 -318t-253.5 -115q-97 0 -158 29l66 155q31 -24 119 -23q74 0 138 80t135 260l286 723v0h-221l29 139h247v0l96 242q60 153 166.5 240t233.5 87q93 0 152 -28l-68 -159q1 4 -3 5q-28 21 -109 21q-67 0 -118 -55t-101 -180l-68 -173
v0h236l-29 -139h-262z" />
    <glyph glyph-name="circumflex" unicode="&#x2c6;" horiz-adv-x="682" 
d="M753 1505l146 -290h-163l-97 190v0l-174 -190h-164l266 290h93h93z" />
    <glyph glyph-name="caron" unicode="&#x2c7;" horiz-adv-x="682" 
d="M508 1215l-146 290h163l97 -190v0l174 190h164l-266 -290h-93h-93z" />
    <glyph glyph-name="uni02C9" unicode="&#x2c9;" horiz-adv-x="682" 
d="M306 1340h622l-26 -125h-622z" />
    <glyph glyph-name="breve" unicode="&#x2d8;" horiz-adv-x="682" 
d="M557 1218q-136 0 -195.5 66.5t-52.5 211.5h101q10 -87 53.5 -124t134.5 -37q88 0 149.5 41t93.5 120h99q-37 -131 -138.5 -204.5t-244.5 -73.5z" />
    <glyph glyph-name="dotaccent" unicode="&#x2d9;" horiz-adv-x="682" 
d="M521 1446h186l-43 -209h-186z" />
    <glyph glyph-name="ring" unicode="&#x2da;" horiz-adv-x="682" 
d="M587 1171q-79 0 -122 54.5t-27 133.5t82 133.5t145 54.5t122 -54.5t27 -133.5t-83 -134q-65 -54 -144 -54v0zM604 1253q45 0 82 30.5t46 75.5t-15 75.5t-69 30.5t-83 -31q-36 -30 -45 -75t15 -75.5t69 -30.5v0z" />
    <glyph glyph-name="ogonek" unicode="&#x2db;" horiz-adv-x="682" 
d="M100 -273q20 95 94.5 168.5t181.5 104.5h160q-139 -62 -198.5 -117.5t-77.5 -139.5q-11 -54 10 -80t77 -26q29 0 66.5 7.5t74.5 21.5l18 -82q-54 -21 -111 -34q-55 -12 -94 -12q-108 0 -163 52q-56 52 -38 137z" />
    <glyph glyph-name="tilde" unicode="&#x2dc;" horiz-adv-x="682" 
d="M256 1237q26 97 96.5 156t160.5 59q27 0 71 -11.5t81 -28.5q31 -14 65 -23.5t53 -9.5q40 0 71.5 24t45.5 65h102q-24 -90 -96.5 -152.5t-153.5 -62.5q-25 0 -71 12t-89 29q-32 13 -67 22.5t-53 9.5q-39 0 -73.5 -26t-44.5 -63h-98z" />
    <glyph glyph-name="hungarumlaut" unicode="&#x2dd;" horiz-adv-x="682" 
d="M276 1215l247 289h218l-328 -289h-137zM649 1215l247 289h218l-328 -289h-137z" />
    <glyph glyph-name="pi" unicode="&#x3c0;" horiz-adv-x="1246" 
d="M112 692q91 160 171.5 213.5t229.5 53.5l338 1q90 0 191 2.5t146 6.5l-30 -164h-301q-32 -171 -29 -326t43 -334q22 -99 7 -134.5t-78 -35.5q-64 0 -97.5 59t-33.5 172q0 95 23 233t78 366h-148l-116 -652q-18 -105 -45 -141.5t-86 -36.5q-66 0 -76.5 45t28.5 165
l211 620h-94q-75 0 -130.5 -31.5t-140.5 -121.5z" />
    <glyph glyph-name="endash" unicode="&#x2013;" 
d="M137 642h1138l-33 -148h-1138z" />
    <glyph glyph-name="emdash" unicode="&#x2014;" horiz-adv-x="2048" 
d="M137 642h2048l-33 -148h-2048z" />
    <glyph glyph-name="quoteleft" unicode="&#x2018;" horiz-adv-x="455" 
d="M571 1071l-22 -107h-106h-105l38 182q32 154 97.5 232t187.5 106v0l-20 -97v0q-67 -7 -104 -66q-27 -45 -52 -142h3h106z" />
    <glyph glyph-name="quoteright" unicode="&#x2019;" horiz-adv-x="455" 
d="M399 1362l22 107h106h105l-38 -182q-32 -154 -97.5 -232t-187.5 -106v0l20 97v0q67 7 104 66q27 45 52 142h-3h-106z" />
    <glyph glyph-name="quotesinglbase" unicode="&#x201a;" horiz-adv-x="455" 
d="M132 108l22 107h106h105l-38 -182q-31 -154 -96.5 -232t-187.5 -106v0l20 97v0q67 7 104 66q27 44 52 142h-3h-106z" />
    <glyph glyph-name="quotedblleft" unicode="&#x201c;" horiz-adv-x="682" 
d="M516 1071l-22 -107h-106h-105l38 182q32 154 97.5 232t187.5 106v0l-20 -97v0q-67 -7 -104 -66q-27 -45 -52 -142h3h106zM858 1071l-22 -107h-106h-105l38 182q32 154 97.5 232t187.5 106v0l-20 -97v0q-67 -7 -104 -66q-27 -45 -52 -142h3h106z" />
    <glyph glyph-name="quotedblright" unicode="&#x201d;" horiz-adv-x="682" 
d="M344 1362l22 107h106h105l-38 -182q-32 -154 -97.5 -232t-187.5 -106v0l20 97v0q67 7 104 66q27 45 52 142h-3h-106zM686 1362l22 107h106h105l-38 -182q-32 -154 -97.5 -232t-187.5 -106v0l20 97v0q67 7 104 66q27 45 52 142h-3h-106z" />
    <glyph glyph-name="quotedblbase" unicode="&#x201e;" horiz-adv-x="682" 
d="M78 108l22 107h106h105l-38 -182q-31 -154 -96.5 -232t-187.5 -106v0l20 97v0q67 7 104 66q27 44 52 142h-3h-106zM420 108l22 107h106h105l-38 -182q-31 -154 -96.5 -232t-187.5 -106v0l20 97v0q67 7 104 66q27 44 52 142h-3h-106z" />
    <glyph glyph-name="dagger" unicode="&#x2020;" 
d="M308 1040h390v0l89 430h193l-89 -430v0h392l-32 -156h-392v0l-249 -1204h-193l249 1204v0h-390z" />
    <glyph glyph-name="daggerdbl" unicode="&#x2021;" 
d="M305 1056h391v0l86 414h191l-86 -414v0h393l-33 -158h-393v0l-134 -648v0h393l-32 -156h-393v0l-85 -414h-191l85 414v0h-391l32 156h391v0l134 648v0h-391z" />
    <glyph glyph-name="bullet" unicode="&#x2022;" horiz-adv-x="717" 
d="M571 1059q136 0 211.5 -93.5t49.5 -229.5t-137.5 -229.5t-247.5 -93.5t-211.5 93.5t-49.5 229.5t137.5 229.5t247.5 93.5z" />
    <glyph glyph-name="ellipsis" unicode="&#x2026;" horiz-adv-x="2048" 
d="M281 218h214l-45 -218h-214zM961 218h214l-45 -218h-214zM1642 218h214l-45 -218h-214z" />
    <glyph glyph-name="perthousand" unicode="&#x2030;" horiz-adv-x="2048" 
d="M509 786q-114 0 -186 72.5t-72 186.5q0 152 117.5 266t273.5 114q115 0 187.5 -70.5t72.5 -181.5q0 -155 -118 -271t-275 -116v0zM615 1297q-92 0 -161.5 -68.5t-69.5 -159.5q0 -68 42.5 -111.5t109.5 -43.5q93 0 162.5 70t69.5 163q0 66 -43 108t-110 42v0zM180 -34
l1140 1474h115l-1140 -1474h-115zM974 -6q-114 0 -186.5 72.5t-72.5 186.5q0 152 117.5 266t273.5 114q115 0 187.5 -70.5t72.5 -181.5q0 -155 -117.5 -271t-274.5 -116v0zM1079 505q-92 0 -161.5 -68.5t-69.5 -159.5q0 -68 42.5 -111.5t109.5 -43.5q93 0 162.5 70t69.5 163
q0 66 -43 108t-110 42v0zM1719 -6q-114 0 -186.5 72.5t-72.5 186.5q0 152 117.5 266t273.5 114q115 0 187.5 -70.5t72.5 -181.5q0 -155 -117.5 -271t-274.5 -116v0zM1824 505q-92 0 -161.5 -68.5t-69.5 -159.5q0 -68 42.5 -111.5t109.5 -43.5q93 0 162.5 70t69.5 163
q0 66 -43 108t-110 42v0z" />
    <glyph glyph-name="guilsinglleft" unicode="&#x2039;" horiz-adv-x="682" 
d="M656 734l-250 -167v0l180 -168l-36 -176l-269 250l20 94l19 94l372 249z" />
    <glyph glyph-name="guilsinglright" unicode="&#x203a;" horiz-adv-x="682" 
d="M263 399l250 167v0l-180 168l36 176l268 -250l-19 -94l-20 -94l-371 -249z" />
    <glyph glyph-name="fraction" unicode="&#x2044;" horiz-adv-x="342" 
d="M1003 1441l-1233 -1485h-117l1233 1485h117z" />
    <glyph glyph-name="uni2074" unicode="&#x2074;" horiz-adv-x="682" 
d="M582 757h-420l13 63l13 63l561 528h61h62l-113 -545v0h101l-23 -109h-101v0l-38 -184h-154l38 184v0zM605 866v0l67 325v0v0l-327 -308l-18 -17v0h278z" />
    <glyph glyph-name="Euro" unicode="&#x20ac;" 
d="M1198 437v0q-88 -242 -223 -359q-133 -116 -324 -116q-177 0 -275 122.5t-98 344.5v34h-158l73 175h99q7 60 19 114h-131l72 175h110q45 120 113 220q197 293 481 293q182 0 274 -117q83 -104 83 -291l-1 -44v0h-195v0q7 134 -44.5 206.5t-152.5 72.5q-180 0 -310 -243
q-26 -46 -46 -97h427l-72 -175h-409q-11 -54 -18 -114h381l-73 -175h-319v-18q0 -149 52.5 -229.5t151.5 -80.5q100 0 182.5 78.5t135.5 223.5v0h195z" />
    <glyph glyph-name="trademark" unicode="&#x2122;" horiz-adv-x="2048" 
d="M488 625l150 723v0h-257v0l12 61l13 61v0h664v0l-13 -61l-12 -61v0h-256v0l-150 -723v0h-75h-76v0zM1194 625v0h-74h-74v0l175 845v0h117h117v0l106 -629v0v0l362 629v0h113h114v0l-175 -845v0h-73h-73v0l150 710v0l-413 -710h-54h-54l-116 713v0z" />
    <glyph glyph-name="Omega" unicode="&#x2126;" horiz-adv-x="1246" 
d="M599 0h-413l-74 410l74 12q33 -138 61.5 -171t114.5 -36h79q-32 61 -89.5 161t-109.5 184q-65 106 -103 211.5t-38 180.5q0 209 149.5 334.5t403.5 129.5q241 0 397.5 -129t156.5 -328q0 -79 -37.5 -185t-103.5 -214q-38 -62 -95.5 -162t-103.5 -183h79q75 -1 112 42.5
t64 164.5l73 -12l-74 -410h-412q122 338 129.5 361t30.5 97q46 148 70.5 276.5t24.5 217.5q0 162 -86.5 266.5t-224.5 108.5q-138 -4 -224 -107t-86 -265q0 -78 27.5 -222t67.5 -275q24 -77 70 -209.5t90 -248.5z" />
    <glyph glyph-name="partialdiff" unicode="&#x2202;" horiz-adv-x="1020" 
d="M81 385q0 234 139.5 416.5t317.5 182.5q48 0 96.5 -16t104.5 -50q21 190 -16.5 302t-122.5 112q-28 0 -60.5 -28.5t-51.5 -70.5q-29 -63 -49.5 -82.5t-60.5 -19.5q-60 0 -86.5 49t2.5 106q32 62 104.5 105t146.5 43q196 0 294 -155t97 -465q0 -372 -145.5 -609
t-372.5 -237q-148 0 -242.5 117t-94.5 300zM271 324q0 -114 44 -193t108 -79q108 0 184 178t76 431q0 120 -39 180t-117 60q-107 0 -181.5 -167.5t-74.5 -409.5z" />
    <glyph glyph-name="Delta" unicode="&#x2206;" horiz-adv-x="1360" 
d="M740 1391l582 -1391h-1285zM667 1077l-446 -883h799z" />
    <glyph glyph-name="product" unicode="&#x220f;" horiz-adv-x="2039" 
d="M197 -315v65q151 17 197.5 88.5t46.5 289.5v901q3 217 -43.5 288.5t-200.5 88.5v65h1645v-65q-151 -17 -197.5 -88.5t-46.5 -288.5v-901q0 -218 46.5 -289.5t197.5 -88.5v-65h-704v65q157 17 202 87t42 291v1262h-725v-1262q0 -218 46.5 -289.5t197.5 -88.5v-65h-704z
" />
    <glyph glyph-name="summation" unicode="&#x2211;" horiz-adv-x="2039" 
d="M416 -315l491 838l-482 948h1119l46 -366l-70 -14l-17 39q-54 142 -142.5 200.5t-250.5 58.5h-403l370 -740l-451 -756h524q138 0 219 51t149 180l22 41l70 -21l-117 -459h-1077z" />
    <glyph glyph-name="minus" unicode="&#x2212;" horiz-adv-x="1196" 
d="M215 593h1036l-31 -150h-1036z" />
    <glyph glyph-name="uni2215" unicode="&#x2215;" horiz-adv-x="342" 
d="M1003 1441l-1233 -1485h-117l1233 1485h117z" />
    <glyph glyph-name="uni2219" unicode="&#x2219;" horiz-adv-x="569" 
d="M355 834h214l-45 -220h-214z" />
    <glyph glyph-name="radical" unicode="&#x221a;" horiz-adv-x="1473" 
d="M56 438l298 194l506 -750l480 1647h382v-86h-281l-553 -1817h-74l-570 821l-145 -105z" />
    <glyph glyph-name="infinity" unicode="&#x221e;" horiz-adv-x="2039" 
d="M283 569q0 179 116.5 302t285.5 123q122 0 210.5 -60.5t175.5 -202.5q74 109 157.5 163t177.5 54q153 0 250.5 -105.5t97.5 -271.5q0 -162 -97 -269t-243 -107q-105 0 -189 56.5t-135 161.5q-106 -156 -186.5 -210t-206.5 -54q-174 0 -294 122t-120 298zM394 567
q0 -107 69 -181t169 -74q109 0 193.5 73t159.5 232q-63 113 -137.5 163.5t-180.5 50.5q-115 0 -194 -76.5t-79 -187.5zM1643 569q0 97 -59.5 156.5t-157.5 59.5q-84 0 -146 -50.5t-122 -168.5q41 -100 111.5 -154t159.5 -54q98 0 156 57t58 154z" />
    <glyph glyph-name="integral" unicode="&#x222b;" horiz-adv-x="2039" 
d="M752 -319q0 42 27.5 72.5t65.5 30.5q35 0 60 -25.5t25 -61.5l-9 -60q-1 -9 6 -15.5t19 -6.5q52 -1 69.5 87t-7.5 222q-36 191 -69 425t-45 383q-33 427 23 632t206 205q66 0 112 -42t46 -102q0 -52 -23.5 -78t-70.5 -26q-42 0 -63 19t-21 58q0 10 16 72q2 8 -5.5 14
t-20.5 6q-77 0 -80 -130.5t65 -491.5q54 -284 68 -600.5t-19 -491.5q-23 -120 -74.5 -180t-131.5 -60q-71 0 -120 42t-49 103z" />
    <glyph glyph-name="approxequal" unicode="&#x2248;" horiz-adv-x="2039" 
d="M414 275q57 100 157 169.5t188 69.5q55 0 150 -21.5t216 -60.5q68 -22 146.5 -37t123.5 -15q60 0 132 35.5t116 86.5l37 -22q-48 -115 -136 -182.5t-190 -67.5q-31 0 -105 14t-150 35q-162 44 -254.5 64.5t-130.5 20.5q-64 0 -142 -35t-127 -86zM414 626
q57 100 157 169.5t188 69.5q55 0 150 -21.5t216 -60.5q68 -22 146.5 -37t123.5 -15q60 0 132 35.5t116 86.5l37 -22q-48 -115 -136 -182.5t-190 -67.5q-31 0 -105 14t-150 35q-162 44 -254.5 64.5t-130.5 20.5q-64 0 -142 -35t-127 -86z" />
    <glyph glyph-name="notequal" unicode="&#x2260;" horiz-adv-x="2039" 
d="M410 -93l318 372h-321v135h437l236 276h-673v135h788l317 367h164l-315 -367h312v-135h-427l-236 -276h663v-135h-779l-318 -372h-166z" />
    <glyph glyph-name="lessequal" unicode="&#x2264;" horiz-adv-x="2039" 
d="M1683 1235v-135l-1063 -410l1063 -309v-135l-1266 377v135zM417 135h1266v-135h-1266v135z" />
    <glyph glyph-name="greaterequal" unicode="&#x2265;" horiz-adv-x="2039" 
d="M417 1235l1266 -477v-135l-1266 -377v135l1063 309l-1063 410v135zM417 135h1266v-135h-1266v135z" />
    <glyph glyph-name="lozenge" unicode="&#x25ca;" horiz-adv-x="1171" 
d="M530 1423h110l404 -712l-404 -711h-110l-404 711zM585 1324l-349 -613l349 -615l349 615z" />
    <glyph glyph-name="uniEFED" unicode="&#xefed;" horiz-adv-x="682" 
d="M593 1844h186l-43 -209h-186z" />
    <glyph glyph-name="uniEFEE" unicode="&#xefee;" horiz-adv-x="682" 
d="M637 1627q-136 0 -195.5 66.5t-52.5 211.5h101q10 -87 53.5 -124t134.5 -37q88 0 149.5 41t93.5 120h99q-37 -131 -138.5 -204.5t-244.5 -73.5z" />
    <glyph glyph-name="uniEFEF" unicode="&#xefef;" horiz-adv-x="682" 
d="M336 1738h622l-25 -125h-622z" />
    <glyph glyph-name="uniEFF0" unicode="&#xeff0;" horiz-adv-x="682" 
d="M286 1613l246 289h218l-327 -289h-137zM659 1613l246 289h218l-327 -289h-137z" />
    <glyph glyph-name="uniEFF1" unicode="&#xeff1;" horiz-adv-x="682" 
d="M100 -273q20 95 94.5 168.5t181.5 104.5h160q-139 -62 -198.5 -117.5t-77.5 -139.5q-11 -54 10 -80t77 -26q29 0 66.5 7.5t74.5 21.5l18 -82q-54 -21 -111 -34q-55 -12 -94 -12q-108 0 -163 52q-56 52 -38 137z" />
    <glyph glyph-name="uniEFF2" unicode="&#xeff2;" horiz-adv-x="682" 
d="M390 2l-121 -129v0l64 9q80 0 117 -41t22 -113q-17 -83 -95.5 -136t-184.5 -53q-37 0 -89.5 13t-98.5 33l51 83q30 -14 65.5 -22.5t61.5 -8.5q59 0 91.5 21t41.5 65q6 30 -19 54.5t-62 24.5q-11 0 -33.5 -4.5t-47.5 -11.5l-25 38l167 178h95z" />
    <glyph glyph-name="uniEFF3" unicode="&#xeff3;" horiz-adv-x="682" 
d="M588 1531q-79 0 -122.5 54.5t-27.5 133.5q17 79 82.5 133.5t144.5 54.5t122.5 -54.5t26.5 -133.5q-16 -79 -81.5 -133.5t-144.5 -54.5v0zM605 1613q45 0 81.5 30.5t45.5 75.5q10 45 -14.5 75.5t-69.5 30.5t-81.5 -30.5t-46.5 -75.5q-9 -45 15.5 -75.5t69.5 -30.5v0z" />
    <glyph glyph-name="uniEFF4" unicode="&#xeff4;" horiz-adv-x="682" 
d="M508 1613l-146 290h163l96 -190v0l175 190h164l-266 -290h-93h-93z" />
    <glyph glyph-name="uniEFF5" unicode="&#xeff5;" horiz-adv-x="682" 
d="M256 1635q26 97 97 156t161 59q26 0 70 -11.5t81 -28.5q30 -14 64.5 -23.5t53.5 -9.5q40 0 71.5 24t45.5 65h102q-24 -90 -96.5 -152.5t-153.5 -62.5q-25 0 -71 12t-88 29q-32 13 -67 22.5t-53 9.5q-39 0 -73.5 -26t-45.5 -63h-98z" />
    <glyph glyph-name="uniEFF6" unicode="&#xeff6;" horiz-adv-x="682" 
d="M388 1845h186l-44 -209h-186zM720 1845h186l-44 -209h-186z" />
    <glyph glyph-name="uniEFF7" unicode="&#xeff7;" horiz-adv-x="682" 
d="M753 1903l146 -290h-163l-97 190v0l-174 -190h-164l266 290h93h93z" />
    <glyph glyph-name="uniEFF8" unicode="&#xeff8;" horiz-adv-x="682" 
d="M552 1613l-204 289h220l122 -289h-138z" />
    <glyph glyph-name="uniEFF9" unicode="&#xeff9;" horiz-adv-x="682" 
d="M508 1613l246 289h218l-327 -289h-137z" />
    <glyph glyph-name="uniF001" unicode="&#xf001;" horiz-adv-x="1024" 
d="M548 923v0l-191 -923v0h-90h-91v0l191 923v0h-141l30 149h141v0l35 168q27 131 110 192t235 61q46 0 80 -6l-40 -159q0 4 -72 4q-60 0 -93.5 -34t-49.5 -111l-24 -115v0h193l-30 -149h-193zM714 0l221 1072v0h90h91v0l-221 -1072v0h-90h-91v0zM1021 1470h182l-42 -203
h-182z" />
    <glyph glyph-name="uniF002" unicode="&#xf002;" horiz-adv-x="1024" 
d="M548 923v0l-191 -923v0h-90h-91v0l191 923v0h-141l30 149h141v0l35 168q27 131 110 192t235 61q45 0 80 -6l-40 -159q0 4 -72 4q-60 0 -93.5 -34t-49.5 -111l-24 -115v0h193l-30 -149h-193zM711 0l304 1470v0h90h91v0l-304 -1470v0h-90h-91v0z" />
    <glyph glyph-name="uniFB01" unicode="&#xfb01;" horiz-adv-x="1024" 
d="M548 923v0l-191 -923v0h-90h-91v0l191 923v0h-141l30 149h141v0l35 168q27 131 110 192t235 61q46 0 80 -6l-40 -159q0 4 -72 4q-60 0 -93.5 -34t-49.5 -111l-24 -115v0h193l-30 -149h-193zM714 0l221 1072v0h90h91v0l-221 -1072v0h-90h-91v0zM1021 1470h182l-42 -203
h-182z" />
    <glyph glyph-name="glyph106" horiz-adv-x="0" 
d="M311 1506q337 0 515.5 -220.5t109.5 -552.5q-68 -332 -338 -553q-268 -220 -606 -220t-516 220.5t-110 552.5q69 332 338.5 552.5t606.5 220.5v0zM779 733q58 277 -83 461t-411 184t-487 -184t-275 -461q-57 -277 84 -461t411 -184t487 184t274 461v0z" />
    <glyph glyph-name="glyph107" horiz-adv-x="0" 
d="M520 594v0q-63 -159 -178 -245.5t-263 -86.5q-171 0 -269.5 96t-98.5 263q0 246 163.5 415.5t399.5 169.5q147 0 227 -81.5t80 -231.5v0h-137v0q0 85 -51.5 131.5t-146.5 46.5q-154 0 -265 -125.5t-111 -299.5q0 -116 63.5 -182.5t173.5 -66.5q95 0 166.5 51t109.5 146v0
h137z" />
    <glyph glyph-name="glyph113" horiz-adv-x="0" 
d="M311 1506q337 0 515.5 -220.5t109.5 -552.5q-68 -332 -338 -553q-268 -220 -606 -220t-516 220.5t-110 552.5q69 332 338.5 552.5t606.5 220.5v0zM779 733q58 277 -83 461t-411 184t-487 -184t-275 -461q-57 -277 84 -461t411 -184t487 184t274 461v0z" />
    <glyph glyph-name="glyph114" horiz-adv-x="0" 
d="M-268 288l186 896v0h68v0h294q122 0 188.5 -50.5t66.5 -141.5v-3q0 -136 -102 -223q-79 -66 -196 -83v0l175 -395v0h-76h-77v0l-155 391v0l-154 -1v0l-81 -390v0h-68h-69v0zM-26 792v0h176q120 0 182 46t62 135q0 47 -45 72.5t-127 25.5h-191v0z" />
    <glyph glyph-name="glyph130" horiz-adv-x="682" 
d="M432 573l124 598v0l-216 6l21 98q79 -5 161 42q83 47 128 123h107v0l-180 -867v0h-72h-73v0z" />
    <glyph glyph-name="glyph131" horiz-adv-x="682" 
d="M582 757h-420l13 63l13 63l561 528h61h62l-113 -545v0h101l-23 -109h-101v0l-38 -184h-154l38 184v0zM605 866v0l67 325v0v0l-327 -308l-18 -17v0h278z" />
    <glyph glyph-name="glyph133" horiz-adv-x="682" 
d="M432 573l124 598v0l-216 6l21 98q79 -5 161 42q83 47 128 123h107v0l-180 -867v0h-72h-73v0z" />
    <glyph glyph-name="glyph134" horiz-adv-x="682" 
d="M915 1228v-6q0 -109 -76 -185.5t-290 -175.5q-146 -67 -207 -128q-15 -15 -28 -34v0h496l-26 -126h-653v0q29 140 112.5 224t285.5 177q143 66 194 117t50 128q0 52 -38 78t-114 26q-85 0 -141.5 -51t-75.5 -146v0h-126v0q31 151 131.5 232.5t255.5 81.5q113 0 182 -58
q68 -58 68 -154z" />
    <glyph glyph-name="glyph136" horiz-adv-x="682" 
d="M736 1221q0 47 -37.5 74t-102.5 27q-72 0 -124.5 -45t-69.5 -121v0h-126v0q31 139 121.5 211.5t234.5 72.5q117 0 186.5 -49.5t69.5 -132.5q0 -117 -96 -188q-30 -23 -68 -38v0l47 -21q70 -42 70 -128q1 -139 -112.5 -234.5t-277.5 -95.5q-154 0 -221 71t-46 213v0h139v0
q-13 -87 23 -127t127 -40q99 0 160 53t61 140q1 51 -38 74t-123 23h-70l23 108h52q90 0 144 42t54 111z" />
    <glyph glyph-name="glyph137" horiz-adv-x="682" 
d="M582 757h-420l13 63l13 63l561 528h61h62l-113 -545v0h101l-23 -109h-101v0l-38 -184h-154l38 184v0zM605 866v0l67 325v0v0l-327 -308l-18 -17v0h278z" />
    <glyph glyph-name="glyph140" horiz-adv-x="0" 
d="M-29 0l-204 289h220l122 -289h-138z" />
    <glyph glyph-name="glyph142" horiz-adv-x="0" 
d="M-73 0l246 289h218l-327 -289h-137z" />
    <glyph glyph-name="glyph144" horiz-adv-x="0" 
d="M170 290l146 -290h-163l-97 190v0l-174 -190h-164l266 290h93h93z" />
    <glyph glyph-name="glyph146" horiz-adv-x="0" 
d="M-332 22q26 97 97 156t161 59q26 0 70 -11.5t81 -28.5q30 -14 64.5 -23.5t53.5 -9.5q40 0 71.5 24t45.5 65h102q-24 -90 -96.5 -152.5t-153.5 -62.5q-25 0 -71 12t-88 29q-32 13 -67.5 22.5t-53.5 9.5q-39 0 -73 -26t-45 -63h-98z" />
    <glyph glyph-name="glyph148" horiz-adv-x="0" 
d="M-195 232h186l-44 -209h-186zM137 232h186l-44 -209h-186z" />
    <glyph glyph-name="glyph150" horiz-adv-x="0" 
d="M6 -82q-79 0 -123 54.5t-28 133.5q17 79 82.5 133.5t144.5 54.5t122.5 -54.5t26.5 -133.5q-16 -79 -81 -133.5t-144 -54.5v0zM22 0q45 0 81.5 30.5t45.5 75.5q10 45 -14.5 75.5t-69.5 30.5t-81.5 -30.5t-46.5 -75.5q-9 -45 15.5 -75.5t69.5 -30.5v0z" />
    <glyph glyph-name="glyph153" horiz-adv-x="0" 
d="M17 2l-121 -129v0l64 9q80 0 117 -41t22 -113q-17 -83 -95.5 -136t-184.5 -53q-37 0 -89.5 13t-98.5 33l51 83q30 -14 65.5 -22.5t61.5 -8.5q59 0 91.5 21t41.5 65q6 30 -19 54.5t-62 24.5q-11 0 -33.5 -4.5t-47.5 -11.5l-25 38l167 178h95z" />
    <glyph glyph-name="glyph179" horiz-adv-x="0" 
d="M-29 0l-204 289h220l122 -289h-138z" />
    <glyph glyph-name="glyph181" horiz-adv-x="0" 
d="M-89 0l246 289h218l-327 -289h-137z" />
    <glyph glyph-name="glyph183" horiz-adv-x="0" 
d="M153 290l146 -290h-163l-97 190v0l-174 -190h-164l266 290h93h93z" />
    <glyph glyph-name="glyph185" horiz-adv-x="0" 
d="M-345 22q26 97 97 156t161 59q27 0 71 -11.5t80 -28.5q31 -14 65 -23.5t53 -9.5q40 0 71.5 24t45.5 65h102q-24 -90 -96.5 -152.5t-153.5 -62.5q-25 0 -71 12t-88 29q-32 13 -67.5 22.5t-53.5 9.5q-39 0 -73 -26t-45 -63h-98z" />
    <glyph glyph-name="glyph187" horiz-adv-x="0" 
d="M-195 232h186l-44 -209h-186zM137 232h186l-44 -209h-186z" />
    <glyph glyph-name="glyph189" horiz-adv-x="0" 
d="M24 -44q-79 0 -122.5 54.5t-27.5 133.5q17 79 82.5 133.5t144.5 54.5t122.5 -54.5t26.5 -133.5q-16 -79 -81.5 -133.5t-144.5 -54.5v0zM40 38q45 0 82 30.5t46 75.5q10 45 -14.5 75.5t-69.5 30.5t-81.5 -30.5t-46.5 -75.5q-9 -45 15 -75.5t69 -30.5v0z" />
    <glyph glyph-name="glyph192" horiz-adv-x="0" 
d="M26 2l-120 -128v0l63 8q80 0 117 -41t22 -113q-17 -83 -95.5 -136t-184.5 -53q-36 0 -89 13t-99 33l51 83q30 -14 65.5 -22.5t61.5 -8.5q59 0 91.5 21t41.5 65q6 30 -19 54.5t-62 24.5q-11 0 -33.5 -4.5t-47.5 -11.5l-25 38l167 178h95z" />
    <glyph glyph-name="glyph219" horiz-adv-x="0" 
d="M-286 125h622l-25 -125h-622z" />
    <glyph glyph-name="glyph221" horiz-adv-x="0" 
d="M-286 125h622l-25 -125h-622z" />
    <glyph glyph-name="glyph223" horiz-adv-x="0" 
d="M0 14q-136 0 -195.5 66.5t-52.5 211.5h101q10 -87 53.5 -124t134.5 -37q88 0 149.5 41t93.5 120h99q-37 -131 -138.5 -204.5t-244.5 -73.5z" />
    <glyph glyph-name="glyph225" horiz-adv-x="0" 
d="M-1 3q-136 0 -195.5 66.5t-52.5 211.5h101q10 -87 53.5 -124t134.5 -37q88 0 149.5 41t93.5 120h99q-38 -131 -139 -204.5t-244 -73.5z" />
    <glyph glyph-name="glyph227" horiz-adv-x="0" 
d="M-280 -273q20 95 94.5 168.5t181.5 104.5h160q-139 -62 -198.5 -117.5t-77.5 -139.5q-11 -54 10 -80t77 -26q29 0 66.5 7.5t74.5 21.5l18 -82q-54 -21 -111 -34q-55 -12 -94 -12q-108 0 -163 52q-56 52 -38 137z" />
    <glyph glyph-name="glyph229" horiz-adv-x="0" 
d="M-280 -273q20 95 94.5 168.5t181.5 104.5h160q-139 -62 -198.5 -117.5t-77.5 -139.5q-11 -54 10 -80t77 -26q29 0 66.5 7.5t74.5 21.5l18 -82q-54 -21 -111 -34q-55 -12 -94 -12q-108 0 -163 52q-56 52 -38 137z" />
    <glyph glyph-name="glyph233" horiz-adv-x="0" 
d="M-82 0l-146 290h163l96 -190v0l175 190h164l-266 -290h-93h-93z" />
    <glyph glyph-name="glyph235" horiz-adv-x="0" 
d="M-93 0l-146 290h163l96 -190v0l175 190h164l-266 -290h-93h-93z" />
    <glyph glyph-name="glyph238" horiz-adv-x="0" 
d="M-310 -29q-169 0 -267 107.5t-98 294.5q0 314 163.5 522.5t409.5 208.5q193 0 280 -171l10 -21v0l116 558v0h90h91v0l-304 -1470v0h-86h-86v0l29 144v0l-24 -24q-148 -149 -324 -149zM-100 941q-172 0 -281 -157t-109 -404q0 -121 58 -187.5t163 -66.5q127 0 228.5 102.5
t135.5 264.5q46 224 -2.5 336t-192.5 112z" />
    <glyph glyph-name="glyph239" horiz-adv-x="0" 
d="M112 388l20 99h95h95l-35 -170q-29 -141 -91 -217t-166 -100v0l15 75v0q62 6 97 65q30 49 53 148v0h-9h-95z" />
    <glyph glyph-name="glyph245" horiz-adv-x="0" 
d="M-46 231h186l-43 -209h-186z" />
    <glyph glyph-name="glyph247" horiz-adv-x="0" 
d="M-46 231h186l-43 -209h-186z" />
    <glyph glyph-name="glyph255" horiz-adv-x="0" 
d="M92 388l20 99h95h95l-35 -170q-29 -141 -91 -217t-166 -100v0l15 75v0q62 6 97 65q30 49 53 148v0h-9h-95z" />
    <glyph glyph-name="glyph257" horiz-adv-x="0" 
d="M114 99l-20 -99h-95h-95l35 170q29 141 90.5 217t166.5 100v0l-15 -75v0q-62 -6 -98 -65q-29 -49 -52 -148v0h9h95z" />
    <glyph glyph-name="glyph282" horiz-adv-x="0" 
d="M-304 0l246 289h218l-327 -289h-137zM69 0l246 289h218l-327 -289h-137z" />
    <glyph glyph-name="glyph284" horiz-adv-x="0" 
d="M-292 0l246 289h218l-327 -289h-137zM81 0l246 289h218l-327 -289h-137z" />
    <glyph glyph-name="glyph300" horiz-adv-x="0" 
d="M112 388l20 99h95h95l-35 -170q-29 -141 -91 -217t-166 -100v0l15 75v0q62 6 97 65q30 49 53 148v0h-9h-95z" />
    <glyph glyph-name="glyph302" horiz-adv-x="0" 
d="M82 242l20 99h95h95l-35 -170q-29 -141 -90.5 -217t-166.5 -100v0l16 75v0q62 6 97 65q28 49 52 148v0h-9h-95z" />
    <glyph glyph-name="glyph350" horiz-adv-x="0" 
d="M54 625l150 723v0h-257v0l12 61l13 61v0h664v0l-13 -61l-12 -61v0h-256v0l-150 -723v0h-75h-76v0z" />
    <glyph glyph-name="glyph351" horiz-adv-x="0" 
d="M-189 625v0h-74h-74v0l175 845v0h117h117v0l106 -629v0v0l362 629v0h113h114v0l-175 -845v0h-73h-73v0l150 710v0l-413 -710h-54h-54l-116 713v0z" />
  </font>
</defs>
</svg>
