<?xml version="1.0" standalone="no"?>
<!DOCTYPE svg PUBLIC "-//W3C//DTD SVG 1.1//EN" "http://www.w3.org/Graphics/SVG/1.1/DTD/svg11.dtd" >
<svg xmlns="http://www.w3.org/2000/svg" xmlns:xlink="http://www.w3.org/1999/xlink" version="1.1">
<metadata></metadata>
<defs>
<font id="frutigerroman" horiz-adv-x="1138" >
<font-face units-per-em="2048" ascent="1638" descent="-410" />
<missing-glyph horiz-adv-x="569" />
<glyph horiz-adv-x="0" />
<glyph unicode="&#xd;" horiz-adv-x="681" />
<glyph unicode=" " horiz-adv-x="569" d="M0 0z" />
<glyph unicode="!" horiz-adv-x="796" d="M285 0v229h229v-229h-229zM285 1430h229l-27 -1029h-176z" />
<glyph unicode="&#x22;" d="M326 928v502h180v-502h-180zM633 928v502h180v-502h-180z" />
<glyph unicode="#" d="M57 426v156h217l37 266h-196v156h219l59 426h156l-60 -426h242l60 426h155l-59 -426h194v-156h-217l-37 -266h195v-156h-217l-60 -426h-155l59 426h-241l-60 -426h-155l59 426h-195zM430 582h242l37 266h-242z" />
<glyph unicode="$" d="M154 1065q0 152 100 254t252 127v205h119v-197q156 -4 293 -51l-29 -189q-100 59 -244 60h-20v-445l118 -65q123 -68 182.5 -150t59.5 -215q0 -164 -98.5 -274.5t-261.5 -136.5v-205h-119v192h-25q-168 0 -311 60l25 196q109 -76 282 -75h29v497l-70 35 q-135 68 -208.5 154t-73.5 223zM371 1071q0 -96 135 -180v366q-70 -25 -102.5 -68.5t-32.5 -117.5zM625 178q63 20 103 79.5t40 129.5q0 78 -36.5 124t-106.5 83v-416z" />
<glyph unicode="%" horiz-adv-x="2048" d="M225 1044q0 188 67.5 299t239.5 111q307 0 308 -410q0 -176 -72 -292.5t-235.5 -116.5t-235.5 116.5t-72 292.5zM406 1044q0 -266 126.5 -266t126.5 266v15q0 51 -2 81.5t-12 77t-38.5 70t-74 23.5t-73 -27t-38.5 -77t-13 -81.5t-2 -81.5zM506 -45l887 1520h147 l-887 -1520h-147zM1208 385q0 188 67.5 299t240.5 111q307 0 307 -410q0 -176 -72 -293t-235.5 -117t-235.5 117t-72 293zM1389 385q0 -266 126.5 -266t126.5 266v14q0 51 -2 82t-12 77t-38.5 69.5t-74 23.5t-73 -26.5t-38.5 -76.5t-13 -82t-2 -81z" />
<glyph unicode="&#x26;" horiz-adv-x="1478" d="M170 375q0 289 319 418q-72 86 -109.5 159.5t-37.5 165.5q0 164 104.5 250t268.5 86q152 0 253 -82t101 -242q0 -125 -90 -219t-223 -153l291 -332q74 117 88 346h192q-12 -160 -53 -271.5t-111 -217.5l250 -283h-256l-117 139q-143 -164 -409 -164q-211 0 -336 110 t-125 290zM387 389q0 -115 83 -186.5t198 -71.5q143 0 264 137l-344 404q-68 -45 -103.5 -76t-66.5 -86t-31 -121zM535 1114q0 -102 127 -242q84 39 149.5 103.5t65.5 146.5q0 176 -170 176q-74 0 -123 -48t-49 -136z" />
<glyph unicode="'" horiz-adv-x="569" d="M195 928v502h180v-502h-180z" />
<glyph unicode="(" horiz-adv-x="681" d="M133 631q0 240 86 452.5t250 464.5h184q-150 -266 -232.5 -481t-82.5 -436q0 -225 84 -446.5t231 -471.5h-184q-160 238 -248 459t-88 459z" />
<glyph unicode=")" horiz-adv-x="681" d="M29 -287q150 266 232.5 481.5t82.5 436.5q0 225 -84 446t-231 471h184q160 -238 248 -459t88 -458q0 -240 -86 -453t-250 -465h-184z" />
<glyph unicode="*" d="M147 1057l58 174l309 -127l-33 326h187l-31 -326l299 127l55 -174l-321 -68l219 -252l-154 -102l-166 283l-168 -283l-151 102l225 252z" />
<glyph unicode="+" horiz-adv-x="1228" d="M96 428v180h428v428h181v-428h428v-180h-428v-428h-181v428h-428z" />
<glyph unicode="," horiz-adv-x="569" d="M41 -272l129 501h229l-174 -501h-184z" />
<glyph unicode="-" horiz-adv-x="681" d="M78 473v156h526v-156h-526z" />
<glyph unicode="." horiz-adv-x="569" d="M170 0v229h229v-229h-229z" />
<glyph unicode="/" horiz-adv-x="569" d="M-51 -25l491 1479h181l-492 -1479h-180z" />
<glyph unicode="0" d="M84 715q0 131 21.5 249.5t71.5 234.5t150.5 185.5t242 69.5t241.5 -69.5t150.5 -185.5t72 -234.5t21.5 -249.5t-21.5 -250t-72 -234.5t-150.5 -185.5t-241.5 -70t-242 70t-150.5 185.5t-71.5 234.5t-21.5 250zM301 715q0 -88 8 -168t33 -181.5t83 -162t144 -60.5 t144.5 60.5t83 162t33 181.5t8.5 168q0 84 -10.5 168t-35 182t-83 159.5t-140.5 61.5t-140 -61.5t-82.5 -159.5t-35 -182t-10.5 -168z" />
<glyph unicode="1" d="M223 1143l350 287h183v-1430h-205v1194l-219 -188z" />
<glyph unicode="2" d="M102 0v219l256 230q74 68 107 100.5t103.5 109t105.5 131t65.5 129t30.5 140.5q0 98 -79 162.5t-195 64.5q-162 0 -328 -92l-21 176q195 84 375 84q203 0 334 -106.5t131 -300.5q0 -84 -38 -174.5t-114.5 -186.5t-126 -149.5t-135.5 -139.5q-35 -35 -81 -76.5t-97 -87 t-73 -65.5h686v-168h-906z" />
<glyph unicode="3" d="M104 31l13 190q156 -78 313 -78q137 0 242.5 59.5t105.5 184.5q0 272 -356 272h-125v168h115q84 0 158.5 18.5t135 75t60.5 140.5q0 115 -79 170t-202 55q-162 0 -317 -78l-12 183q172 63 358 63q203 0 336 -98.5t133 -290.5q0 -129 -88 -215t-219 -111v-4 q150 -31 234.5 -119t84.5 -235q0 -406 -563 -406q-141 0 -328 56z" />
<glyph unicode="4" d="M39 326v168l577 936h293v-936h181v-168h-181v-326h-204v326h-666zM254 494h451v768h-5z" />
<glyph unicode="5" d="M166 23l6 192q129 -72 297 -72q135 0 234.5 76t99.5 207q0 147 -97.5 226t-248.5 79q-154 0 -277 -53l13 752h786v-168h-594l-12 -383q78 20 184 20q190 0 326.5 -127t136.5 -315q0 -225 -156.5 -353.5t-390.5 -128.5q-176 0 -307 48z" />
<glyph unicode="6" d="M106 662q0 156 28 288.5t91.5 250.5t181 185.5t279.5 67.5q74 0 165 -14.5t130 -30.5l-29 -182q-113 59 -254 59q-190 0 -292.5 -149.5t-106.5 -370.5l4 2q133 131 313 131q203 0 317 -126t114 -324q0 -217 -129.5 -345.5t-329.5 -128.5q-481 0 -482 687zM324 444 q0 -113 67.5 -207t183.5 -94q123 0 188.5 88t65.5 213q0 111 -63.5 199t-175.5 88q-123 0 -194.5 -81t-71.5 -206z" />
<glyph unicode="7" d="M100 1262v168h906v-168l-529 -1262h-225l545 1262h-697z" />
<glyph unicode="8" d="M78 375q0 137 83 233.5t220 143.5v4q-268 94 -268 356q0 143 126 242.5t336 99.5q201 0 322 -97t121 -224q0 -123 -58.5 -208t-199.5 -161q135 -47 218 -144.5t83 -234.5q0 -205 -139.5 -307.5t-356.5 -102.5q-197 0 -342 106.5t-145 293.5zM295 387q0 -113 87 -178.5 t202 -65.5q106 0 182 61t78 165q2 49 -11.5 88t-31 63.5t-55 50t-62.5 38t-76 34t-76 33.5q-20 -14 -67 -44t-68.5 -46.5t-50.5 -46t-40 -66.5t-11 -86zM317 1083q0 -70 69 -126t226 -134q119 92 154 147.5t35 135.5q0 92 -75 136t-167 44q-84 0 -163 -55.5t-79 -147.5z" />
<glyph unicode="9" d="M92 981q0 217 129 345t330 128q481 0 481 -686q0 -156 -27.5 -289t-91 -250.5t-181.5 -185.5t-279 -68q-74 0 -165 14.5t-130 30.5l28 183q113 -59 254 -60q190 0 293 149.5t107 371.5l-4 -2q-133 -131 -314 -132q-203 0 -316.5 126t-113.5 325zM309 985 q0 -111 63.5 -199t176.5 -88q123 0 194.5 81t71.5 206q0 113 -67.5 207t-184.5 94q-123 0 -188.5 -88t-65.5 -213z" />
<glyph unicode=":" horiz-adv-x="569" d="M170 0v229h229v-229h-229zM170 815v229h229v-229h-229z" />
<glyph unicode=";" horiz-adv-x="569" d="M41 -272l129 501h229l-174 -501h-184zM170 815v229h229v-229h-229z" />
<glyph unicode="&#x3c;" horiz-adv-x="1228" d="M94 440v156l1041 457v-181l-807 -354l807 -354v-180z" />
<glyph unicode="=" horiz-adv-x="1228" d="M96 213v180h1037v-180h-1037zM96 643v180h1037v-180h-1037z" />
<glyph unicode="&#x3e;" horiz-adv-x="1228" d="M94 -16v180l807 354l-807 354v181l1041 -457v-156z" />
<glyph unicode="?" horiz-adv-x="1024" d="M152 1386q156 68 340 68q180 0 311 -99.5t131 -273.5q0 -96 -41 -175t-125 -176t-115 -142q-43 -63 -43 -150v-37h-192v43q0 96 26.5 158t100.5 148q6 6 28.5 31.5t30.5 35.5t27.5 35t28 39t21.5 38.5t19.5 44t11.5 44t5 49.5q0 102 -72 154.5t-176 52.5q-190 0 -303 -82 zM399 0v229h230v-229h-230z" />
<glyph unicode="@" horiz-adv-x="1638" d="M102 715q0 328 217.5 533.5t532.5 205.5q279 0 481.5 -172t202.5 -436q0 -137 -53 -252t-132 -180.5t-158 -101.5t-142 -36q-49 0 -83 30t-36 85h-4q-111 -115 -223 -115q-127 0 -215.5 96.5t-88.5 231.5q0 203 124 358.5t317 155.5q150 0 233 -135l31 107h154l-138 -521 q-16 -57 -16 -86q4 -51 37 -51q92 0 171 116t79 267q0 231 -155 363.5t-388 132.5q-256 0 -418 -172t-162 -428q0 -283 166 -437.5t434 -154.5q129 0 247 49t198 133h155q-100 -154 -260.5 -240t-347.5 -86q-328 0 -544 199t-216 541zM582 631q0 -82 45 -134.5t123 -52.5 q106 0 184 109t78 225q0 74 -46 123t-112 49q-115 0 -193.5 -102.5t-78.5 -216.5z" />
<glyph unicode="A" horiz-adv-x="1478" d="M25 0l610 1430h215l604 -1430h-223l-146 360h-700l-145 -360h-215zM451 528h569l-285 709z" />
<glyph unicode="B" horiz-adv-x="1251" d="M170 0v1430h387q502 0 502 -361q0 -266 -295 -340v-4q150 -12 241 -104.5t91 -239.5q0 -111 -43 -188.5t-122 -117.5t-171 -57.5t-209 -17.5h-381zM375 168h153q104 0 175 16.5t123.5 69.5t52.5 145q0 80 -32 132.5t-89.5 77t-115.5 33.5t-134 9h-133v-483zM375 819h112 q88 0 143.5 7.5t112 29t84 69.5t27.5 124q0 115 -78 164t-186 49h-215v-443z" />
<glyph unicode="C" horiz-adv-x="1251" d="M109 721q0 328 213 530.5t542 202.5q183 0 322 -61l-17 -199q-135 80 -295 80q-246 0 -397 -158t-151 -401q0 -248 155.5 -403.5t382.5 -155.5q195 0 312 69l12 -198q-123 -51 -326 -52q-340 0 -546.5 203t-206.5 543z" />
<glyph unicode="D" horiz-adv-x="1478" d="M170 0v1430h422q328 0 545 -190.5t217 -512.5q0 -354 -202 -540.5t-560 -186.5h-422zM375 180h215q547 0 547 539q0 244 -147.5 387t-375.5 143h-239v-1069z" />
<glyph unicode="E" d="M193 0v1430h800v-181h-596v-418h543v-180h-543v-471h596v-180h-800z" />
<glyph unicode="F" horiz-adv-x="1024" d="M170 0v1430h760v-181h-555v-418h530v-180h-530v-651h-205z" />
<glyph unicode="G" horiz-adv-x="1478" d="M109 721q0 328 213 530.5t542 202.5q98 0 178 -10t124 -22.5t118 -39.5l-16 -206q-150 98 -393.5 98t-396 -159t-152.5 -400q0 -248 155.5 -403.5t382.5 -155.5q106 0 230 24v434h-301v168h505v-743q-186 -63 -436 -64q-340 0 -546.5 203t-206.5 543z" />
<glyph unicode="H" horiz-adv-x="1478" d="M193 0v1430h204v-599h684v599h205v-1430h-205v651h-684v-651h-204z" />
<glyph unicode="I" horiz-adv-x="569" d="M182 0v1430h205v-1430h-205z" />
<glyph unicode="J" horiz-adv-x="796" d="M43 0v176q57 -20 129 -20q131 0 182.5 69.5t51.5 208.5v996h204v-1061q0 -109 -33.5 -193t-127 -142.5t-240.5 -58.5q-103 0 -166 25z" />
<glyph unicode="K" horiz-adv-x="1366" d="M193 0v1430h204v-629l611 629h272l-672 -676l725 -754h-299l-637 700v-700h-204z" />
<glyph unicode="L" horiz-adv-x="1024" d="M180 0v1430h205v-1250h598v-180h-803z" />
<glyph unicode="M" horiz-adv-x="1933" d="M184 0v1430h338l449 -1188l440 1188h338v-1430h-205v1237h-4l-473 -1237h-201l-473 1237h-4v-1237h-205z" />
<glyph unicode="N" horiz-adv-x="1478" d="M180 0v1430h279l631 -1151h4v1151h204v-1430h-262l-647 1176h-4v-1176h-205z" />
<glyph unicode="O" horiz-adv-x="1593" d="M109 715q0 326 184 532.5t503.5 206.5t504 -207t184.5 -532q0 -332 -183.5 -536t-505 -204t-504.5 204t-183 536zM326 715q0 -233 119.5 -396t351 -163t351.5 162.5t120 396.5q0 150 -50.5 274.5t-160 204.5t-261 80t-261 -80t-159.5 -204.5t-50 -274.5z" />
<glyph unicode="P" d="M170 0v1430h375q115 0 208 -22t168.5 -70t117.5 -133t42 -204q0 -221 -144 -325.5t-362 -104.5h-200v-571h-205zM375 752h203q113 0 199.5 61t86.5 191q0 84 -54 142t-121.5 80.5t-139.5 22.5h-174v-497z" />
<glyph unicode="Q" horiz-adv-x="1593" d="M109 715q0 326 184 532.5t503.5 206.5t504 -207t184.5 -532q0 -242 -100.5 -419t-284.5 -259l332 -301h-254l-267 248q-49 -8 -114 -9q-322 0 -505 204t-183 536zM326 715q0 -233 119.5 -396t351 -163t351.5 162.5t120 396.5q0 150 -50.5 274.5t-160 204.5t-261 80 t-261 -80t-159.5 -204.5t-50 -274.5z" />
<glyph unicode="R" horiz-adv-x="1251" d="M170 0v1430h350q96 0 168 -7.5t148.5 -31t126 -64.5t81 -113.5t31.5 -171.5q0 -127 -83 -215t-212 -110v-4q47 -18 77 -48t63 -96l270 -569h-234l-219 496q-23 51 -47 80.5t-58 42t-58.5 14.5t-75.5 2h-123v-635h-205zM375 815h174q145 0 227 59.5t82 163.5 q0 98 -73.5 154.5t-213.5 56.5h-196v-434z" />
<glyph unicode="S" horiz-adv-x="1024" d="M96 1065q0 184 129 286.5t330 102.5q160 0 305 -51l-29 -189q-152 59 -268 60q-102 0 -176 -44t-74 -147q0 -63 45 -113t114 -81t148.5 -74t148.5 -89t114 -130t45 -195q0 -217 -145.5 -321.5t-376.5 -104.5q-111 0 -293 60l20 190q168 -69 293 -69h4q104 0 192.5 59 t88.5 174q0 88 -63.5 148.5t-154 101.5t-180.5 87t-153.5 131t-63.5 208z" />
<glyph unicode="T" d="M23 1249v181h1093v-181h-444v-1249h-205v1249h-444z" />
<glyph unicode="U" horiz-adv-x="1478" d="M184 592v838h205v-812q0 -463 350 -463l1 1q350 0 350 462v812h204v-838q0 -299 -144 -458t-410.5 -159t-411 159t-144.5 458z" />
<glyph unicode="V" horiz-adv-x="1366" d="M12 1430h230l440 -1250h4l453 1250h215l-547 -1430h-256z" />
<glyph unicode="W" horiz-adv-x="2048" d="M4 1430h225l342 -1225h4l306 1225h290l310 -1225h4l342 1225h217l-440 -1430h-265l-311 1249h-4l-313 -1249h-275z" />
<glyph unicode="X" horiz-adv-x="1366" d="M16 0l527 743l-480 687h246l381 -549l379 549h234l-482 -682l529 -748h-258l-422 606l-408 -606h-246z" />
<glyph unicode="Y" horiz-adv-x="1366" d="M23 1430h239l426 -642l416 642h239l-557 -832v-598h-204v598z" />
<glyph unicode="Z" d="M66 0v184l741 1065h-717v181h952v-185l-739 -1065h752v-180h-989z" />
<glyph unicode="[" horiz-adv-x="681" d="M195 -287v1835h387v-143h-207v-1548h207v-144h-387z" />
<glyph unicode="\" horiz-adv-x="569" d="M-51 1454h180l492 -1479h-181z" />
<glyph unicode="]" horiz-adv-x="681" d="M100 -143h207v1548h-207v143h387v-1835h-387v144z" />
<glyph unicode="^" horiz-adv-x="1228" d="M123 602l407 828h168l408 -828h-184l-308 639l-307 -639h-184z" />
<glyph unicode="_" horiz-adv-x="1024" d="M0 -154h1024v-102h-1024v102z" />
<glyph unicode="`" horiz-adv-x="569" d="M14 1485h224l182 -295h-137z" />
<glyph unicode="a" d="M94 301q0 94 47 164t123 107.5t155 55t161 17.5q129 0 204 -4q0 139 -58 205.5t-200 66.5q-176 0 -303 -106l-10 164q166 98 344 98q219 0 319.5 -107.5t100.5 -324.5v-432q0 -143 8 -205h-180v135h-4q-113 -160 -324 -160q-176 0 -279.5 81t-103.5 245zM299 301 q0 -78 60.5 -124t134.5 -46q139 0 214.5 77t75.5 198v92q-20 0 -61 2t-61 2q-53 0 -103.5 -6.5t-115 -24.5t-104.5 -61t-40 -109z" />
<glyph unicode="b" horiz-adv-x="1251" d="M164 0v1536h192v-635h4q104 168 347 168q217 0 333.5 -151.5t116.5 -376.5q0 -236 -113.5 -401t-334.5 -165q-127 0 -219.5 51.5t-137.5 120.5h-4v-147h-184zM356 520q0 -150 79 -269.5t229 -119.5q140 0 216 126q72 120 72 255v14v16q0 148 -68 256q-72 114 -218 115 q-147 0 -228.5 -116.5t-81.5 -276.5z" />
<glyph unicode="c" horiz-adv-x="909" d="M78 522q0 240 147.5 393.5t384.5 153.5q134 0 234 -41l-17 -160q-109 45 -209 45q-154 0 -244.5 -116.5t-90.5 -274t88 -274.5t260 -117q117 0 207 59l14 -172q-94 -43 -242 -43q-231 0 -381.5 159t-150.5 388z" />
<glyph unicode="d" horiz-adv-x="1251" d="M94 541q0 225 117 376.5t334 151.5q242 0 346 -168h4v635h192v-1536h-184v147h-4q-45 -70 -137 -121t-219 -51q-221 0 -335 165t-114 401zM299 526v-14q-1 -135 71 -255q76 -126 218 -126q150 0 228.5 120t78.5 269q0 160 -81 276.5t-228 116.5q-145 1 -218 -113 q-69 -108 -69 -258v-16z" />
<glyph unicode="e" d="M94 541q0 233 135.5 380.5t354.5 147.5q461 0 460 -590h-745q0 -152 101.5 -250t242.5 -98q86 0 183.5 35t138.5 70v-193q-6 -2 -37 -13.5t-44.5 -16.5t-46 -14t-58 -12t-64.5 -7.5t-80 -4.5q-270 0 -405.5 150.5t-135.5 415.5zM299 623h541q0 125 -70 207.5t-190 82.5 q-129 0 -199 -85.5t-82 -204.5z" />
<glyph unicode="f" horiz-adv-x="796" d="M43 889v155h246v97q0 209 74.5 314.5t275.5 105.5q51 0 129 -13l-8 -155q-35 12 -92 12q-115 0 -151 -62.5t-36 -185.5v-113h277v-155h-277v-889h-192v889h-246z" />
<glyph unicode="g" horiz-adv-x="1251" d="M94 514q0 221 123 388t344 167q252 0 344 -180h4v155h178v-999q0 -500 -538 -500q-164 0 -375 72l21 178q115 -53 194.5 -73.5t181.5 -20.5q152 0 238 96.5t86 261.5v103h-4q-123 -162 -350 -162q-213 0 -330 148.5t-117 365.5zM299 524q0 -154 80 -261t211 -107 q133 0 219 102t86 252q0 172 -79 287.5t-226 115.5q-135 0 -213 -119.5t-78 -269.5z" />
<glyph unicode="h" horiz-adv-x="1251" d="M164 0v1536h192v-641h4q111 174 336 174q391 0 391 -448v-621h-192v541q0 188 -49 276t-172 96q-160 0 -239 -115.5t-79 -314.5v-483h-192z" />
<glyph unicode="i" horiz-adv-x="569" d="M176 1278v217h217v-217h-217zM188 0v1044h193v-1044h-193z" />
<glyph unicode="j" horiz-adv-x="569" d="M-33 -446l6 165q37 -6 78 -6q66 0 101.5 59.5t35.5 161.5v1110h193v-1081q0 -51 -2 -85t-10.5 -89t-27.5 -93t-50 -75t-83 -56.5t-122 -19.5q-84 1 -119 9zM176 1278v217h217v-217h-217z" />
<glyph unicode="k" d="M164 0v1536h192v-915l420 423h262l-485 -462l547 -582h-277l-467 537v-537h-192z" />
<glyph unicode="l" horiz-adv-x="569" d="M188 0v1536h193v-1536h-193z" />
<glyph unicode="m" horiz-adv-x="1820" d="M162 0v1044h180v-151h4q106 176 332 176q96 0 177 -51t120 -152q49 102 143 152.5t180 50.5q188 0 275.5 -107.5t87.5 -291.5v-670h-193v623q0 290 -185 290h-1q-137 0 -205.5 -112.5t-68.5 -274.5v-526h-193v623q0 290 -185 290h-1q-137 0 -206 -112.5t-69 -274.5v-526 h-192z" />
<glyph unicode="n" horiz-adv-x="1251" d="M164 0v1044h186v-165h4q43 88 137.5 139t204.5 51q391 0 391 -448v-621h-192v541q0 188 -49 276t-172 96q-160 0 -239 -115.5t-79 -314.5v-483h-192z" />
<glyph unicode="o" horiz-adv-x="1251" d="M94 522q0 240 147.5 393.5t385.5 153.5q236 0 383 -153.5t147 -393.5q0 -229 -149.5 -388t-381 -159t-382 159t-150.5 388zM299 522q0 -156 84 -273.5t244 -117.5q158 0 241.5 118t83.5 273q0 158 -89 274.5t-236.5 116.5t-237.5 -116.5t-90 -274.5z" />
<glyph unicode="p" horiz-adv-x="1251" d="M164 -430v1474h184v-147h4q45 70 136.5 121t218.5 51q217 0 333.5 -151.5t116.5 -376.5q0 -236 -113.5 -401t-334.5 -165q-244 0 -349 168h-4v-573h-192zM356 520q0 -150 79 -269.5t229 -119.5q141 0 216 126q72 120 72 255v14v16q0 148 -68 256q-73 115 -218 115 q-147 0 -228.5 -116.5t-81.5 -276.5z" />
<glyph unicode="q" horiz-adv-x="1251" d="M94 541q0 225 117 376.5t334 151.5q127 0 218 -52t136 -122h4v149h184v-1474h-192v567h-4q-45 -74 -139.5 -118t-208.5 -44q-221 0 -335 165t-114 401zM299 526v-14q0 -135 71 -255q76 -126 218 -126q150 0 228.5 120t78.5 269q0 160 -81 276.5t-228 116.5 q-145 0 -218 -113q-69 -108 -69 -258v-16z" />
<glyph unicode="r" horiz-adv-x="796" d="M164 0v1044h180v-161h4q39 82 115 134t158 52q55 0 127 -14v-172q-45 18 -107 18q-129 0 -207 -114.5t-78 -311.5v-475h-192z" />
<glyph unicode="s" horiz-adv-x="796" d="M70 748q0 156 102 238.5t266 82.5q102 0 240 -41l-16 -168q-31 18 -98.5 35.5t-104.5 17.5q-78 0 -131.5 -32.5t-53.5 -94.5q0 -57 47.5 -98t114 -69.5t132 -62.5t112.5 -98.5t47 -156.5q0 -158 -106.5 -242t-258.5 -84q-180 1 -286 58l10 172q115 -74 240 -74 q78 0 137 36t59 114q0 51 -47 92t-113.5 71.5t-132 65.5t-112.5 95.5t-47 142.5z" />
<glyph unicode="t" horiz-adv-x="796" d="M14 889v155h236v242l192 62v-304h277v-155h-277v-572q0 -88 46.5 -137t115.5 -49q74 0 131 37v-164q-100 -29 -164 -29q-154 0 -237.5 75t-83.5 229v610h-236z" />
<glyph unicode="u" horiz-adv-x="1251" d="M164 424v620h192v-540q0 -188 49.5 -276.5t172.5 -96.5q160 0 238.5 115.5t78.5 314.5v483h192v-1044h-186v166h-4q-43 -88 -137 -139.5t-205 -51.5q-391 0 -391 449z" />
<glyph unicode="v" horiz-adv-x="1024" d="M23 1044h210l283 -851h4l289 851h192l-374 -1044h-230z" />
<glyph unicode="w" horiz-adv-x="1705" d="M25 1044h211l239 -864h4l266 864h228l262 -864h4l254 864h188l-335 -1044h-224l-270 877h-4l-264 -877h-224z" />
<glyph unicode="x" horiz-adv-x="1024" d="M20 0l377 547l-340 497h240l227 -372l232 372h215l-336 -497l369 -547h-238l-258 410l-258 -410h-230z" />
<glyph unicode="y" horiz-adv-x="1024" d="M14 1044h211l281 -864h4l287 864h194l-385 -1067q-20 -59 -27.5 -77.5t-29 -72.5t-35.5 -75.5t-39.5 -63.5t-50.5 -60.5t-58.5 -41t-73.5 -32t-87 -9.5q-49 1 -131 15l12 157q49 -16 90 -16q59 0 107.5 37t73 86t37 86t12.5 49q0 6 -37 111z" />
<glyph unicode="z" horiz-adv-x="1024" d="M88 0v168l602 721h-573v155h796v-167l-602 -721h625v-156h-848z" />
<glyph unicode="{" horiz-adv-x="681" d="M76 559v143q68 0 122 56.5t54 148.5v383q0 119 73.5 188.5t157.5 69.5h160v-143h-108q-102 0 -103 -156v-370q0 -63 -21.5 -112.5t-54 -75t-60.5 -40t-52 -18.5v-4q25 -2 52.5 -14.5t60 -38t54 -78t21.5 -121.5v-365q0 -156 103 -155h108v-144h-160q-84 0 -157.5 70 t-73.5 188v373q0 98 -54.5 156.5t-121.5 58.5z" />
<glyph unicode="|" horiz-adv-x="454" d="M137 -25v1561h180v-1561h-180z" />
<glyph unicode="}" horiz-adv-x="681" d="M39 -143h108q102 0 103 155v371q0 63 21.5 112.5t54 75t60.5 40t52 18.5v4q-25 2 -52.5 14t-60 38t-54 78t-21.5 122v364q0 156 -103 156h-108v143h160q84 0 157.5 -69.5t73.5 -188.5v-372q0 -98 54.5 -157t121.5 -59v-143q-68 0 -122 -56.5t-54 -148.5v-383 q0 -119 -73.5 -188.5t-157.5 -69.5h-160v144z" />
<glyph unicode="~" horiz-adv-x="1228" d="M141 498q92 174 256 174q86 0 228 -64q16 -6 55 -24.5t58.5 -26.5t48 -16.5t47.5 -8.5q39 0 74.5 26t54 50.5t51.5 73.5l73 -143q-92 -174 -256 -174q-86 0 -227 63q-16 6 -55 24.5t-58.5 26.5t-48 16.5t-47.5 8.5q-39 0 -74.5 -25.5t-54 -50.5t-51.5 -74z" />
<glyph unicode="&#xa0;" horiz-adv-x="569" d="M0 0z" />
<glyph unicode="&#xa1;" horiz-adv-x="796" d="M285 -385l26 1028h176l27 -1028h-229zM285 815v229h229v-229h-229z" />
<glyph unicode="&#xa2;" d="M182 522q0 240 147.5 393.5t385.5 153.5q18 0 28 -2l68 231h117l-72 -243q66 -14 92 -27l-16 -160q-61 27 -119 35l-215 -747q68 -25 137 -25q117 0 207 59l14 -172q-92 -43 -241 -43q-88 0 -162 25l-80 -272h-117l93 319q-125 70 -196 197t-71 278zM387 522 q0 -188 113 -299l198 688q-143 -10 -227 -123.5t-84 -265.5z" />
<glyph unicode="&#xa3;" d="M121 0v180h186v533h-162v118h162v115q0 227 130 367.5t366 140.5q125 0 241 -39l-16 -190q-111 49 -205 49q-156 0 -233.5 -90t-77.5 -252v-101h330v-118h-330v-533h506v-180h-897z" />
<glyph unicode="&#xa4;" d="M49 299l115 117q-102 121 -103 299q0 193 103 303l-115 110l105 107l112 -113q123 100 303 101q178 0 308 -101l110 113l103 -107l-111 -110q98 -111 98 -303q0 -182 -98 -299l111 -117l-103 -104l-110 116q-121 -104 -307.5 -104t-303.5 104l-112 -116zM242 715 q0 -141 96 -240.5t231 -99.5q139 0 233.5 101.5t94.5 238.5t-95 238.5t-232.5 101.5t-232.5 -100.5t-95 -239.5z" />
<glyph unicode="&#xa5;" d="M12 1430h228l335 -642l324 642h227l-370 -680h207v-119h-273l-16 -33v-147h289v-119h-289v-332h-205v332h-289v119h289v147l-16 33h-273v119h207z" />
<glyph unicode="&#xa6;" horiz-adv-x="454" d="M137 -25v568h180v-568h-180zM137 969v567h180v-567h-180z" />
<glyph unicode="&#xa7;" d="M172 625q0 164 150 254q-141 78 -142 243q0 158 131 245t299 87q139 0 295 -39l-18 -186q-129 57 -250 57q-61 0 -114.5 -10t-101.5 -47t-48 -99q0 -68 63.5 -112.5t153.5 -73.5t181 -64.5t154.5 -106.5t63.5 -175q0 -86 -34.5 -141.5t-110.5 -116.5q131 -84 131 -234 q0 -123 -76 -207.5t-176 -118.5t-211 -34q-187 0 -330 51l19 189q137 -72 338 -72q98 0 170.5 48t72.5 138q0 59 -62.5 99.5t-152.5 70t-180 65.5t-152.5 109.5t-62.5 180.5zM352 664q0 -57 47 -103.5t100.5 -69t133.5 -49t102 -36.5q74 86 74 153q0 78 -64.5 126t-178 86 t-138.5 52q-76 -57 -76 -159z" />
<glyph unicode="&#xa8;" horiz-adv-x="569" d="M20 1204v205h193v-205h-193zM356 1204v205h193v-205h-193z" />
<glyph unicode="&#xa9;" horiz-adv-x="1638" d="M80 715q0 305 217 522t522 217t522.5 -217t217.5 -522t-217.5 -522.5t-522.5 -217.5t-522 217.5t-217 522.5zM260 715q0 -256 162 -426t397.5 -170t397 170t161.5 426t-161.5 426t-397 170t-397.5 -170t-162 -426zM418 715q0 197 111.5 321.5t301.5 124.5q139 0 241 -81 t120 -226h-150q-14 76 -71.5 120t-136.5 44q-125 0 -193 -83t-68 -216q0 -137 72 -224t193 -87q84 0 139 47t65 129h150q-25 -150 -123 -235t-231 -85q-188 0 -304 128t-116 323z" />
<glyph unicode="&#xaa;" horiz-adv-x="739" d="M47 991q0 61 36 105.5t92 66t109.5 30.5t106.5 9q84 0 125 -4q0 137 -160 137q-129 1 -221 -67l-6 129q113 57 240 57q158 0 236.5 -55.5t78.5 -204.5v-262q0 -31 2 -58.5t3 -42t1 -20.5h-172v78h-4q-59 -94 -201 -94q-98 0 -182 46t-84 150zM215 985q0 -35 37 -53.5 t84 -18.5q180 0 180 123v56q-6 0 -34 2t-48 2q-219 0 -219 -111z" />
<glyph unicode="&#xab;" d="M104 551l293 414h181l-267 -414l267 -414h-181zM518 551l293 414h180l-266 -414l266 -414h-180z" />
<glyph unicode="&#xac;" horiz-adv-x="1228" d="M96 643v180h1037v-610h-181v430h-856z" />
<glyph unicode="&#xad;" horiz-adv-x="681" d="M78 473v156h526v-156h-526z" />
<glyph unicode="&#xae;" horiz-adv-x="1638" d="M80 715q0 305 217 522t522 217t522.5 -217t217.5 -522t-217.5 -522.5t-522.5 -217.5t-522 217.5t-217 522.5zM260 715q0 -256 162 -426t397.5 -170t397 170t161.5 426t-161.5 426t-397 170t-397.5 -170t-162 -426zM535 299v838h311q154 0 231.5 -58.5t77.5 -187.5 q0 -205 -219 -225l225 -367h-160l-217 360h-94v-360h-155zM690 778h137q84 0 128 24.5t44 100.5q0 115 -170 115h-139v-240z" />
<glyph unicode="&#xaf;" horiz-adv-x="569" d="M-18 1260v118h606v-118h-606z" />
<glyph unicode="&#xb0;" horiz-adv-x="819" d="M117 1161q0 121 86 207t206.5 86t206.5 -86t86 -207t-86 -207t-206.5 -86t-206.5 86t-86 207zM248 1161.5q0 -67.5 47 -115t114.5 -47.5t114.5 47.5t47 115t-47 114.5t-114.5 47t-114.5 -47t-47 -114.5z" />
<glyph unicode="&#xb1;" horiz-adv-x="1228" d="M96 0v180h1037v-180h-1037zM96 555v180h428v301h181v-301h428v-180h-428v-301h-181v301h-428z" />
<glyph unicode="&#xb2;" horiz-adv-x="739" d="M63 578v155q6 6 58.5 47t89.5 72t92 82t90 92t61.5 88t26.5 84q0 55 -51 84t-113 29q-115 0 -213 -60l-12 152q121 51 256 51q131 0 222.5 -61.5t91.5 -186.5q0 -113 -148.5 -272.5t-245.5 -208.5v-4h408v-143h-613z" />
<glyph unicode="&#xb3;" horiz-adv-x="739" d="M66 598l20 156q16 -16 74.5 -30.5t118.5 -14.5q47 0 91 8t85 33.5t41 66.5q0 66 -64.5 101.5t-140.5 35.5h-101v144h95q70 0 136 30.5t66 85.5q0 51 -57 74t-125 23q-94 0 -199 -45l-8 147q113 41 252 41q133 0 225.5 -58.5t92.5 -172.5q0 -80 -60.5 -129.5t-144.5 -65.5 v-4q96 -12 154.5 -67.5t58.5 -147.5q0 -244 -379 -244q-113 0 -231 33z" />
<glyph unicode="&#xb4;" horiz-adv-x="569" d="M150 1190l182 295h223l-268 -295h-137z" />
<glyph unicode="&#xb6;" horiz-adv-x="1228" d="M41 1049q0 381 483 381h555v-1659h-180v1515h-235v-1515h-181v911q-203 0 -322.5 101.5t-119.5 265.5z" />
<glyph unicode="&#xb7;" horiz-adv-x="569" d="M164 623q2 49 38 83.5t85 34.5t85 -34.5t34 -83.5q2 -49 -34 -86t-85 -37t-85 37t-38 86z" />
<glyph unicode="&#xb8;" horiz-adv-x="569" d="M207 -412l37 70q76 -31 133 -31q47 0 81 21.5t34 72.5q0 39 -28 59.5t-67 20.5t-84 -16l-34 39l131 176h96l-94 -123l4 -4q27 10 61 10q72 0 121 -41t49 -108q0 -94 -82 -141.5t-186 -47.5q-96 0 -172 43z" />
<glyph unicode="&#xb9;" horiz-adv-x="739" d="M102 1268l228 174h166v-864h-181v708l-143 -112z" />
<glyph unicode="&#xba;" horiz-adv-x="813" d="M53 1124q0 145 97.5 237.5t255.5 92.5q160 0 256 -92t96 -238q0 -139 -98.5 -234t-254 -95t-254 95t-98.5 234zM221 1124q0 -211 184.5 -211t184.5 211q0 92 -46 151.5t-138 59.5q-90 0 -137.5 -59.5t-47.5 -151.5z" />
<glyph unicode="&#xbb;" d="M147 137l267 414l-267 414h181l293 -414l-293 -414h-181zM561 137l266 414l-266 414h180l293 -414l-293 -414h-180z" />
<glyph unicode="&#xbc;" horiz-adv-x="1708" d="M68 1268l227 174h166v-864h-180v708l-144 -112zM293 -45l887 1520h147l-887 -1520h-147zM920 170v125l376 569h238v-551h106v-143h-106v-170h-180v170h-434zM1087 313h267v408h-4z" />
<glyph unicode="&#xbd;" horiz-adv-x="1708" d="M68 1268l227 174h166v-864h-180v708l-144 -112zM229 -45l887 1520h148l-887 -1520h-148zM1028 0v156q6 6 58.5 47t89 71.5t92 82t90.5 92t61.5 88t26.5 84.5q0 55 -51.5 83.5t-112.5 28.5q-115 0 -213 -59l-12 151q121 51 256 52q131 0 222 -61.5t91 -186.5 q0 -113 -148.5 -272.5t-244.5 -209.5v-4h407v-143h-612z" />
<glyph unicode="&#xbe;" horiz-adv-x="1708" d="M66 598l20 156q16 -16 74.5 -30.5t118.5 -14.5q47 0 91 8t85 33.5t41 66.5q0 66 -64.5 101.5t-140.5 35.5h-101v144h95q70 0 136 30.5t66 85.5q0 51 -57 74t-125 23q-94 0 -199 -45l-8 147q113 41 252 41q133 0 225.5 -58.5t92.5 -172.5q0 -80 -60.5 -129.5t-144.5 -65.5 v-4q96 -12 154.5 -67.5t58.5 -147.5q0 -244 -379 -244q-113 0 -231 33zM381 -45l887 1520h147l-887 -1520h-147zM920 170v125l376 569h238v-551h106v-143h-106v-170h-180v170h-434zM1087 313h267v408h-4z" />
<glyph unicode="&#xbf;" horiz-adv-x="1024" d="M90 -37q0 96 41 175t125 176.5t115 142.5q43 63 43 149v37h192v-43q0 -96 -26.5 -157.5t-100.5 -147.5q-6 -6 -28.5 -31.5t-30.5 -36t-27.5 -35t-28 -39t-21.5 -39t-19.5 -44t-11.5 -44t-5 -49.5q0 -102 72 -154t176 -52q190 0 303 82l14 -195q-156 -68 -340 -68 q-180 0 -311 99.5t-131 273.5zM395 815v229h230v-229h-230z" />
<glyph unicode="&#xc0;" horiz-adv-x="1478" d="M25 0l610 1430h215l604 -1430h-223l-146 360h-700l-145 -360h-215zM451 528h569l-285 709zM469 1829h224l182 -295h-137z" />
<glyph unicode="&#xc1;" horiz-adv-x="1478" d="M25 0l610 1430h215l604 -1430h-223l-146 360h-700l-145 -360h-215zM451 528h569l-285 709zM605 1534l182 295h223l-268 -295h-137z" />
<glyph unicode="&#xc2;" horiz-adv-x="1478" d="M25 0l610 1430h215l604 -1430h-223l-146 360h-700l-145 -360h-215zM443 1534l202 295h187l205 -295h-164l-135 201l-133 -201h-162zM451 528h569l-285 709z" />
<glyph unicode="&#xc3;" horiz-adv-x="1478" d="M25 0l610 1430h215l604 -1430h-223l-146 360h-700l-145 -360h-215zM392 1544q33 229 192 230q55 0 164.5 -47.5t150.5 -47.5q43 -2 65.5 26t29.5 69h94q-33 -229 -193 -230q-55 0 -164.5 47t-150.5 47q-43 2 -65.5 -25.5t-28.5 -68.5h-94zM451 528h569l-285 709z" />
<glyph unicode="&#xc4;" horiz-adv-x="1478" d="M25 0l610 1430h215l604 -1430h-223l-146 360h-700l-145 -360h-215zM451 528h569l-285 709zM475 1548v205h193v-205h-193zM811 1548v205h193v-205h-193z" />
<glyph unicode="&#xc5;" horiz-adv-x="1478" d="M25 0l610 1430h215l604 -1430h-223l-146 360h-700l-145 -360h-215zM451 528h569l-285 709zM531 1706q0 86 61.5 147.5t147.5 61.5q84 0 146.5 -62.5t62.5 -146.5t-62.5 -146.5t-146.5 -62.5t-146.5 61.5t-62.5 147.5zM613 1706q0 -51 37.5 -89t89.5 -38q49 0 88 39t39 88 q0 51 -38 89t-89.5 38t-89 -38t-37.5 -89z" />
<glyph unicode="&#xc6;" horiz-adv-x="1933" d="M4 0l864 1430h899v-181h-567l27 -418h504v-180h-494l29 -471h522v-180h-711l-22 360h-609l-215 -360h-227zM545 528h499l-45 758h-4z" />
<glyph unicode="&#xc7;" horiz-adv-x="1251" d="M109 721q0 328 213 530.5t542 202.5q183 0 322 -61l-17 -199q-135 80 -295 80q-246 0 -397 -158t-151 -401q0 -248 155.5 -403.5t382.5 -155.5q195 0 312 69l12 -198q-123 -51 -326 -52q-340 0 -546.5 203t-206.5 543zM533 -412l37 70q76 -31 133 -31q47 0 81 21.5 t34 72.5q0 39 -28 59.5t-67 20.5t-84 -16l-34 39l131 176h96l-94 -123l4 -4q27 10 61 10q72 0 121 -41t49 -108q0 -94 -82 -141.5t-186 -47.5q-96 0 -172 43z" />
<glyph unicode="&#xc8;" d="M193 0v1430h800v-181h-596v-418h543v-180h-543v-471h596v-180h-800zM299 1829h224l182 -295h-137z" />
<glyph unicode="&#xc9;" d="M193 0v1430h800v-181h-596v-418h543v-180h-543v-471h596v-180h-800zM435 1534l182 295h223l-268 -295h-137z" />
<glyph unicode="&#xca;" d="M193 0v1430h800v-181h-596v-418h543v-180h-543v-471h596v-180h-800zM273 1534l202 295h187l205 -295h-164l-135 201l-133 -201h-162z" />
<glyph unicode="&#xcb;" d="M193 0v1430h800v-181h-596v-418h543v-180h-543v-471h596v-180h-800zM305 1548v205h193v-205h-193zM641 1548v205h193v-205h-193z" />
<glyph unicode="&#xcc;" horiz-adv-x="569" d="M14 1829h224l182 -295h-137zM182 0v1430h205v-1430h-205z" />
<glyph unicode="&#xcd;" horiz-adv-x="569" d="M150 1534l182 295h223l-268 -295h-137zM182 0v1430h205v-1430h-205z" />
<glyph unicode="&#xce;" horiz-adv-x="569" d="M-12 1534l202 295h187l205 -295h-164l-135 201l-133 -201h-162zM182 0v1430h205v-1430h-205z" />
<glyph unicode="&#xcf;" horiz-adv-x="569" d="M20 1548v205h193v-205h-193zM182 0v1430h205v-1430h-205zM356 1548v205h193v-205h-193z" />
<glyph unicode="&#xd0;" horiz-adv-x="1478" d="M31 700v131h139v599h422q328 0 545 -190.5t217 -512.5q0 -354 -202 -540.5t-560 -186.5h-422v700h-139zM375 180h215q547 0 547 539q0 231 -145.5 380.5t-381.5 149.5h-235v-418h375v-131h-375v-520z" />
<glyph unicode="&#xd1;" horiz-adv-x="1478" d="M180 0v1430h279l631 -1151h4v1151h204v-1430h-262l-647 1176h-4v-1176h-205zM392 1544q33 229 192 230q55 0 164.5 -47.5t150.5 -47.5q43 -2 65.5 26t29.5 69h94q-33 -229 -193 -230q-55 0 -164.5 47t-150.5 47q-43 2 -65.5 -25.5t-28.5 -68.5h-94z" />
<glyph unicode="&#xd2;" horiz-adv-x="1593" d="M109 715q0 326 184 532.5t503.5 206.5t504 -207t184.5 -532q0 -332 -183.5 -536t-505 -204t-504.5 204t-183 536zM326 715q0 -233 119.5 -396t351 -163t351.5 162.5t120 396.5q0 150 -50.5 274.5t-160 204.5t-261 80t-261 -80t-159.5 -204.5t-50 -274.5zM526 1829h224 l182 -295h-137z" />
<glyph unicode="&#xd3;" horiz-adv-x="1593" d="M109 715q0 326 184 532.5t503.5 206.5t504 -207t184.5 -532q0 -332 -183.5 -536t-505 -204t-504.5 204t-183 536zM326 715q0 -233 119.5 -396t351 -163t351.5 162.5t120 396.5q0 150 -50.5 274.5t-160 204.5t-261 80t-261 -80t-159.5 -204.5t-50 -274.5zM662 1534 l182 295h223l-268 -295h-137z" />
<glyph unicode="&#xd4;" horiz-adv-x="1593" d="M109 715q0 326 184 532.5t503.5 206.5t504 -207t184.5 -532q0 -332 -183.5 -536t-505 -204t-504.5 204t-183 536zM326 715q0 -233 119.5 -396t351 -163t351.5 162.5t120 396.5q0 150 -50.5 274.5t-160 204.5t-261 80t-261 -80t-159.5 -204.5t-50 -274.5zM500 1534 l202 295h187l205 -295h-164l-135 201l-133 -201h-162z" />
<glyph unicode="&#xd5;" horiz-adv-x="1593" d="M109 715q0 326 184 532.5t503.5 206.5t504 -207t184.5 -532q0 -332 -183.5 -536t-505 -204t-504.5 204t-183 536zM326 715q0 -233 119.5 -396t351 -163t351.5 162.5t120 396.5q0 150 -50.5 274.5t-160 204.5t-261 80t-261 -80t-159.5 -204.5t-50 -274.5zM449 1544 q33 229 192 230q55 0 164.5 -47.5t150.5 -47.5q43 -2 65.5 26t29.5 69h94q-33 -229 -193 -230q-55 0 -164.5 47t-150.5 47q-43 2 -65.5 -25.5t-28.5 -68.5h-94z" />
<glyph unicode="&#xd6;" horiz-adv-x="1593" d="M109 715q0 326 184 532.5t503.5 206.5t504 -207t184.5 -532q0 -332 -183.5 -536t-505 -204t-504.5 204t-183 536zM326 715q0 -233 119.5 -396t351 -163t351.5 162.5t120 396.5q0 150 -50.5 274.5t-160 204.5t-261 80t-261 -80t-159.5 -204.5t-50 -274.5zM532 1548v205 h193v-205h-193zM868 1548v205h193v-205h-193z" />
<glyph unicode="&#xd7;" horiz-adv-x="1228" d="M139 170l348 348l-348 348l127 127l348 -350l349 350l127 -127l-351 -348l351 -348l-127 -127l-349 350l-348 -350z" />
<glyph unicode="&#xd8;" horiz-adv-x="1593" d="M109 715q0 326 184 532.5t504 206.5q238 0 413 -127l109 141l74 -57l-111 -145q203 -207 203 -551q0 -332 -183.5 -536t-504.5 -204q-248 0 -416 125l-111 -143l-77 53l116 152q-201 201 -200 553zM326 715q-1 -235 112 -387l652 843q-123 104 -293 103 q-152 0 -261.5 -80t-159.5 -205t-50 -274zM504 258q115 -102 293 -102q231 0 351 162.5t120 396.5q0 229 -115 385z" />
<glyph unicode="&#xd9;" horiz-adv-x="1478" d="M184 592v838h205v-812q0 -463 350.5 -462.5t350.5 462.5v812h204v-838q0 -299 -144 -458t-410.5 -159t-411 159t-144.5 458zM469 1829h224l182 -295h-137z" />
<glyph unicode="&#xda;" horiz-adv-x="1478" d="M184 592v838h205v-812q0 -463 350.5 -462.5t350.5 462.5v812h204v-838q0 -299 -144 -458t-410.5 -159t-411 159t-144.5 458zM605 1534l182 295h223l-268 -295h-137z" />
<glyph unicode="&#xdb;" horiz-adv-x="1478" d="M184 592v838h205v-812q0 -463 350.5 -462.5t350.5 462.5v812h204v-838q0 -299 -144 -458t-410.5 -159t-411 159t-144.5 458zM443 1534l202 295h187l205 -295h-164l-135 201l-133 -201h-162z" />
<glyph unicode="&#xdc;" horiz-adv-x="1478" d="M184 592v838h205v-812q0 -463 350.5 -462.5t350.5 462.5v812h204v-838q0 -299 -144 -458t-410.5 -159t-411 159t-144.5 458zM475 1548v205h193v-205h-193zM811 1548v205h193v-205h-193z" />
<glyph unicode="&#xdd;" horiz-adv-x="1366" d="M23 1430h239l426 -642l416 642h239l-557 -832v-598h-204v598zM549 1534l182 295h223l-268 -295h-137z" />
<glyph unicode="&#xde;" d="M170 0v1430h205v-209h170q115 0 208 -21.5t168.5 -70t117.5 -133.5t42 -203q0 -221 -144 -326t-362 -105h-200v-362h-205zM375 543h203q113 0 199.5 61.5t86.5 190.5q0 84 -54 142t-121.5 80.5t-139.5 22.5h-174v-497z" />
<glyph unicode="&#xdf;" horiz-adv-x="1251" d="M164 0v971q0 291 117.5 440.5t384.5 149.5q162 0 288.5 -106.5t126.5 -295.5q0 -260 -239 -334v-4q139 -16 222 -125.5t83 -251.5q0 -197 -122 -326.5t-331 -129.5q-100 0 -198 28v162q80 -35 161 -35q123 0 204 78t81 215q0 166 -99.5 230.5t-285.5 64.5v156 q156 0 238 59.5t82 206.5q0 104 -61.5 178t-168.5 74q-82 0 -142.5 -36t-91 -97.5t-44 -128t-13.5 -142.5v-1001h-192z" />
<glyph unicode="&#xe0;" d="M94 301q0 94 47 164t123 107.5t155 55t161 17.5q129 0 204 -4q0 139 -58 205.5t-200 66.5q-176 0 -303 -106l-10 164q166 98 344 98q219 0 319.5 -107.5t100.5 -324.5v-432q0 -143 8 -205h-180v135h-4q-113 -160 -324 -160q-176 0 -279.5 81t-103.5 245zM299 301 q0 -78 60.5 -124t134.5 -46q139 0 214.5 77t75.5 198v92q-20 0 -61 2t-61 2q-53 0 -103.5 -6.5t-115 -24.5t-104.5 -61t-40 -109zM299 1485h224l182 -295h-137z" />
<glyph unicode="&#xe1;" d="M94 301q0 94 47 164t123 107.5t155 55t161 17.5q129 0 204 -4q0 139 -58 205.5t-200 66.5q-176 0 -303 -106l-10 164q166 98 344 98q219 0 319.5 -107.5t100.5 -324.5v-432q0 -143 8 -205h-180v135h-4q-113 -160 -324 -160q-176 0 -279.5 81t-103.5 245zM299 301 q0 -78 60.5 -124t134.5 -46q139 0 214.5 77t75.5 198v92q-20 0 -61 2t-61 2q-53 0 -103.5 -6.5t-115 -24.5t-104.5 -61t-40 -109zM435 1190l182 295h223l-268 -295h-137z" />
<glyph unicode="&#xe2;" d="M94 301q0 94 47 164t123 107.5t155 55t161 17.5q129 0 204 -4q0 139 -58 205.5t-200 66.5q-176 0 -303 -106l-10 164q166 98 344 98q219 0 319.5 -107.5t100.5 -324.5v-432q0 -143 8 -205h-180v135h-4q-113 -160 -324 -160q-176 0 -279.5 81t-103.5 245zM273 1190 l202 295h187l205 -295h-164l-135 201l-133 -201h-162zM299 301q0 -78 60.5 -124t134.5 -46q139 0 214.5 77t75.5 198v92q-20 0 -61 2t-61 2q-53 0 -103.5 -6.5t-115 -24.5t-104.5 -61t-40 -109z" />
<glyph unicode="&#xe3;" d="M94 301q0 94 47 164t123 107.5t155 55t161 17.5q129 0 204 -4q0 139 -58 205.5t-200 66.5q-176 0 -303 -106l-10 164q166 98 344 98q219 0 319.5 -107.5t100.5 -324.5v-432q0 -143 8 -205h-180v135h-4q-113 -160 -324 -160q-176 0 -279.5 81t-103.5 245zM222 1200 q33 229 192 230q55 0 164.5 -47.5t150.5 -47.5q43 -2 65.5 26t29.5 69h94q-33 -229 -193 -230q-55 0 -164.5 47t-150.5 47q-43 2 -65.5 -25.5t-28.5 -68.5h-94zM299 301q0 -78 60.5 -124t134.5 -46q139 0 214.5 77t75.5 198v92q-20 0 -61 2t-61 2q-53 0 -103.5 -6.5 t-115 -24.5t-104.5 -61t-40 -109z" />
<glyph unicode="&#xe4;" d="M94 301q0 94 47 164t123 107.5t155 55t161 17.5q129 0 204 -4q0 139 -58 205.5t-200 66.5q-176 0 -303 -106l-10 164q166 98 344 98q219 0 319.5 -107.5t100.5 -324.5v-432q0 -143 8 -205h-180v135h-4q-113 -160 -324 -160q-176 0 -279.5 81t-103.5 245zM299 301 q0 -78 60.5 -124t134.5 -46q139 0 214.5 77t75.5 198v92q-20 0 -61 2t-61 2q-53 0 -103.5 -6.5t-115 -24.5t-104.5 -61t-40 -109zM305 1204v205h193v-205h-193zM641 1204v205h193v-205h-193z" />
<glyph unicode="&#xe5;" d="M94 301q0 94 47 164t123 107.5t155 55t161 17.5q129 0 204 -4q0 139 -58 205.5t-200 66.5q-176 0 -303 -106l-10 164q166 98 344 98q219 0 319.5 -107.5t100.5 -324.5v-432q0 -143 8 -205h-180v135h-4q-113 -160 -324 -160q-176 0 -279.5 81t-103.5 245zM299 301 q0 -78 60.5 -124t134.5 -46q139 0 214.5 77t75.5 198v92q-20 0 -61 2t-61 2q-53 0 -103.5 -6.5t-115 -24.5t-104.5 -61t-40 -109zM361 1362q0 86 61.5 147.5t147.5 61.5q84 0 146.5 -62.5t62.5 -146.5t-62.5 -146.5t-146.5 -62.5t-146.5 61.5t-62.5 147.5zM443 1362 q0 -51 37.5 -89t89.5 -38q49 0 88 39t39 88q0 51 -38 89t-89.5 38t-89 -38t-37.5 -89z" />
<glyph unicode="&#xe6;" horiz-adv-x="1820" d="M84 309q0 102 51 173t135 103.5t161 46t157 13.5q61 0 130.5 -5t86.5 -5q0 143 -81 210.5t-214 67.5q-144 0 -291 -106l-10 162q158 100 346 100q115 0 212 -45t148 -137q102 182 363 182q127 0 220 -48t143.5 -134t73 -186.5t22.5 -221.5h-740q0 -145 97.5 -246.5 t244.5 -101.5q154 0 289 109v-195q-154 -70 -299 -70q-154 0 -278.5 57.5t-171.5 186.5h-5q-31 -117 -141 -180.5t-246 -63.5q-158 0 -280.5 91.5t-122.5 242.5zM289 303q0 -82 60.5 -127t144.5 -45q135 0 223 107.5t88 257.5q-8 0 -69.5 3t-114.5 3q-51 0 -99.5 -7.5 t-106 -25.5t-92 -61.5t-34.5 -104.5zM997 623h535q0 111 -71.5 200.5t-184.5 89.5q-123 0 -201 -83.5t-78 -206.5z" />
<glyph unicode="&#xe7;" horiz-adv-x="909" d="M78 522q0 240 147.5 393.5t384.5 153.5q134 0 234 -41l-17 -160q-109 45 -209 45q-154 0 -244.5 -116.5t-90.5 -274t88 -274.5t260 -117q117 0 207 59l14 -172q-94 -43 -242 -43q-231 0 -381.5 159t-150.5 388zM322 -412l37 70q76 -31 133 -31q47 0 81 21.5t34 72.5 q0 39 -28 59.5t-67 20.5t-84 -16l-34 39l131 176h96l-94 -123l4 -4q27 10 61 10q72 0 121 -41t49 -108q0 -94 -82 -141.5t-186 -47.5q-96 0 -172 43z" />
<glyph unicode="&#xe8;" d="M94 541q0 233 135.5 380.5t354.5 147.5q461 0 460 -590h-745q0 -152 101.5 -250t242.5 -98q86 0 183.5 35t138.5 70v-193q-6 -2 -37 -13.5t-44.5 -16.5t-46 -14t-58 -12t-64.5 -7.5t-80 -4.5q-270 0 -405.5 150.5t-135.5 415.5zM299 623h541q0 125 -70 207.5t-190 82.5 q-129 0 -199 -85.5t-82 -204.5zM299 1485h224l182 -295h-137z" />
<glyph unicode="&#xe9;" d="M94 541q0 233 135.5 380.5t354.5 147.5q461 0 460 -590h-745q0 -152 101.5 -250t242.5 -98q86 0 183.5 35t138.5 70v-193q-6 -2 -37 -13.5t-44.5 -16.5t-46 -14t-58 -12t-64.5 -7.5t-80 -4.5q-270 0 -405.5 150.5t-135.5 415.5zM299 623h541q0 125 -70 207.5t-190 82.5 q-129 0 -199 -85.5t-82 -204.5zM435 1190l182 295h223l-268 -295h-137z" />
<glyph unicode="&#xea;" d="M94 541q0 233 135.5 380.5t354.5 147.5q461 0 460 -590h-745q0 -152 101.5 -250t242.5 -98q86 0 183.5 35t138.5 70v-193q-6 -2 -37 -13.5t-44.5 -16.5t-46 -14t-58 -12t-64.5 -7.5t-80 -4.5q-270 0 -405.5 150.5t-135.5 415.5zM273 1190l202 295h187l205 -295h-164 l-135 201l-133 -201h-162zM299 623h541q0 125 -70 207.5t-190 82.5q-129 0 -199 -85.5t-82 -204.5z" />
<glyph unicode="&#xeb;" d="M94 541q0 233 135.5 380.5t354.5 147.5q461 0 460 -590h-745q0 -152 101.5 -250t242.5 -98q86 0 183.5 35t138.5 70v-193q-6 -2 -37 -13.5t-44.5 -16.5t-46 -14t-58 -12t-64.5 -7.5t-80 -4.5q-270 0 -405.5 150.5t-135.5 415.5zM299 623h541q0 125 -70 207.5t-190 82.5 q-129 0 -199 -85.5t-82 -204.5zM305 1204v205h193v-205h-193zM641 1204v205h193v-205h-193z" />
<glyph unicode="&#xec;" horiz-adv-x="569" d="M14 1485h224l182 -295h-137zM188 0v1044h193v-1044h-193z" />
<glyph unicode="&#xed;" horiz-adv-x="569" d="M150 1190l182 295h223l-268 -295h-137zM188 0v1044h193v-1044h-193z" />
<glyph unicode="&#xee;" horiz-adv-x="569" d="M-12 1190l202 295h187l205 -295h-164l-135 201l-133 -201h-162zM188 0v1044h193v-1044h-193z" />
<glyph unicode="&#xef;" horiz-adv-x="569" d="M20 1204v205h193v-205h-193zM188 0v1044h193v-1044h-193zM356 1204v205h193v-205h-193z" />
<glyph unicode="&#xf0;" horiz-adv-x="1251" d="M94 522q0 240 147.5 393.5t385.5 153.5q96 0 172 -45h4q-96 129 -223 221l-265 -141l-94 108l225 121q-113 68 -256 119l148 109q154 -55 280 -136l250 136l95 -109l-213 -115q184 -141 295.5 -349t111.5 -466q0 -229 -149.5 -388t-381 -159t-382 159t-150.5 388z M299 522q0 -156 84 -273.5t244 -117.5q158 0 241.5 118t83.5 273q0 158 -89 274.5t-236.5 116.5t-237.5 -116.5t-90 -274.5z" />
<glyph unicode="&#xf1;" horiz-adv-x="1251" d="M164 0v1044h186v-165h4q43 88 137.5 139t204.5 51q391 0 391 -448v-621h-192v541q0 188 -49 276t-172 96q-160 0 -239 -115.5t-79 -314.5v-483h-192zM279 1200q33 229 192 230q55 0 164.5 -47.5t150.5 -47.5q43 -2 65.5 26t29.5 69h94q-33 -229 -193 -230 q-55 0 -164.5 47t-150.5 47q-43 2 -65.5 -25.5t-28.5 -68.5h-94z" />
<glyph unicode="&#xf2;" horiz-adv-x="1251" d="M94 522q0 240 147.5 393.5t385.5 153.5q236 0 383 -153.5t147 -393.5q0 -229 -149.5 -388t-381 -159t-382 159t-150.5 388zM299 522q0 -156 84 -273.5t244 -117.5q158 0 241.5 118t83.5 273q0 158 -89 274.5t-236.5 116.5t-237.5 -116.5t-90 -274.5zM356 1485h224 l182 -295h-137z" />
<glyph unicode="&#xf3;" horiz-adv-x="1251" d="M94 522q0 240 147.5 393.5t385.5 153.5q236 0 383 -153.5t147 -393.5q0 -229 -149.5 -388t-381 -159t-382 159t-150.5 388zM299 522q0 -156 84 -273.5t244 -117.5q158 0 241.5 118t83.5 273q0 158 -89 274.5t-236.5 116.5t-237.5 -116.5t-90 -274.5zM492 1190l182 295 h223l-268 -295h-137z" />
<glyph unicode="&#xf4;" horiz-adv-x="1251" d="M94 522q0 240 147.5 393.5t385.5 153.5q236 0 383 -153.5t147 -393.5q0 -229 -149.5 -388t-381 -159t-382 159t-150.5 388zM299 522q0 -156 84 -273.5t244 -117.5q158 0 241.5 118t83.5 273q0 158 -89 274.5t-236.5 116.5t-237.5 -116.5t-90 -274.5zM330 1190l202 295 h187l205 -295h-164l-135 201l-133 -201h-162z" />
<glyph unicode="&#xf5;" horiz-adv-x="1251" d="M94 522q0 240 147.5 393.5t385.5 153.5q236 0 383 -153.5t147 -393.5q0 -229 -149.5 -388t-381 -159t-382 159t-150.5 388zM279 1200q33 229 192 230q55 0 164.5 -47.5t150.5 -47.5q43 -2 65.5 26t29.5 69h94q-33 -229 -193 -230q-55 0 -164.5 47t-150.5 47 q-43 2 -65.5 -25.5t-28.5 -68.5h-94zM299 522q0 -156 84 -273.5t244 -117.5q158 0 241.5 118t83.5 273q0 158 -89 274.5t-236.5 116.5t-237.5 -116.5t-90 -274.5z" />
<glyph unicode="&#xf6;" horiz-adv-x="1251" d="M94 522q0 240 147.5 393.5t385.5 153.5q236 0 383 -153.5t147 -393.5q0 -229 -149.5 -388t-381 -159t-382 159t-150.5 388zM299 522q0 -156 84 -273.5t244 -117.5q158 0 241.5 118t83.5 273q0 158 -89 274.5t-236.5 116.5t-237.5 -116.5t-90 -274.5zM362 1204v205h193 v-205h-193zM698 1204v205h193v-205h-193z" />
<glyph unicode="&#xf7;" horiz-adv-x="1228" d="M96 428v180h1037v-180h-1037zM459 94.5q0 63.5 46 109.5t111 46q61 0 108.5 -46t47.5 -110q0 -59 -47 -108t-107 -49q-66 0 -112.5 47t-46.5 110.5zM459 942q0 66 47 112t110 46q61 0 108.5 -47t47.5 -111q0 -59 -47 -107.5t-107 -48.5q-66 0 -112.5 46.5t-46.5 109.5z " />
<glyph unicode="&#xf8;" horiz-adv-x="1251" d="M94 522q0 240 147.5 393.5t385.5 153.5q184 0 313 -94l109 133l61 -51l-109 -133q156 -152 156 -402q0 -229 -149.5 -388t-380.5 -159q-182 0 -318 103l-116 -141l-62 51l117 145q-154 158 -154 389zM299 522q0 -144 68 -246l458 560q-82 78 -198 77 q-147 0 -237.5 -116.5t-90.5 -274.5zM418 211q84 -80 209 -80q158 0 241.5 118t83.5 273q1 143 -73 252z" />
<glyph unicode="&#xf9;" horiz-adv-x="1251" d="M164 424v620h192v-540q0 -188 49.5 -276.5t172.5 -96.5q160 0 238.5 115.5t78.5 314.5v483h192v-1044h-186v166h-4q-43 -88 -137 -139.5t-205 -51.5q-391 0 -391 449zM356 1485h224l182 -295h-137z" />
<glyph unicode="&#xfa;" horiz-adv-x="1251" d="M164 424v620h192v-540q0 -188 49.5 -276.5t172.5 -96.5q160 0 238.5 115.5t78.5 314.5v483h192v-1044h-186v166h-4q-43 -88 -137 -139.5t-205 -51.5q-391 0 -391 449zM492 1190l182 295h223l-268 -295h-137z" />
<glyph unicode="&#xfb;" horiz-adv-x="1251" d="M164 424v620h192v-540q0 -188 49.5 -276.5t172.5 -96.5q160 0 238.5 115.5t78.5 314.5v483h192v-1044h-186v166h-4q-43 -88 -137 -139.5t-205 -51.5q-391 0 -391 449zM330 1190l202 295h187l205 -295h-164l-135 201l-133 -201h-162z" />
<glyph unicode="&#xfc;" horiz-adv-x="1251" d="M164 424v620h192v-540q0 -188 49.5 -276.5t172.5 -96.5q160 0 238.5 115.5t78.5 314.5v483h192v-1044h-186v166h-4q-43 -88 -137 -139.5t-205 -51.5q-391 0 -391 449zM362 1204v205h193v-205h-193zM698 1204v205h193v-205h-193z" />
<glyph unicode="&#xfd;" horiz-adv-x="1024" d="M14 1044h211l281 -864h4l287 864h194l-385 -1067q-20 -59 -27.5 -77.5t-29 -72.5t-35.5 -75.5t-39.5 -63.5t-50.5 -60.5t-58.5 -41t-73.5 -32t-87 -9.5q-49 1 -131 15l12 157q49 -16 90 -16q59 0 107.5 37t73 86t37 86t12.5 49q0 6 -37 111zM377 1190l182 295h223 l-268 -295h-137z" />
<glyph unicode="&#xfe;" horiz-adv-x="1251" d="M164 -430v1966h192v-635h4q104 168 347 168q217 0 333.5 -151.5t116.5 -376.5q0 -236 -113.5 -401t-334.5 -165q-244 0 -349 168h-4v-573h-192zM356 520q0 -150 79 -269.5t229 -119.5q141 0 216.5 126t71.5 269q4 158 -68.5 272.5t-217.5 114.5q-147 0 -228.5 -116.5 t-81.5 -276.5z" />
<glyph unicode="&#xff;" horiz-adv-x="1024" d="M14 1044h211l281 -864h4l287 864h194l-385 -1067q-20 -59 -27.5 -77.5t-29 -72.5t-35.5 -75.5t-39.5 -63.5t-50.5 -60.5t-58.5 -41t-73.5 -32t-87 -9.5q-49 1 -131 15l12 157q49 -16 90 -16q59 0 107.5 37t73 86t37 86t12.5 49q0 6 -37 111zM247 1204v205h193v-205h-193z M583 1204v205h193v-205h-193z" />
<glyph unicode="&#x152;" horiz-adv-x="1933" d="M109 733q0 324 218 516.5t570 192.5q51 0 150.5 -6t148.5 -6h596v-181h-578v-418h537v-180h-537v-471h592v-180h-594q-53 0 -159.5 -6t-159.5 -6q-348 0 -566 199.5t-218 545.5zM326 733q0 -266 154.5 -415.5t406.5 -149.5q74 0 123 12v1069q-82 12 -125 13 q-262 0 -410.5 -137.5t-148.5 -391.5z" />
<glyph unicode="&#x153;" horiz-adv-x="1933" d="M84 522q0 221 143.5 384t374.5 163q303 0 416 -205q98 205 373 205q127 0 220 -48t143 -134t72.5 -186.5t22.5 -221.5h-739q0 -145 97.5 -246.5t244.5 -101.5q154 0 289 109v-195q-154 -70 -299 -70q-326 0 -430 226q-53 -115 -168 -170.5t-242 -55.5q-238 0 -378 154 t-140 393zM289 522q-2 -166 76.5 -278.5t238.5 -112.5q143 0 228.5 120t85.5 271q0 147 -82 269t-232 122q-152 0 -234.5 -122t-80.5 -269zM1110 623h535q0 111 -72 200.5t-184 89.5q-123 0 -201 -83.5t-78 -206.5z" />
<glyph unicode="&#x178;" horiz-adv-x="1366" d="M23 1430h239l426 -642l416 642h239l-557 -832v-598h-204v598zM419 1548v205h193v-205h-193zM755 1548v205h193v-205h-193z" />
<glyph unicode="&#x2c6;" horiz-adv-x="569" d="M-12 1190l202 295h187l205 -295h-164l-135 201l-133 -201h-162z" />
<glyph unicode="&#x2dc;" horiz-adv-x="569" d="M-63 1200q33 229 192 230q55 0 164.5 -47.5t150.5 -47.5q43 -2 65.5 26t29.5 69h94q-33 -229 -193 -230q-55 0 -164.5 47t-150.5 47q-43 2 -65.5 -25.5t-28.5 -68.5h-94z" />
<glyph unicode="&#x2000;" horiz-adv-x="957" />
<glyph unicode="&#x2001;" horiz-adv-x="1915" />
<glyph unicode="&#x2002;" horiz-adv-x="957" />
<glyph unicode="&#x2003;" horiz-adv-x="1915" />
<glyph unicode="&#x2004;" horiz-adv-x="638" />
<glyph unicode="&#x2005;" horiz-adv-x="478" />
<glyph unicode="&#x2006;" horiz-adv-x="319" />
<glyph unicode="&#x2007;" horiz-adv-x="319" />
<glyph unicode="&#x2008;" horiz-adv-x="239" />
<glyph unicode="&#x2009;" horiz-adv-x="383" />
<glyph unicode="&#x200a;" horiz-adv-x="106" />
<glyph unicode="&#x2010;" horiz-adv-x="681" d="M78 473v156h526v-156h-526z" />
<glyph unicode="&#x2011;" horiz-adv-x="681" d="M78 473v156h526v-156h-526z" />
<glyph unicode="&#x2012;" horiz-adv-x="681" d="M78 473v156h526v-156h-526z" />
<glyph unicode="&#x2013;" horiz-adv-x="1024" d="M0 479v144h1024v-144h-1024z" />
<glyph unicode="&#x2014;" horiz-adv-x="2048" d="M0 479v144h2048v-144h-2048z" />
<glyph unicode="&#x2018;" horiz-adv-x="569" d="M106 928l175 502h182l-129 -502h-228z" />
<glyph unicode="&#x2019;" horiz-adv-x="569" d="M106 928l127 502h230l-180 -502h-177z" />
<glyph unicode="&#x201a;" horiz-adv-x="569" d="M106 -272l130 501h227l-174 -501h-183z" />
<glyph unicode="&#x201c;" d="M197 928l176 502h180l-127 -502h-229zM586 928l172 502h184l-131 -502h-225z" />
<glyph unicode="&#x201d;" d="M197 928l129 502h227l-174 -502h-182zM586 928l129 502h227l-174 -502h-182z" />
<glyph unicode="&#x201e;" d="M197 -272l129 501h227l-174 -501h-182zM586 -272l129 501h227l-174 -501h-182z" />
<glyph unicode="&#x2022;" horiz-adv-x="1024" d="M156 714.5q0 149.5 103 253t253 103.5t254 -103.5t104 -253t-104 -254t-254 -104.5t-253 104.5t-103 254z" />
<glyph unicode="&#x2026;" horiz-adv-x="2048" d="M227 0v229h230v-229h-230zM909 0v229h230v-229h-230zM1591 0v229h230v-229h-230z" />
<glyph unicode="&#x202f;" horiz-adv-x="383" />
<glyph unicode="&#x2039;" horiz-adv-x="569" d="M41 551l293 414h180l-266 -414l266 -414h-180z" />
<glyph unicode="&#x203a;" horiz-adv-x="569" d="M55 137l267 414l-267 414h181l292 -414l-292 -414h-181z" />
<glyph unicode="&#x205f;" horiz-adv-x="478" />
<glyph unicode="&#x2122;" horiz-adv-x="2027" d="M111 1286v144h680v-144h-263v-708h-155v708h-262zM991 578v852h242l223 -576l219 576h242v-852h-156v651h-4l-239 -651h-127l-240 651h-4v-651h-156z" />
<glyph unicode="&#x25fc;" horiz-adv-x="1044" d="M0 0v1044h1044v-1044h-1044z" />
<glyph unicode="&#xfb01;" horiz-adv-x="1366" d="M43 889v155h246v97q0 209 74.5 314.5t275.5 105.5q51 0 129 -13l-8 -155q-35 12 -92 12q-115 0 -151 -62.5t-36 -185.5v-113h277v-155h-277v-889h-192v889h-246zM973 1278v217h217v-217h-217zM985 0v1044h193v-1044h-193z" />
<glyph unicode="&#xfb02;" horiz-adv-x="1366" d="M43 889v155h246v97q0 209 74.5 314.5t275.5 105.5q51 0 129 -13l-8 -155q-35 12 -92 12q-115 0 -151 -62.5t-36 -185.5v-113h277v-155h-277v-889h-192v889h-246zM985 0v1536h193v-1536h-193z" />
</font>
</defs>
</svg>
