<?xml version="1.0" standalone="no"?>
<!DOCTYPE svg PUBLIC "-//W3C//DTD SVG 1.1//EN" "http://www.w3.org/Graphics/SVG/1.1/DTD/svg11.dtd" >
<svg xmlns="http://www.w3.org/2000/svg" xmlns:xlink="http://www.w3.org/1999/xlink" version="1.1">
<metadata>
Created by FontForge 20150318 at Mon Oct  5 08:55:30 2015
 By uniteet7
Copyright (c) 2011 JM Sole (info@jmsole.cl), with Reserved Font Name "Noticia Text".
</metadata>
<defs>
<font id="NoticiaTextItalic" horiz-adv-x="1161" >
  <font-face 
    font-family="NoticiaTextItalic"
    font-weight="400"
    font-style="italic"
    font-stretch="normal"
    units-per-em="2048"
    panose-1="2 0 5 3 6 0 0 9 0 4"
    ascent="1638"
    descent="-410"
    x-height="1085"
    cap-height="1353"
    bbox="-985 -593 2415 2166"
    underline-thickness="51"
    underline-position="-52"
    slope="-8"
    unicode-range="U+0020-FB02"
  />
<missing-glyph horiz-adv-x="1601" 
d="M180 1540h1241v-1975h-1241v1975zM877 552l398 -838v1677zM723 552l-397 839v-1677zM800 390l-329 -696h659zM800 715l330 696h-659z" />
    <glyph glyph-name=".notdef" horiz-adv-x="1601" 
d="M180 1540h1241v-1975h-1241v1975zM877 552l398 -838v1677zM723 552l-397 839v-1677zM800 390l-329 -696h659zM800 715l330 696h-659z" />
    <glyph glyph-name=".null" horiz-adv-x="0" 
 />
    <glyph glyph-name="nonmarkingreturn" horiz-adv-x="0" 
 />
    <glyph glyph-name="space" unicode=" " horiz-adv-x="550" 
 />
    <glyph glyph-name="exclam" unicode="!" horiz-adv-x="619" 
d="M120 79q0 34 8 65.5t21.5 55t32 37.5t39.5 14q36 0 67 -8t54.5 -22.5t36.5 -33t13 -39.5q0 -34 -8 -64.5t-21.5 -54t-32.5 -37.5t-40 -14q-36 0 -67 8t-54 21.5t-36 32t-13 39.5zM338 1540l200 22l17 -22l-202 -1170h-141z" />
    <glyph glyph-name="quotedbl" unicode="&#x22;" horiz-adv-x="737" 
d="M203 1540h196l-5 -42l-111 -341h-133zM471 1540h196l-5 -42l-111 -341h-133z" />
    <glyph glyph-name="numbersign" unicode="#" horiz-adv-x="1341" 
d="M718 321h-286l-91 -321h-155l3 20l85 301h-234l30 107h234l140 496h-253l29 107h255l91 322h155l-3 -20l-86 -302h287l91 322h155l-3 -20l-86 -302h225l-29 -107h-226l-140 -496h245l-30 -107h-245l-91 -321h-155l3 20zM462 428h286l140 496h-286z" />
    <glyph glyph-name="dollar" unicode="$" horiz-adv-x="1083" 
d="M651 762q173 -112 246.5 -203.5t55.5 -213.5q-23 -165 -166 -266q-106 -76 -254 -94l-29 -211h-125l28 204q-97 2 -184 17q-97 16 -163 46l16 259h100l45 -199q45 -12 98 -18q48 -6 102 -6l77 545l-9 6q-207 132 -266 213.5t-44 192.5q22 155 162 248q108 71 262 88
l27 192h125l-26 -187q77 -3 149 -14q87 -14 145 -38l-17 -270h-88l-45 201q-36 9 -90 15q-34 4 -68 6l-72 -508q4 -3 8 -5zM566 87q67 11 119 28q20 28 40.5 75t27.5 91q13 83 -37 157q-30 44 -105 103l-64 -457zM546 1265q-64 -10 -114 -27q-23 -40 -36.5 -77.5
t-19.5 -74.5q-11 -76 42 -142q33 -39 111 -98l60 425q-22 -2 -43 -6z" />
    <glyph glyph-name="percent" unicode="%" horiz-adv-x="1630" 
d="M1296 1353h175l-3 -20l-1154 -1333h-175l3 20zM114 1074q9 62 41.5 117t80.5 96t107.5 64.5t124.5 23.5q64 0 117.5 -23.5t90 -64.5t53 -96t7.5 -117q-9 -63 -41 -117.5t-80 -95.5t-108 -64.5t-124 -23.5q-65 0 -118.5 23.5t-90 64.5t-53 95.5t-7.5 117.5zM265 1074
q-6 -49 2.5 -87t27.5 -64.5t46.5 -40t59.5 -13.5t62.5 13.5t55.5 40t42.5 64.5t23.5 87t-2 87t-27 64t-46.5 40t-59.5 14t-62.5 -14t-55.5 -40t-43 -64t-24 -87zM874 279q9 62 41 117t80 96t107.5 64.5t124.5 23.5q64 0 117.5 -23.5t90.5 -64.5t53.5 -96t7.5 -117
q-9 -63 -41.5 -117.5t-80.5 -95.5t-108 -64.5t-124 -23.5q-65 0 -118.5 23.5t-90 64.5t-52.5 95.5t-7 117.5zM1025 279q-6 -49 2 -87t27 -64.5t46.5 -40t59.5 -13.5t62.5 13.5t55.5 40t43 64.5t24 87t-2.5 87t-27.5 64t-46.5 40t-59.5 14t-62.5 -14t-55.5 -40t-42.5 -64
t-23.5 -87z" />
    <glyph glyph-name="ampersand" unicode="&#x26;" horiz-adv-x="1468" 
d="M1196 519q-13 -93 -60.5 -178t-125.5 -155q63 -52 124.5 -80.5t121.5 -28.5q45 0 83 5t66 12q33 7 59 17l-3 -66q-30 -19 -68 -34q-33 -13 -79 -23t-103 -10q-81 0 -160.5 32t-157.5 89q-95 -57 -211.5 -89t-250.5 -32q-104 0 -184.5 17.5t-133.5 53.5t-76.5 91.5
t-12.5 131.5l2 14q10 69 44.5 127t83.5 107t108.5 89t118.5 73q-27 48 -48.5 95.5t-36 91.5t-20 84.5t-0.5 75.5l3 21q9 61 44 119.5t94.5 104t142.5 73.5t187 28q86 0 147.5 -21t99 -56t52.5 -80.5t8 -94.5l-2 -16q-9 -63 -46 -116.5t-96.5 -103t-139.5 -98t-175 -101.5
q81 -121 162 -228t162 -190q43 52 70.5 116t37.5 140l8 57l-132 33l14 68l306 22zM469 77q97 0 182.5 23.5t155.5 68.5q-97 87 -189 200t-182 243q-41 -24 -77 -54.5t-64.5 -68t-48 -81.5t-26.5 -95l-2 -18q-6 -48 8 -88.5t46.5 -69t82 -44.5t114.5 -16zM860 1100
q4 37 -3.5 69t-27.5 56t-51 37.5t-73 13.5q-32 0 -57.5 -3t-44.5 -7q-22 -4 -39 -10q-23 -21 -41 -50q-17 -25 -32 -60.5t-20 -81.5l-2 -17q-5 -35 -2.5 -68.5t13 -68t28.5 -71t42 -77.5q61 34 114.5 71t94.5 77t66.5 82t31.5 86z" />
    <glyph glyph-name="quotesingle" unicode="'" horiz-adv-x="409" 
d="M123 1540h196l-5 -42l-111 -341h-133z" />
    <glyph glyph-name="parenleft" unicode="(" horiz-adv-x="709" 
d="M309 543q-16 -113 -17 -215.5t9 -193.5t27.5 -170t38.5 -145q48 -154 121 -275l-101 -60q-97 124 -165 286q-29 69 -54 152.5t-40 181t-17 207.5t15 232q17 121 50 231.5t75.5 207.5t91 180.5t96.5 152.5q113 161 245 286l85 -60q-107 -120 -199 -274q-39 -66 -79 -145
t-75 -170.5t-63 -194t-44 -214.5z" />
    <glyph glyph-name="parenright" unicode=")" horiz-adv-x="698" 
d="M370 543q16 112 16.5 214.5t-9.5 194t-27.5 170.5t-38.5 145q-49 154 -121 274l101 60q97 -125 165 -286q29 -69 54 -152.5t40 -180.5t17.5 -207.5t-14.5 -231.5q-17 -122 -50.5 -232t-76 -207.5t-91 -181t-96.5 -152.5q-113 -162 -244 -286l-85 60q106 121 198 275
q39 66 79 145t75 170t63.5 193.5t44.5 215.5z" />
    <glyph glyph-name="asterisk" unicode="*" horiz-adv-x="937" 
d="M577 1103l-8 -277l-3 -24h-153l3 24l70 277l-248 -165l-22 -12l-56 132l21 12l270 112l-240 112l-18 12l94 132l20 -12l202 -165l8 277l3 24h153l-3 -24l-70 -277l248 165l22 12l57 -132l-22 -12l-270 -112l240 -112l18 -12l-94 -132l-20 12z" />
    <glyph glyph-name="plus" unicode="+" horiz-adv-x="1043" 
d="M605 985v-318h298v-147h-298v-318h-147v318h-298v147h298v318h147z" />
    <glyph glyph-name="comma" unicode="," horiz-adv-x="639" 
d="M108 79q0 32 8 61.5t22 52.5t32 37t39 14q39 0 78.5 -12t66.5 -40q9 -9 17 -22t14 -31t10 -42.5t4 -57.5q0 -60 -11.5 -110.5t-39 -98t-74.5 -95t-119 -101.5l-65 77q97 73 137.5 128.5t40.5 96.5q0 20 -16 31t-39 17q-45 13 -75 38t-30 57z" />
    <glyph glyph-name="hyphen" unicode="-" horiz-adv-x="1014" 
d="M181 667h693l-21 -147h-693z" />
    <glyph glyph-name="period" unicode="." horiz-adv-x="605" 
d="M90 71q0 35 7 66.5t19.5 55t29 37.5t36.5 14q36 0 67.5 -7.5t55 -20.5t37 -30.5t13.5 -36.5q0 -36 -7 -67t-20 -54t-30 -36.5t-37 -13.5q-36 0 -67 7t-54 20t-36.5 29.5t-13.5 36.5z" />
    <glyph glyph-name="slash" unicode="/" horiz-adv-x="879" 
d="M774 1540h165l-2 -20l-823 -1815h-164l2 20z" />
    <glyph glyph-name="zero" unicode="0" horiz-adv-x="1176" 
d="M462 -22q-104 0 -182.5 29t-127.5 93.5t-65.5 167t4.5 249.5l15 105q27 188 79.5 329t127.5 235.5t171.5 141.5t211.5 47q114 0 196.5 -30t132 -95t65 -167.5t-5.5 -247.5l-15 -104q-29 -197 -80.5 -339t-127 -234t-175.5 -136t-224 -44zM882 782q21 154 12.5 250.5
t-39 150.5t-79.5 73.5t-108 19.5q-72 0 -129 -30.5t-100.5 -98t-74.5 -174.5t-52 -261l-19 -140q-19 -138 -12.5 -232.5t34.5 -153t76.5 -84t113.5 -25.5q67 0 123.5 27.5t101 93t78 174t55.5 270.5z" />
    <glyph glyph-name="one" unicode="1" horiz-adv-x="735" 
d="M547 0h-447l-8 85l141 20l156 1111h-206v59l305 78h111l-176 -1248l141 -20z" />
    <glyph glyph-name="two" unicode="2" horiz-adv-x="991" 
d="M749 1034q16 123 -39 182.5t-165 59.5q-44 0 -84.5 -7.5t-71.5 -16.5q-37 -11 -68 -23l-85 -220h-87l36 261q51 29 114 52q54 20 127 36.5t161 16.5q91 0 162.5 -19t118 -59t66.5 -101t8 -146q-10 -70 -43 -142t-83.5 -145t-117 -147.5t-143 -151t-161 -155
t-171.5 -159.5l3 -10h457l109 213l81 -13l-71 -340h-810v115q156 147 289.5 274t233.5 238.5t161 211.5t73 195z" />
    <glyph glyph-name="three" unicode="3" horiz-adv-x="996" 
d="M348 -22q-73 0 -136 14.5t-110 32.5q-55 20 -100 47l37 258h86l25 -211q30 -12 65 -21q30 -8 69 -14.5t83 -6.5q61 0 112 16t90 51t65 90.5t36 134.5q10 80 -2.5 137.5t-44 94t-79.5 54t-109 17.5h-91l18 99h93q48 0 91.5 17t78 51.5t58.5 86t33 119.5q8 64 -4.5 108.5
t-39.5 71.5t-66 39t-85 12q-38 0 -72.5 -5t-61.5 -11q-32 -7 -60 -16l-80 -211h-83l37 268q49 20 108 37q50 14 116.5 25.5t141.5 11.5q190 0 276.5 -83t63.5 -241q-9 -66 -34 -118t-58.5 -91t-71.5 -66t-74 -43q45 -14 84.5 -42.5t66.5 -71.5t39 -100.5t2 -129.5
q-14 -101 -56.5 -178t-109 -128.5t-154.5 -78t-193 -26.5z" />
    <glyph glyph-name="four" unicode="4" horiz-adv-x="1006" 
d="M844 0h-447l-8 85l139 20l33 247h-538l-11 56l711 945h174l-683 -892l4 -10h361l55 396h190l-56 -396h118l8 -85l-141 -20l-34 -241l142 -20z" />
    <glyph glyph-name="five" unicode="5" horiz-adv-x="1046" 
d="M399 -22q-84 0 -152 13.5t-117 30.5q-57 19 -102 44l36 257h96l34 -216q27 -9 60 -15q29 -6 68 -10.5t86 -4.5q59 0 113.5 19.5t98 58.5t73.5 97.5t40 136.5q11 82 -3.5 140.5t-48 96.5t-84.5 56t-114 18q-60 0 -107 -8.5t-81 -18.5q-40 -11 -71 -26l-89 60l128 646h713
l-14 -140h-584l-93 -450q17 7 43 15t57.5 14.5t66 10.5t69.5 4q100 0 181.5 -21.5t136 -69.5t78.5 -124t9 -184q-15 -105 -61 -185.5t-116 -134.5t-159 -82t-191 -28z" />
    <glyph glyph-name="six" unicode="6" horiz-adv-x="1049" 
d="M91 572q27 189 98 338.5t171.5 252.5t222.5 157.5t249 54.5q34 0 63.5 -3.5t50.5 -7.5q25 -5 45 -11l-7 -86q-22 2 -47 4q-21 2 -49 3.5t-57 1.5q-91 0 -177.5 -41.5t-158 -119t-122.5 -187t-72 -244.5l9 -4q25 17 57.5 33.5t71 29.5t83.5 21t97 8q88 0 155 -26
t109.5 -75t58 -119.5t2.5 -158.5q-12 -91 -50 -167.5t-99.5 -131.5t-146 -85.5t-190.5 -30.5q-120 0 -200 40t-124.5 110.5t-56 167.5t4.5 212zM753 377q11 72 0.5 127t-39.5 92.5t-74 57t-103 19.5q-50 0 -94.5 -10t-78.5 -22q-40 -14 -73 -31l-12 -89q-29 -218 26.5 -331
t177.5 -113t184.5 75.5t85.5 224.5z" />
    <glyph glyph-name="seven" unicode="7" horiz-adv-x="911" 
d="M174 988h-94l52 365h865v-63l-683 -1290h-169l663 1203l-4 10h-548z" />
    <glyph glyph-name="eight" unicode="8" horiz-adv-x="1031" 
d="M196 1018q10 72 45.5 137t93.5 113.5t137 77.5t177 29q83 0 146.5 -18t104 -54t57 -90.5t6.5 -127.5q-9 -60 -37.5 -111.5t-69.5 -94.5t-90.5 -76.5t-100.5 -56.5q66 -30 117 -67t83 -83.5t44.5 -104t2.5 -129.5q-12 -82 -51.5 -152.5t-105 -122t-155.5 -80.5t-201 -29
q-92 0 -163 20.5t-117.5 61t-66.5 102t-8 142.5q10 67 40 124.5t74.5 104t99.5 82.5t115 59q-48 27 -85 60t-60.5 74.5t-32 93t0.5 116.5zM240 346q-17 -128 34.5 -198.5t159.5 -70.5q61 0 110 18.5t85 50t58.5 74.5t28.5 93q7 52 -1.5 95.5t-34.5 80.5t-70.5 68.5
t-110.5 58.5l-46 19q-36 -19 -71 -45.5t-64 -62.5t-50 -81t-28 -100zM770 1061q15 112 -27.5 163.5t-126.5 51.5q-48 0 -87.5 -18.5t-69 -49.5t-47.5 -70.5t-23 -81.5q-7 -51 -2 -91.5t27 -73.5t63 -60t106 -51q37 19 68 44.5t55 60t40.5 78t23.5 98.5z" />
    <glyph glyph-name="nine" unicode="9" horiz-adv-x="1055" 
d="M320 969q-10 -77 0.5 -135t38 -97.5t70 -59.5t95.5 -20q45 0 88 8t77 19q40 11 76 27l11 87q15 114 13.5 203t-22.5 150t-64 93t-110 32q-65 0 -112 -21t-79.5 -61t-52.5 -96.5t-29 -128.5zM227 -22q-35 0 -67 3t-57 8q-29 5 -55 12l6 86q22 -3 48 -5q22 -2 50 -3.5
t58 -1.5q106 0 198.5 42t164 116.5t118.5 177t63 224.5l-10 4q-22 -14 -53.5 -28.5t-69.5 -26.5t-82 -20t-92 -8q-81 0 -146.5 28.5t-108.5 80.5t-60.5 125.5t-3.5 163.5q15 95 53.5 172.5t100 132t145.5 84.5t191 30q115 0 191.5 -34.5t119 -102t52.5 -166.5t-8 -228
l-11 -78q-29 -204 -96.5 -352.5t-164 -245t-218 -143.5t-256.5 -47z" />
    <glyph glyph-name="colon" unicode=":" horiz-adv-x="683" 
d="M110 71q0 35 7 66.5t19.5 55t29 37.5t36.5 14q36 0 67.5 -7.5t55 -20.5t37 -30.5t13.5 -36.5q0 -36 -7 -67t-20 -54t-30 -36.5t-37 -13.5q-36 0 -67 7t-54 20t-36.5 29.5t-13.5 36.5zM218 837q0 35 7 66.5t19.5 55t29 37.5t36.5 14q36 0 67.5 -7.5t55 -20.5t37 -30.5
t13.5 -36.5q0 -36 -7 -67t-20 -54t-30 -36.5t-37 -13.5q-36 0 -67 7t-54 20t-36.5 29.5t-13.5 36.5z" />
    <glyph glyph-name="semicolon" unicode=";" horiz-adv-x="702" 
d="M237 836q0 35 7 66.5t19.5 55t29 37.5t36.5 14q36 0 67.5 -7.5t55 -20.5t37 -30.5t13.5 -36.5q0 -36 -7 -67t-20 -54t-30 -36.5t-37 -13.5q-36 0 -67 7t-54 20t-36.5 29.5t-13.5 36.5zM128 79q0 32 8 61.5t22 52.5t32 37t39 14q39 0 78.5 -12t66.5 -40q9 -9 17 -22
t14 -31t10 -42.5t4 -57.5q0 -60 -11.5 -110.5t-39 -98t-74.5 -95t-119 -101.5l-65 77q97 73 137.5 128.5t40.5 96.5q0 20 -16 31t-39 17q-45 13 -75 38t-30 57z" />
    <glyph glyph-name="less" unicode="&#x3c;" horiz-adv-x="1148" 
d="M140 555v96l798 374h30v-139l-592 -278v-10l592 -277v-140h-30z" />
    <glyph glyph-name="equal" unicode="=" horiz-adv-x="1102" 
d="M160 464h802v-157h-802v157zM160 927h802v-157h-802v157z" />
    <glyph glyph-name="greater" unicode="&#x3e;" horiz-adv-x="1148" 
d="M210 181h-30v140l592 277v10l-592 278v139h30l798 -374v-96z" />
    <glyph glyph-name="question" unicode="?" horiz-adv-x="1083" 
d="M544 758q-71 -56 -105.5 -97.5t-39.5 -84.5q-6 -45 15.5 -67.5t65.5 -22.5q28 0 54 4.5t46 10.5q23 7 43 16l-14 -91q-23 -14 -53 -25q-26 -10 -60.5 -17.5t-76.5 -7.5q-45 0 -84.5 12t-67.5 37t-41.5 62t-6.5 88q5 36 19.5 71t40.5 71.5t65 75.5t94 84l171 140
q51 42 87 74.5t59.5 62t36 58t17.5 61.5q5 37 -4.5 69.5t-37 57t-74 38.5t-116.5 14q-48 0 -86.5 -5t-64.5 -11q-32 -7 -55 -16l-101 -235l-90 17l39 277q50 23 112 41q54 16 127 29t163 13q98 0 171.5 -18.5t120.5 -54.5t66.5 -88t10.5 -119q-8 -57 -25.5 -103t-49.5 -89.5
t-81 -89.5t-120 -104zM202 79q0 34 8 65.5t21.5 55t32 37.5t39.5 14q36 0 67 -8t54.5 -22.5t36.5 -33t13 -39.5q0 -34 -8 -64.5t-21.5 -54t-32.5 -37.5t-40 -14q-36 0 -67 8t-54 21.5t-36 32t-13 39.5z" />
    <glyph glyph-name="at" unicode="@" horiz-adv-x="1863" 
d="M749 523q-22 -157 -3.5 -242t89.5 -85q37 0 72.5 19t67.5 48t60 64t49.5 67t35 56.5t17.5 32.5l64 463q-21 9 -47 16q-22 6 -51 11.5t-61 5.5q-35 0 -66 -8t-55 -17q-28 -11 -52 -25q-24 -38 -45 -93q-19 -47 -38 -115.5t-32 -161.5zM1358 -165q-76 -41 -164 -73
q-76 -27 -175.5 -49.5t-211.5 -22.5q-109 0 -206 14t-178.5 45.5t-144 82.5t-103 124.5t-56.5 171t-3 222.5q16 151 62.5 285.5t119 248.5t167 205t207 154.5t239.5 97.5t263 34q168 0 295 -45t209.5 -127t118.5 -197.5t21 -255.5q-13 -123 -45.5 -217.5t-77.5 -165.5
t-99.5 -120t-110.5 -80t-110.5 -46.5t-100.5 -18.5l-147 -14l-34 78l26 190q-6 -11 -21 -35t-38 -54t-54 -61.5t-69 -57.5t-82.5 -43t-94.5 -17q-58 0 -101.5 19t-70 60.5t-35 107.5t3.5 160l12 93q15 112 53 209.5t98 170t142.5 114t185.5 41.5q61 0 121 -12.5t109 -26.5
q56 -18 109 -39l-112 -796q52 4 108 27t106.5 80.5t89 157t55.5 256.5q30 281 -97 413t-406 132q-107 0 -206.5 -31.5t-187.5 -89t-162.5 -137.5t-131.5 -177.5t-94 -209t-50 -230.5q-11 -108 3 -192.5t48 -148t87 -107.5t119 -71t143 -39t161 -12q105 0 197 17t161 38
q81 25 149 56z" />
    <glyph glyph-name="A" unicode="A" 
d="M1019 105l112 -20l-17 -85h-417l-8 85l141 20l-64 321h-476l-157 -321l142 -20l-17 -85h-374l-8 85l111 20l622 1248h149zM621 1104l-283 -579h408l-115 579h-10z" />
    <glyph glyph-name="B" unicode="B" horiz-adv-x="1142" 
d="M16 0l-8 85l141 20l161 1143l-141 20l17 85h483q217 0 314 -78.5t74 -242.5q-15 -106 -80 -186t-161 -122v-16q112 -27 169 -111t40 -202q-26 -184 -152.5 -289.5t-319.5 -105.5h-537zM480 99q87 0 164 13t131 36q16 40 31.5 96.5t27.5 139.5q17 128 -54.5 198.5
t-211.5 70.5h-152l-78 -554h142zM563 752q55 0 117 10t116 29q20 39 40 100t28 122q16 115 -38 178t-215 63h-110l-71 -502h133z" />
    <glyph glyph-name="C" unicode="C" horiz-adv-x="1163" 
d="M81 604q52 380 233 575.5t481 195.5q101 0 194.5 -15.5t159.5 -43.5l-17 -270h-88l-45 203q-42 12 -107 19.5t-142 7.5q-79 0 -158 -23.5t-144 -64.5q-58 -96 -101.5 -226t-64.5 -279l-18 -133q-31 -225 69.5 -349t300.5 -124q90 0 189 27t195 77l-15 -76
q-95 -57 -213.5 -92t-233.5 -35q-283 0 -403 136.5t-84 400.5z" />
    <glyph glyph-name="D" unicode="D" horiz-adv-x="1335" 
d="M16 0l-8 85l141 20l161 1143l-141 20l17 85h546q300 0 431 -153t90 -458l-12 -88q-44 -310 -218.5 -482t-441.5 -172h-565zM554 99q74 0 148.5 16t135.5 43q68 69 127 187.5t82 276.5l13 94q35 259 -63.5 398.5t-322.5 139.5h-173l-163 -1155h216z" />
    <glyph glyph-name="E" unicode="E" horiz-adv-x="1165" 
d="M411 658l-79 -559h511l105 203l80 -13l-66 -289h-952l-8 85l141 20l161 1143l-141 20l17 85h943l-19 -300h-86l-40 201h-483l-70 -497h386l40 137l83 -20l-52 -355l-87 -5v144h-384z" />
    <glyph glyph-name="F" unicode="F" horiz-adv-x="1035" 
d="M186 1353h873l-19 -300h-86l-40 201h-413l-70 -497h316l40 137l83 -20l-52 -355l-87 -5v144h-314l-78 -553l191 -20l-17 -85h-497l-8 85l141 20l161 1143l-141 20z" />
    <glyph glyph-name="G" unicode="G" horiz-adv-x="1275" 
d="M752 646h447l8 -85l-141 -20l-61 -436q-104 -59 -224.5 -93t-232.5 -34q-263 0 -388 135t-89 392l13 89q55 378 240 579.5t482 201.5q100 0 191.5 -14.5t163.5 -42.5l-17 -270h-88l-45 201q-53 13 -117.5 20t-128.5 7q-81 0 -163.5 -24t-149.5 -64q-59 -98 -101.5 -223
t-64.5 -282l-18 -133q-29 -227 78.5 -350t269.5 -123q48 0 100 9.5t100 25.5l60 429l-141 20z" />
    <glyph glyph-name="H" unicode="H" horiz-adv-x="1451" 
d="M182 1353h447l8 -85l-141 -20l-68 -480h624l68 480l-141 20l17 85h447l8 -85l-141 -20l-161 -1143l141 -20l-17 -85h-447l-8 85l141 20l79 564h-624l-79 -564l141 -20l-17 -85h-447l-8 85l141 20l161 1143l-141 20z" />
    <glyph glyph-name="I" unicode="I" horiz-adv-x="637" 
d="M306 1248l-141 20l17 85h447l8 -85l-141 -20l-161 -1143l141 -20l-17 -85h-447l-8 85l141 20z" />
    <glyph glyph-name="J" unicode="J" horiz-adv-x="890" 
d="M399 1353h497l8 -85l-141 -20l-128 -912q-24 -174 -120 -266t-256 -92q-58 0 -117 14t-106 39l16 260h86l46 -204q16 -4 41.5 -7.5t50.5 -3.5q24 0 50.5 5t52.5 16q20 42 39 111.5t32 160.5l123 879l-191 20z" />
    <glyph glyph-name="K" unicode="K" horiz-adv-x="1272" 
d="M459 0h-447l-8 85l141 20l161 1143l-141 20l17 85h447l8 -85l-141 -20l-84 -594l13 -6l627 600l-109 20l17 85h354l8 -85l-91 -20l-508 -481l383 -662l112 -20l-17 -85h-248l-368 637l-202 -191l-48 -341l141 -20z" />
    <glyph glyph-name="L" unicode="L" horiz-adv-x="976" 
d="M820 0h-806l-8 85l141 20l161 1143l-141 20l17 85h477l8 -85l-171 -20l-162 -1149h361l110 213l81 -12z" />
    <glyph glyph-name="M" unicode="M" horiz-adv-x="1868" 
d="M409 0h-397l-8 85l141 20l161 1143l-141 20l17 85h429l269 -1042h16l545 1042h419l8 -85l-141 -20l-161 -1143l141 -20l-17 -85h-447l-8 85l141 20l154 1095h-16l-637 -1200h-105l-317 1200h-16l-154 -1095l141 -20z" />
    <glyph glyph-name="N" unicode="N" horiz-adv-x="1524" 
d="M1140 1353h398l8 -85l-141 -20l-176 -1248h-287l-484 1218h-16l-157 -1113l141 -20l-17 -85h-397l-8 85l141 20l161 1143l-141 20l17 85h426l484 -1217h16l156 1112l-141 20z" />
    <glyph glyph-name="O" unicode="O" horiz-adv-x="1346" 
d="M564 -22q-279 0 -400 137.5t-84 409.5l11 79q55 388 229 579.5t461 191.5q276 0 399 -137t84 -411l-11 -78q-53 -378 -225.5 -574.5t-463.5 -196.5zM1067 783q33 242 -51 367.5t-283 125.5q-73 0 -148 -23.5t-137 -64.5q-56 -108 -96 -235t-57 -250l-18 -133
q-32 -234 63 -363.5t272 -129.5q76 0 151 24t134 65q53 101 93.5 228.5t58.5 255.5z" />
    <glyph glyph-name="P" unicode="P" horiz-adv-x="1106" 
d="M513 0h-497l-8 85l141 20l161 1143l-141 20l17 85h507q225 0 329 -84t79 -261q-26 -179 -159 -285.5t-319 -106.5h-212l-72 -511l191 -20zM587 715q65 0 128 9.5t117 28.5q20 39 40 96.5t29 118.5q20 142 -48 214t-227 72h-125l-76 -539h162z" />
    <glyph glyph-name="Q" unicode="Q" horiz-adv-x="1356" 
d="M562 -22q-280 0 -401 138t-83 409l11 79q53 377 227.5 574t462.5 197q276 0 399 -137t84 -411l-11 -78q-32 -225 -106 -385t-190 -255l1 -1q35 -105 64 -154t79 -49q35 0 70.5 6.5t67.5 18.5l-14 -70q-38 -24 -86.5 -39t-97.5 -15q-92 0 -148 40.5t-92 142.5l-9 27
q-105 -38 -228 -38zM1066 783q35 252 -53.5 372.5t-281.5 120.5q-76 0 -153.5 -23.5t-141.5 -64.5q-46 -96 -85 -223t-58 -262l-18 -133q-4 -28 -6 -52.5t-2 -43.5q44 60 109 90.5t146 30.5q160 0 238 -70.5t121 -201.5l41 -119q36 82 72 204.5t53 241.5zM718 223
q-45 136 -97.5 204.5t-153.5 68.5q-76 0 -123 -38t-55 -98q-4 -26 -0.5 -45.5t10.5 -38.5q40 -98 124 -148.5t188 -50.5q43 0 80 6t70 16z" />
    <glyph glyph-name="R" unicode="R" horiz-adv-x="1201" 
d="M463 0h-447l-8 85l141 20l161 1143l-141 20l17 85h498q204 0 303 -88t75 -262q-18 -125 -91.5 -219t-178.5 -137l-8 -19l217 -523l122 -20l-17 -85h-259l-255 616h-181l-72 -511l141 -20zM550 715q67 0 133.5 13.5t113.5 35.5q24 42 42 97t25 108q20 146 -41 215.5
t-226 69.5h-96l-76 -539h125z" />
    <glyph glyph-name="S" unicode="S" horiz-adv-x="1047" 
d="M623 762q173 -112 246.5 -203.5t55.5 -213.5q-23 -165 -165.5 -266t-358.5 -101q-109 0 -206 16.5t-163 46.5l16 259h100l45 -199q45 -12 98 -18t113 -6q68 0 134.5 10.5t118.5 27.5q20 28 40.5 75t27.5 91q13 83 -37 157t-227 190q-207 132 -266 213.5t-44 192.5
q22 155 162 248t358 93q93 0 179.5 -14t144.5 -38l-17 -270h-88l-45 201q-36 9 -90 15.5t-108 6.5q-65 0 -129 -10.5t-114 -27.5q-23 -40 -36.5 -77.5t-19.5 -74.5q-11 -76 42.5 -141.5t232.5 -182.5z" />
    <glyph glyph-name="T" unicode="T" horiz-adv-x="1038" 
d="M506 1254h-305l-75 -191h-88l56 290h1032l-27 -290h-79l-30 191h-294l-162 -1149l141 -20l-17 -85h-447l-8 85l141 20z" />
    <glyph glyph-name="U" unicode="U" horiz-adv-x="1384" 
d="M604 1268l-141 -20l-98 -702q-32 -231 44 -350t247 -119q78 0 151.5 21.5t123.5 54.5q38 63 71.5 163.5t47.5 204.5l102 727l-141 20l17 85h398l8 -85l-141 -20l-102 -730q-40 -281 -184.5 -410.5t-408.5 -129.5q-253 0 -360 125.5t-71 387.5l106 757l-141 20l17 85h447z
" />
    <glyph glyph-name="V" unicode="V" horiz-adv-x="1231" 
d="M1092 1248l-142 20l17 85h374l8 -85l-111 -20l-614 -1248h-191l-263 1248l-112 20l17 85h417l8 -85l-141 -20l209 -1066h16z" />
    <glyph glyph-name="W" unicode="W" horiz-adv-x="2028" 
d="M57 1353h417l8 -85l-141 -20l200 -1016h16l500 1121h191l176 -1121h16l454 1016l-141 20l17 85h374l8 -85l-111 -20l-569 -1248h-191l-177 1107h-16l-493 -1107h-192l-253 1248l-110 20z" />
    <glyph glyph-name="X" unicode="X" horiz-adv-x="1253" 
d="M930 1353h351l8 -85l-109 -20l-444 -548l309 -595l112 -20l-17 -85h-405l-8 85l114 16l-248 479h-16l-373 -479l114 -16l-17 -85h-353l-8 85l110 20l479 597l-283 546l-112 20l17 85h400l8 -85l-109 -16l224 -429h16l336 429l-113 16z" />
    <glyph glyph-name="Y" unicode="Y" horiz-adv-x="1086" 
d="M21 1353h401l8 -85l-111 -16l262 -530h16l394 529l-116 17l17 85h356l8 -85l-111 -20l-504 -672l-66 -471l141 -20l-17 -85h-447l-8 85l141 20l66 473l-335 670l-112 20z" />
    <glyph glyph-name="Z" unicode="Z" horiz-adv-x="1142" 
d="M1110 1353v-94l-868 -1146l3 -14h577l99 213l90 -12l-67 -300h-930v95l867 1145l-3 14h-536l-99 -213l-91 12l68 300h890z" />
    <glyph glyph-name="bracketleft" unicode="[" horiz-adv-x="696" 
d="M378 1677h358l-13 -96h-192l-272 -1942h191l-13 -96h-357z" />
    <glyph glyph-name="backslash" unicode="\" horiz-adv-x="840" 
d="M650 -275l-2 -20h-165l-313 1815l2 20h165z" />
    <glyph glyph-name="bracketright" unicode="]" horiz-adv-x="696" 
d="M317 -457h-357l13 96h190l272 1942h-190l13 96h358z" />
    <glyph glyph-name="asciicircum" unicode="^" horiz-adv-x="854" 
d="M434 1540h96l364 -461v-30h-139l-268 335h-10l-267 -335h-140v30z" />
    <glyph glyph-name="underscore" unicode="_" horiz-adv-x="976" 
d="M-90 -235h1036v-144h-1036v144z" />
    <glyph glyph-name="grave" unicode="`" horiz-adv-x="738" 
d="M533 1275l-89 -10l-244 329l10 66l176 10l152 -363z" />
    <glyph glyph-name="a" unicode="a" horiz-adv-x="1158" 
d="M1013 0l-230 -22l-81 78l26 190q-78 -122 -179 -195t-206 -73q-165 0 -222 95t-29 300l26 188q37 252 177.5 399t342.5 147q81 0 179.5 -20.5t199.5 -57.5l-129 -924l142 -20zM284 461q-27 -192 -3 -283.5t123 -91.5q84 0 175 81t167 206l85 617q-46 16 -99 24.5
t-100 8.5q-55 0 -108.5 -14t-94.5 -36q-40 -66 -72.5 -159.5t-53.5 -221.5z" />
    <glyph glyph-name="b" unicode="b" horiz-adv-x="1117" 
d="M168 1540l230 22l81 -78l-90 -645q82 124 182.5 196t200.5 72q164 0 223 -92t30 -303l-26 -188q-36 -250 -174.5 -398t-344.5 -148q-82 0 -183 21t-197 57l192 1379l-141 20zM833 624q28 201 2.5 288t-121.5 87q-81 0 -173 -79.5t-170 -207.5l-86 -617q37 -14 91 -23.5
t109 -9.5q52 0 109 14t104 36q43 77 71.5 170.5t45.5 210.5z" />
    <glyph glyph-name="c" unicode="c" horiz-adv-x="926" 
d="M868 818l-86 -10v181q-32 14 -73 21t-86 7q-51 0 -100 -14t-85 -35q-54 -78 -91.5 -178.5t-57.5 -227.5l-17 -119q-25 -182 37.5 -278.5t171.5 -96.5q64 0 140.5 24.5t142.5 65.5v-86q-64 -43 -153 -68.5t-184 -25.5q-195 0 -281.5 111t-55.5 340l14 93q41 277 188 431
t353 154q80 0 153 -13t126 -39z" />
    <glyph glyph-name="d" unicode="d" 
d="M770 1540l230 22l81 -78l-193 -1379l142 -20l-17 -85l-230 -22l-81 78l26 190q-80 -122 -179.5 -195t-202.5 -73q-169 0 -225.5 96.5t-28.5 298.5l26 188q37 257 176 401.5t344 144.5q49 0 101.5 -7t105.5 -19l49 354l-141 20zM284 461q-30 -213 -0.5 -294t120.5 -81
q84 0 175.5 81.5t166.5 206.5l86 616q-38 14 -92.5 23.5t-107.5 9.5q-54 0 -108 -14t-95 -36q-40 -65 -75.5 -169t-50.5 -212z" />
    <glyph glyph-name="e" unicode="e" horiz-adv-x="937" 
d="M903 835q-22 -159 -139 -251t-290 -92q-61 0 -112 3t-83 7l-8 -59q-25 -182 35 -278.5t164 -96.5q61 0 131 26.5t122 63.5v-86q-55 -41 -135.5 -67.5t-171.5 -26.5q-190 0 -274.5 112t-52.5 339l13 93q37 268 173.5 426.5t338.5 158.5q161 0 234 -73t55 -199zM433 968
q-46 -68 -84.5 -170t-57.5 -215q56 -3 110.5 -5t106.5 -2q43 0 83.5 10.5t72.5 29.5q20 41 32.5 84.5t20.5 101.5q14 101 -19.5 158t-115.5 57q-36 0 -75 -13t-74 -36z" />
    <glyph glyph-name="f" unicode="f" horiz-adv-x="648" 
d="M469 1085h214l-11 -84h-215l-145 -1048q-29 -208 -112.5 -309t-248.5 -101q-60 0 -121.5 13t-107.5 34l45 111q57 -20 131.5 -35.5t137.5 -15.5q31 43 55 111t38 165l148 1075h-189l11 84h191q39 229 133 353t255 124q47 0 95.5 -12.5t88.5 -34.5l-40 -111
q-47 21 -109.5 36t-118.5 15q-39 -48 -72.5 -140.5t-49.5 -207.5z" />
    <glyph glyph-name="g" unicode="g" horiz-adv-x="1114" 
d="M39 -247q119 -44 236.5 -70.5t197.5 -26.5q90 52 151.5 165t82.5 268l21 156q-83 -125 -181.5 -196t-199.5 -71q-174 0 -228 100t-26 295l26 188q35 246 174.5 396t345.5 150q85 0 187 -22t192 -56l-126 -900q-40 -288 -183.5 -437t-359.5 -149q-93 0 -186.5 21
t-156.5 49zM285 461q-30 -210 -1 -292.5t121 -82.5q80 0 170 76.5t171 209.5l86 618q-40 14 -94 23.5t-105 9.5q-56 0 -110 -14t-93 -36q-43 -69 -77 -173t-49 -208z" />
    <glyph glyph-name="h" unicode="h" horiz-adv-x="1263" 
d="M1106 0l-230 -22l-82 78l93 675q20 143 0 205.5t-94 62.5q-88 0 -187.5 -75t-193.5 -210l-102 -736l-178 22l200 1435l-141 20l17 85l230 22l81 -78l-90 -646q90 123 204 196t228 73q134 0 186.5 -70t31.5 -218l-98 -714l142 -20z" />
    <glyph glyph-name="i" unicode="i" horiz-adv-x="637" 
d="M163 1085l231 22l81 -78l-129 -924l141 -20l-17 -85l-230 -22l-81 78l128 924l-141 20zM326 1410q0 52 20.5 91t49.5 39q51 0 90.5 -20.5t39.5 -49.5q0 -55 -21 -92.5t-49 -37.5q-55 0 -92.5 20.5t-37.5 49.5z" />
    <glyph glyph-name="j" unicode="j" horiz-adv-x="579" 
d="M160 1085l231 22l81 -78l-152 -1076q-31 -215 -116.5 -312.5t-242.5 -97.5q-62 0 -124 14t-105 33l45 111q75 -24 147 -37.5t127 -13.5q29 43 51 109t35 155l147 1066l-141 20zM323 1410q0 52 20.5 91t49.5 39q51 0 90.5 -20.5t39.5 -49.5q0 -55 -21 -92.5t-49 -37.5
q-55 0 -92.5 20.5t-37.5 49.5z" />
    <glyph glyph-name="k" unicode="k" horiz-adv-x="1110" 
d="M1041 0l-213 -22l-81 78l-231 465q-33 -17 -68 -33.5t-71 -30.5l-67 -479l-178 22l200 1435l-141 20l17 85l231 22l81 -78l-125 -897q77 34 149 79.5t136.5 97.5t121 109t101.5 115l-84 12l17 85l148 22l104 -98q-29 -42 -71 -91.5t-95.5 -101.5t-117.5 -104.5
t-137 -101.5l250 -506l141 -19z" />
    <glyph glyph-name="l" unicode="l" horiz-adv-x="620" 
d="M210 1540l231 22l81 -78l-193 -1379l141 -20l-17 -85l-230 -22l-81 78l192 1379l-141 20z" />
    <glyph glyph-name="m" unicode="m" horiz-adv-x="1933" 
d="M1123 0l-230 -22l-81 78l93 675q21 146 0 207t-94 61q-84 0 -183.5 -72t-197.5 -213l-103 -736l-176 22l135 980l-141 20l17 85l231 22l81 -78l-27 -190q87 119 201.5 193.5t230.5 74.5q137 0 186.5 -70.5t33.5 -199.5q94 128 207.5 199t225.5 71q136 0 187.5 -71.5
t30.5 -216.5l-98 -714l141 -20l-17 -85l-230 -22l-81 78l93 675q20 141 1 204.5t-95 63.5q-93 0 -195 -81t-187 -205l-83 -608l141 -20z" />
    <glyph glyph-name="n" unicode="n" horiz-adv-x="1279" 
d="M1123 0l-230 -22l-81 78l93 675q20 147 0 207.5t-94 60.5q-88 0 -187.5 -75t-193.5 -210l-103 -736l-176 22l135 980l-141 20l17 85l231 22l81 -78l-27 -190q95 127 208.5 197.5t223.5 70.5q135 0 186.5 -70t31.5 -218l-98 -714l141 -20z" />
    <glyph glyph-name="o" unicode="o" horiz-adv-x="1089" 
d="M437 -22q-203 0 -291.5 113t-55.5 338l14 93q40 271 188 428t363 157q206 0 291.5 -115t53.5 -345l-13 -95q-36 -254 -189.5 -414t-360.5 -160zM818 632q26 189 -23 287t-172 98q-51 0 -100.5 -14t-88.5 -35q-50 -75 -89 -182t-56 -224l-17 -119q-24 -182 35.5 -278.5
t161.5 -96.5q44 0 91.5 12.5t97.5 37.5q46 60 85.5 160t58.5 235z" />
    <glyph glyph-name="p" unicode="p" horiz-adv-x="1152" 
d="M141 1085l230 22l81 -78l-27 -191q82 125 183 197t201 72q171 0 226.5 -97t26.5 -298l-26 -188q-36 -253 -176 -399.5t-343 -146.5q-50 0 -104.5 7.5t-103.5 18.5l-47 -334l142 -20l-17 -85h-437l-8 85l140 20l183 1310l-141 20zM870 624q28 195 3.5 285t-122.5 90
q-82 0 -173.5 -79.5t-169.5 -208.5l-86 -616q39 -14 92 -23.5t108 -9.5q45 -1 104 12.5t109 37.5q35 59 67.5 159t49.5 222z" />
    <glyph glyph-name="q" unicode="q" horiz-adv-x="1099" 
d="M507 -350l140 20l80 575q-87 -132 -186 -199.5t-195 -67.5q-166 0 -224.5 94t-29.5 301l26 188q36 247 175 396.5t345 149.5q87 0 191 -23t188 -55l-190 -1359l142 -20l-17 -85h-437zM284 461q-30 -210 -1 -292.5t121 -82.5q77 0 164.5 71t176.5 215l86 618
q-47 16 -99 24.5t-100 8.5t-102 -13t-101 -37q-41 -67 -74.5 -165.5t-51.5 -215.5z" />
    <glyph glyph-name="r" unicode="r" horiz-adv-x="925" 
d="M176 1085l231 22l81 -78l-29 -209q63 136 147.5 211.5t176.5 75.5q42 0 82.5 -14.5t69.5 -37.5l-56 -237l-106 -12v173q-7 5 -20 7.5t-28 2.5q-60 0 -135.5 -86.5t-154.5 -251.5l-76 -546l142 -20l-17 -85h-438l-8 85l140 20l122 875l-141 20z" />
    <glyph glyph-name="s" unicode="s" horiz-adv-x="923" 
d="M540 632q177 -108 229 -184.5t38 -176.5q-20 -139 -140.5 -216t-298.5 -77q-83 0 -159 19.5t-127 50.5l24 240h82l31 -197q33 -11 79 -17t96 -6q48 0 95 8.5t78 19.5q18 21 32.5 52t20.5 72q10 70 -29 126.5t-203 159.5q-155 96 -201 164.5t-33 157.5q19 122 129 200.5
t286 78.5q80 0 154 -18t124 -50l-25 -241h-81l-33 199q-28 9 -70 14.5t-85 5.5q-44 0 -88 -8.5t-71 -19.5q-21 -22 -34.5 -49t-18.5 -58q-12 -76 28.5 -123.5t170.5 -126.5z" />
    <glyph glyph-name="t" unicode="t" horiz-adv-x="765" 
d="M99 1085h176l29 207l193 83l-41 -290h307l-11 -84h-308l-91 -653q-19 -137 8 -208.5t105 -71.5q42 0 96.5 21.5t96.5 48.5v-86q-55 -34 -120.5 -54t-132.5 -20q-155 0 -207.5 89t-27.5 267l92 667h-175z" />
    <glyph glyph-name="u" unicode="u" horiz-adv-x="1263" 
d="M792 1085l231 22l81 -78l-129 -924l141 -20l-17 -85l-230 -22l-81 78l26 188q-91 -123 -204 -194.5t-226 -71.5q-133 0 -186 70t-32 218l97 714l-141 20l17 85l231 22l81 -78l-93 -675q-20 -147 1.5 -207.5t92.5 -60.5q89 0 189 75.5t190 206.5l85 612l-141 20z" />
    <glyph glyph-name="v" unicode="v" horiz-adv-x="953" 
d="M306 0l-138 980l-137 20l17 85l204 22l81 -78l125 -894q67 100 123 210t98.5 220t70 216.5t38.5 198.5l-141 20l17 85l190 22l81 -78q0 -83 -19.5 -174t-53 -185t-78.5 -187.5t-95.5 -182.5t-104 -171t-104.5 -151z" />
    <glyph glyph-name="w" unicode="w" horiz-adv-x="1565" 
d="M48 1085l204 22l81 -78l115 -827l384 905l105 -22l133 -950q67 100 123 210t98.5 220t70 216.5t38.5 198.5l-141 20l17 85l190 22l81 -78q0 -83 -19.5 -174t-53 -185t-78.5 -187.5t-95.5 -182.5t-104 -171t-104.5 -151l-174 22l-109 776l-329 -798l-174 22l-138 980
l-137 20z" />
    <glyph glyph-name="x" unicode="x" horiz-adv-x="1019" 
d="M956 0l-211 -22l-81 78l-187 395q-88 -94 -161.5 -183t-126.5 -170l98 -13l-17 -85l-148 -22l-104 98q10 28 33 64t55 76t71 83.5t81 87t85.5 85t85.5 79.5l-203 429l-139 20l17 85l211 22l81 -78l176 -373q165 176 262 330l-100 14l17 85l148 22l104 -98
q-15 -41 -54 -97t-92 -117.5t-114.5 -124.5t-121.5 -118l212 -448l140 -19z" />
    <glyph glyph-name="y" unicode="y" horiz-adv-x="1204" 
d="M141 1085l231 22l81 -78l-93 -675q-19 -136 0 -202t94 -66q88 1 185.5 73t193.5 210l85 611l-141 20l17 85l231 22l81 -78l-126 -900q-41 -287 -183.5 -436.5t-359.5 -149.5q-89 0 -180 19.5t-163 50.5l33 140q108 -40 228 -68.5t206 -28.5q84 47 148 159.5t86 273.5
l21 156q-93 -127 -205.5 -197t-224.5 -70q-133 0 -186 69.5t-32 218.5l97 714l-141 20z" />
    <glyph glyph-name="z" unicode="z" horiz-adv-x="953" 
d="M732 1005h-419l-82 -174l-103 26l50 228h767l-10 -83l-709 -922h428l82 174l103 -26l-50 -228h-767l11 95z" />
    <glyph glyph-name="braceleft" unicode="{" horiz-adv-x="820" 
d="M143 658h96q61 0 89 24.5t37 85.5l88 629q9 60 37 111.5t70.5 89t97 58.5t114.5 21h78l-13 -96h-21q-91 0 -136 -39.5t-58 -130.5l-82 -583q-9 -62 -25 -103t-36 -65.5t-43.5 -34.5t-45.5 -10l-1 -10q22 0 42.5 -10t34 -34.5t18 -65.5t-4.5 -103l-82 -583
q-13 -91 21 -130.5t125 -39.5h21l-13 -96h-78q-60 0 -108.5 21t-81 58.5t-46.5 89t-5 111.5l88 629q9 61 -12 85.5t-82 24.5h-96z" />
    <glyph glyph-name="bar" unicode="|" horiz-adv-x="638" 
d="M270 1670h118v-2207h-118v2207z" />
    <glyph glyph-name="braceright" unicode="}" horiz-adv-x="819" 
d="M676 562h-96q-61 0 -89 -24.5t-37 -85.5l-88 -629q-9 -60 -37 -111.5t-70.5 -89t-97 -58.5t-114.5 -21h-77l13 96h21q90 0 135 39.5t58 130.5l82 583q9 62 25 103t36 65.5t43 34.5t46 10l1 10q-23 0 -43 10t-33.5 34.5t-18 65.5t4.5 103l82 583q13 91 -21 130.5
t-125 39.5h-21l13 96h78q60 0 108.5 -21t81 -58.5t46.5 -89t5 -111.5l-88 -629q-9 -61 12 -85.5t82 -24.5h96z" />
    <glyph glyph-name="asciitilde" unicode="~" horiz-adv-x="1103" 
d="M120 549q0 56 18.5 99t50.5 72t76 43.5t95 14.5q36 0 80.5 -10t91.5 -24.5t94 -31.5t88.5 -31.5t74.5 -24.5t52 -10t37.5 7.5t33 22.5t23.5 37.5t9 52.5l117 10v-47q0 -53 -17 -95.5t-47 -72t-72 -45.5t-92 -16q-32 0 -76.5 10t-93.5 24.5t-99.5 31.5t-95 31.5
t-79.5 24.5t-53 10q-20 0 -39.5 -4t-34.5 -15t-24 -30t-9 -49l-109 -10v25z" />
    <glyph glyph-name="uni00A0" unicode="&#xa0;" horiz-adv-x="550" 
 />
    <glyph glyph-name="exclamdown" unicode="&#xa1;" horiz-adv-x="621" 
d="M501 1006q0 -35 -8 -66t-21.5 -54.5t-32 -37.5t-39.5 -14q-36 0 -67 8t-54.5 22.5t-36.5 33t-13 39.5q0 34 8 64.5t21.5 54t32.5 37.5t40 14q36 0 67 -8t54 -21.5t36 -32t13 -39.5zM279 -435l-198 -22l-17 22l199 1150h141z" />
    <glyph glyph-name="cent" unicode="&#xa2;" horiz-adv-x="966" 
d="M429 -21q-105 2 -177 34t-113.5 89.5t-53 140t4.5 186.5l14 93q20 131 64.5 233t107.5 175t142 115.5t169 55.5l36 252h98l-35 -246q70 -2 122 -10.5t87 -17.5q40 -11 69 -24l-56 -237l-86 -10v181q-15 7 -37 12q-19 5 -46.5 9t-65.5 6l-133 -946q53 5 101 19.5t84 29.5
q42 18 79 39v-86q-32 -20 -73 -38q-35 -15 -86.5 -30t-116.5 -22l-32 -227h-98zM272 443q-14 -89 -4.5 -154t35 -109.5t62.5 -70t78 -35.5l132 937q-29 -5 -53 -12t-41 -14q-20 -8 -37 -17q-34 -46 -64 -107q-26 -52 -51.5 -127t-39.5 -172z" />
    <glyph glyph-name="sterling" unicode="&#xa3;" horiz-adv-x="1159" 
d="M142 671l113 30q-6 46 -9.5 84.5t-4 75t2 74t8.5 80.5q10 72 43 137t91.5 114.5t144 79t200.5 29.5q82 0 145 -13t106 -29q50 -18 87 -41l-38 -277h-79l-39 244q-23 7 -53 13q-26 5 -63.5 9t-85.5 4q-44 0 -83 -6.5t-68 -14.5q-34 -9 -63 -20q-14 -26 -26 -59
q-11 -29 -21.5 -68t-16.5 -89q-11 -81 -10.5 -157.5t11.5 -159.5h436l-18 -101h-403q8 -65 11 -121t-7 -114q-11 -63 -27.5 -114t-32.5 -87q-18 -42 -38 -75h449l110 213l81 -12l-68 -300h-841l-8 85l120 17q13 22 29 59q14 31 27.5 76t23.5 102q5 31 6.5 61t0 62t-5.5 68
t-10 80h-120z" />
    <glyph glyph-name="currency" unicode="&#xa4;" horiz-adv-x="1221" 
d="M195 191l141 169q-38 48 -59.5 105.5t-21.5 122.5q0 61 19.5 116t54.5 101l-139 165l128 107l138 -165q42 23 90 35t100 12q51 0 98.5 -12t89.5 -34l138 164l129 -109l-138 -164q35 -46 54.5 -101t19.5 -115q0 -65 -22 -123t-61 -106l144 -170l-128 -107l-148 175
q-82 -40 -176 -40q-48 0 -92 10t-84 29l-146 -174zM431 588q0 -56 17 -98t46 -71t68.5 -43.5t83.5 -14.5t83 14.5t68 43.5t46 71t17 98q0 55 -17 97.5t-46 71.5t-68 43.5t-83 14.5t-83.5 -14.5t-68.5 -43.5t-46 -71.5t-17 -97.5z" />
    <glyph glyph-name="yen" unicode="&#xa5;" horiz-adv-x="1086" 
d="M109 384h315l26 188h-319l20 107h249l-284 569l-112 20l17 85h401l8 -85l-111 -16l262 -530h16l394 529l-116 17l17 85h356l8 -85l-111 -20l-427 -569h235l-20 -107h-293l-26 -188h297l-20 -107h-292l-24 -172l141 -20l-17 -85h-447l-8 85l141 20l24 172h-320z" />
    <glyph glyph-name="brokenbar" unicode="&#xa6;" horiz-adv-x="638" 
d="M270 320h118v-857h-118v857zM270 1670h118v-857h-118v857z" />
    <glyph glyph-name="section" unicode="&#xa7;" horiz-adv-x="1174" 
d="M736 980q78 -45 139.5 -87.5t102 -89t58 -100t7.5 -120.5q-13 -85 -65.5 -144.5t-128.5 -104.5q38 -44 53.5 -93.5t6.5 -115.5q-17 -128 -132.5 -190.5t-311.5 -62.5q-85 0 -150.5 10.5t-111.5 24.5q-54 15 -93 35l59 260h90v-217q24 -7 57 -12q28 -5 68 -8t91 -3
q50 0 91.5 5.5t72.5 13.5q36 9 66 20q10 14 18 30q7 14 13.5 31t9.5 36q6 40 -10.5 75t-57.5 71.5t-107.5 77.5t-162.5 93q-70 38 -124 75.5t-89 80t-49 92.5t-5 114q13 86 65.5 149t126.5 111q-32 37 -45.5 80t-5.5 100q7 52 34 100.5t79.5 85.5t134 59t198.5 22
q80 0 140.5 -10.5t102.5 -23.5q48 -15 83 -34l-60 -260h-91v217q-23 6 -52 10q-25 4 -59.5 7.5t-76.5 3.5q-51 0 -92.5 -5.5t-70.5 -12.5q-34 -8 -61 -18q-9 -14 -18 -29q-8 -13 -15 -29.5t-9 -33.5q-6 -41 7 -72t47 -62.5t91.5 -67t141.5 -84.5zM544 545q72 -42 131 -76.5
t104 -69.5q42 32 67.5 71.5t33.5 91.5q6 41 -7.5 74.5t-48 65.5t-90 67.5t-133.5 80.5q-60 35 -110.5 65t-90.5 61q-43 -35 -64.5 -72.5t-29.5 -91.5q-5 -38 4.5 -69t37.5 -61.5t76 -63t120 -73.5z" />
    <glyph glyph-name="dieresis" unicode="&#xa8;" horiz-adv-x="916" 
d="M150 1371q0 25 5 47.5t14 39.5t21 27t26 10q25 0 47.5 -5.5t39.5 -14.5t27 -21t10 -26q0 -52 -19.5 -87.5t-47.5 -35.5q-52 0 -87.5 19t-35.5 47zM576 1371q0 25 5 47.5t14 39.5t21 27t26 10q25 0 47.5 -5.5t39.5 -14.5t27 -21t10 -26q0 -52 -19.5 -87.5t-47.5 -35.5
q-52 0 -87.5 19t-35.5 47z" />
    <glyph glyph-name="copyright" unicode="&#xa9;" horiz-adv-x="1307" 
d="M405 919q0 97 21 169.5t60 120.5t94 72t123 24q44 0 79 -6t60 -13q29 -9 52 -19l12 -193l-68 -14l-44 137q-11 3 -25 6q-12 2 -29 4t-38 2q-29 0 -52 -4.5t-39 -9.5q-19 -6 -33 -14q-7 -27 -12 -61q-5 -29 -8 -70.5t-3 -92.5v-68q0 -51 14.5 -88t38 -61.5t52 -36
t57.5 -11.5q36 0 69 7t59 16q30 10 57 23v-84q-28 -17 -61 -30q-29 -11 -68.5 -20t-87.5 -9q-61 0 -112.5 16t-88.5 48.5t-58 82.5t-21 119v58zM209 949q0 -99 37 -185.5t101.5 -151t151 -101.5t185.5 -37t185.5 37t151 101.5t101.5 151t37 185.5t-37 185.5t-101.5 151
t-151 101.5t-185.5 37t-185.5 -37t-151 -101.5t-101.5 -151t-37 -185.5zM70 949q0 127 48.5 239t131.5 195t195 131t239 48t239 -48t195 -131t131 -195t48 -239t-48 -239t-131 -195t-195 -131.5t-239 -48.5q-85 0 -163.5 22t-146.5 62t-124 96t-96 124t-62 146.5t-22 163.5z
" />
    <glyph glyph-name="ordfeminine" unicode="&#xaa;" horiz-adv-x="609" 
d="M589 821l-148 -11l-41 39l13 93q-6 -9 -22.5 -31t-43 -44.5t-62 -39.5t-79.5 -17q-35 0 -61 10t-42 33t-21 61t3 94l13 94q8 56 29.5 105.5t58 87t87.5 59t117 21.5q33 0 68 -6t64 -14q33 -9 66 -19l-62 -443l73 -9zM212 1052q-13 -90 -2 -129t51 -39q30 0 57 18.5
t49 42.5t37 47t20 33l38 272q-7 3 -30 9.5t-57 6.5q-20 0 -36.5 -4t-30.5 -9q-16 -5 -29 -12q-12 -18 -23 -44q-10 -22 -20 -53.5t-15 -73.5z" />
    <glyph glyph-name="guillemotleft" unicode="&#xab;" horiz-adv-x="1075" 
d="M486 115l-336 421l9 60l454 421h85l-3 -22l-359 -419l-3 -20l241 -419l-3 -22h-85zM755 159l-211 389l5 36l321 389h85l-3 -22l-221 -385l112 -385l-3 -22h-85z" />
    <glyph glyph-name="logicalnot" unicode="&#xac;" horiz-adv-x="1163" 
d="M160 757h863v-452h-147v315h-716v137z" />
    <glyph glyph-name="uni00AD" unicode="&#xad;" horiz-adv-x="899" 
d="M190 665l589 41l-30 -149l-589 -41z" />
    <glyph glyph-name="registered" unicode="&#xae;" horiz-adv-x="1307" 
d="M70 949q0 127 48.5 239t131.5 195t195 131t239 48t239 -48t195 -131t131 -195t48 -239t-48 -239t-131 -195t-195 -131.5t-239 -48.5q-85 0 -163.5 22t-146.5 62t-124 96t-96 124t-62 146.5t-22 163.5zM209 949q0 -99 37 -185.5t101.5 -151t151 -101.5t185.5 -37t185.5 37
t151 101.5t101.5 151t37 185.5t-37 185.5t-101.5 151t-151 101.5t-185.5 37t-185.5 -37t-151 -101.5t-101.5 -151t-37 -185.5zM497 1199l-70 17l9 55h261q103 0 156 -40.5t53 -127.5q0 -67 -30 -108t-74 -68v-6l124 -207l72 -14l-9 -55h-156l-155 266h-59v-196l70 -15
l-9 -55h-244l-9 55l70 15v484zM619 1187v-192h56q22 0 39 2.5t29 5.5q14 4 25 9q3 10 7 23q2 11 4.5 26t2.5 33q0 38 -27 65.5t-90 27.5h-46z" />
    <glyph glyph-name="macron" unicode="&#xaf;" horiz-adv-x="1028" 
d="M167 1463h711l-18 -110h-710z" />
    <glyph glyph-name="degree" unicode="&#xb0;" horiz-adv-x="634" 
d="M110 1305q0 53 20 100t55 82t82 55t100 20t100 -20t82 -55t55 -82t20 -100t-20 -100t-55 -82t-82 -55t-100 -20t-100 20t-82 55t-55 82t-20 100zM239 1305q0 -36 10 -63.5t27.5 -46.5t40.5 -28.5t50 -9.5t50 9.5t40.5 28.5t27.5 46.5t10 63.5t-10 63.5t-27.5 46.5
t-40.5 28.5t-50 9.5t-50 -9.5t-40.5 -28.5t-27.5 -46.5t-10 -63.5z" />
    <glyph glyph-name="plusminus" unicode="&#xb1;" horiz-adv-x="1043" 
d="M605 1085v-318h298v-147h-298v-318h-147v318h-298v147h298v318h147zM187 147h693v-147h-693v147z" />
    <glyph glyph-name="twosuperior" unicode="&#xb2;" horiz-adv-x="581" 
d="M397 1589q4 28 -2 47t-19 30.5t-31.5 16.5t-40.5 5q-20 0 -38.5 -3.5t-32.5 -8.5q-17 -5 -31 -12l-44 -110l-74 5l22 156q31 16 69 28q32 11 74.5 20t90.5 9q47 0 85 -10.5t63 -31.5t36 -52.5t5 -74.5q-6 -47 -36 -95.5t-75 -99.5t-101.5 -104.5t-117.5 -108.5l1 -5h178
l56 106l70 -11l-39 -200h-465l11 82q80 70 148.5 130.5t119.5 112.5t82 96.5t36 82.5z" />
    <glyph glyph-name="threesuperior" unicode="&#xb3;" horiz-adv-x="548" 
d="M194 1073q-41 0 -76 6t-61 14q-31 9 -57 21l23 165l74 6l11 -106q14 -7 31 -11q14 -4 32.5 -7t40.5 -3q23 0 45 7.5t40.5 21.5t31 35.5t16.5 50.5q5 34 -1.5 58t-21.5 39t-37.5 22t-50.5 7h-44l12 84h46q52 0 81.5 28.5t36.5 79.5q4 28 -0.5 46.5t-16.5 29.5t-30.5 15.5
t-40.5 4.5q-17 0 -33 -2.5t-28 -5.5q-14 -4 -27 -8l-40 -106l-73 6l23 164q27 10 60 18q28 7 65 13t79 6q109 0 157.5 -42.5t37.5 -119.5q-5 -36 -19.5 -62.5t-33.5 -46t-39 -32.5t-37 -22q23 -8 44 -21.5t36.5 -33t23 -45.5t2.5 -60q-8 -54 -32.5 -94t-62 -67t-85.5 -40
t-102 -13z" />
    <glyph glyph-name="acute" unicode="&#xb4;" horiz-adv-x="840" 
d="M205 1307l254 363l181 -10l-10 -66l-356 -329l-74 10z" />
    <glyph glyph-name="uni00B5" unicode="&#xb5;" horiz-adv-x="1262" 
d="M249 -435l-183 -22l196 1437l-141 20l17 85l231 22l81 -78l-93 -675q-11 -79 -9.5 -131t14 -82.5t36 -42.5t57.5 -12q57 0 111 28.5t102.5 71t89.5 92t73 92.5l84 610l-141 20l17 85l231 22l81 -78l-128 -924l140 -20l-17 -85q-21 -7 -44 -11q-20 -5 -43.5 -8t-46.5 -3
q-95 0 -133 62t-18 201q-17 -20 -41 -47.5t-53.5 -56.5t-64.5 -57.5t-74 -51t-82 -36.5t-88 -14q-29 0 -53.5 7t-43 19t-30.5 26.5t-17 29.5l-11 -4z" />
    <glyph glyph-name="paragraph" unicode="&#xb6;" horiz-adv-x="1138" 
d="M519 485q-84 0 -159 24.5t-128 78t-77.5 139t-7.5 208.5q14 102 58.5 180.5t112 131t153.5 79.5t183 27h500l8 -85l-141 -20l-152 -1084q-18 -132 -58 -221t-96.5 -143.5t-126 -78t-146.5 -23.5q-60 0 -108 7t-82 16q-40 11 -71 24l16 82q30 -9 65 -16q30 -6 70 -10.5
t85 -4.5q51 0 92.5 20t74.5 63.5t56 111.5t37 165l155 1098h-140l-108 -769h-65z" />
    <glyph glyph-name="periodcentered" unicode="&#xb7;" horiz-adv-x="584" 
d="M220 654q0 31 7 59t19.5 49t29 33.5t34.5 12.5q33 0 61 -7t48.5 -19.5t32.5 -29.5t12 -36q0 -30 -7 -58t-19.5 -49t-29 -33.5t-35.5 -12.5q-32 0 -60 7t-48.5 19.5t-32.5 29t-12 35.5z" />
    <glyph glyph-name="cedilla" unicode="&#xb8;" horiz-adv-x="842" 
d="M538 37l-68 -135q40 -11 73.5 -25t56 -35t32.5 -51t4 -72q-5 -38 -24.5 -70t-52 -55.5t-76.5 -37t-99 -13.5q-40 0 -73 7t-58 16q-29 11 -53 24l23 63q25 -11 52 -20q23 -8 52.5 -14t60.5 -6q20 0 36 2t27 4q12 3 22 7q5 12 9 26q4 12 7.5 27t5.5 32q5 54 -25.5 85
t-99.5 51l-36 52l72 138h132z" />
    <glyph glyph-name="onesuperior" unicode="&#xb9;" horiz-adv-x="446" 
d="M200 1658h-113l2 47l190 57h66l-83 -591l99 -17l-20 -69h-313v69l104 17z" />
    <glyph glyph-name="ordmasculine" unicode="&#xba;" horiz-adv-x="594" 
d="M279 810q-119 0 -164.5 60t-29.5 166l7 46q11 73 38.5 127.5t66.5 91.5t88 55.5t103 18.5q52 0 91.5 -12.5t64.5 -39.5t34.5 -71t1.5 -107l-6 -48q-8 -61 -33 -113.5t-64 -91t-89.5 -60.5t-108.5 -22zM459 1137q7 52 3 85.5t-16.5 53t-32 27t-41.5 7.5t-39.5 -4t-29.5 -9
q-15 -5 -26 -12q-13 -21 -24 -48q-10 -23 -20.5 -57t-17.5 -78l-9 -59q-7 -47 -2 -79t18 -51.5t32.5 -28.5t40.5 -9q23 0 40 3.5t29 8.5q14 5 25 13q13 18 25 44q10 23 20.5 56t16.5 78z" />
    <glyph glyph-name="guillemotright" unicode="&#xbb;" horiz-adv-x="1075" 
d="M377 115l3 22l359 419l3 20l-241 419l3 22h85l336 -421l-9 -60l-454 -421h-85zM120 159l3 22l222 385l-113 385l3 22h85l211 -389l-5 -36l-321 -389h-85z" />
    <glyph glyph-name="onequarter" unicode="&#xbc;" horiz-adv-x="1374" 
d="M240 1249h-113l2 47l190 57h66l-83 -591l99 -17l-20 -69h-313v69l104 17zM1184 1353h105l-3 -20l-1167 -1333h-105l3 20zM1204 0h-322v69l118 17l11 75h-264l-4 63l334 453h127l-326 -431h144l21 148h130l-21 -148h86l3 -70l-101 -17l-10 -73l94 -17z" />
    <glyph glyph-name="onehalf" unicode="&#xbd;" horiz-adv-x="1433" 
d="M260 1249h-113l2 47l190 57h66l-83 -591l99 -17l-20 -69h-313v69l104 17zM1204 1353h105l-3 -20l-1167 -1333h-105l3 20zM1195 504q4 28 -2 47t-19 30.5t-31.5 16.5t-40.5 5q-20 0 -38.5 -3.5t-32.5 -8.5q-17 -5 -31 -12l-44 -110l-74 5l22 156q31 16 69 28
q32 11 74.5 20t90.5 9q47 0 85 -10.5t63 -31.5t36 -52.5t5 -74.5q-6 -47 -36 -95.5t-75 -99.5t-101.5 -104.5t-117.5 -108.5l1 -5h178l56 106l70 -11l-39 -200h-465l11 82q80 70 148.5 130.5t119.5 112.5t82 96.5t36 82.5z" />
    <glyph glyph-name="threequarters" unicode="&#xbe;" horiz-adv-x="1423" 
d="M260 676q-41 0 -76 6t-61 14q-31 9 -57 21l23 165l74 6l11 -106q14 -7 31 -11q14 -4 32.5 -7t40.5 -3q23 0 45 7.5t40.5 21.5t31 35.5t16.5 50.5q5 34 -1.5 58t-21.5 39t-37.5 22t-50.5 7h-44l12 84h46q52 0 81.5 28.5t36.5 79.5q4 28 -0.5 46.5t-16.5 29.5t-30.5 15.5
t-40.5 4.5q-17 0 -33 -2.5t-28 -5.5q-14 -4 -27 -8l-40 -106l-73 6l23 164q27 10 60 18q28 7 65 13t79 6q109 0 157.5 -42.5t37.5 -119.5q-5 -36 -19.5 -62.5t-33.5 -46t-39 -32.5t-37 -22q23 -8 44 -21.5t36.5 -33t23 -45.5t2.5 -60q-8 -54 -32.5 -94t-62 -67t-85.5 -40
t-102 -13zM1233 1353h105l-3 -20l-1167 -1333h-105l3 20zM1253 0h-322v69l118 17l11 75h-264l-4 63l334 453h127l-326 -431h144l21 148h130l-21 -148h86l3 -70l-101 -17l-10 -73l94 -17z" />
    <glyph glyph-name="questiondown" unicode="&#xbf;" horiz-adv-x="1048" 
d="M522 327q70 57 104.5 100t40.5 88q5 44 -16 64t-65 20q-29 0 -54.5 -5t-45.5 -11q-24 -7 -44 -15l14 91q23 14 53 25q26 9 60.5 17t76.5 8q45 0 84.5 -12t67.5 -36t42 -60.5t7 -84.5q-5 -39 -19.5 -75t-40.5 -72.5t-65 -76t-94 -84.5l-172 -140q-51 -42 -87 -76t-60 -64
t-36.5 -58t-16.5 -58q-5 -33 5 -62t38 -50.5t75 -34t117 -12.5q48 0 86 4.5t64 9.5q31 6 54 14l104 239l89 -17l-39 -277q-50 -24 -112 -42q-54 -16 -127 -28.5t-162 -12.5q-197 0 -293.5 69.5t-77.5 203.5q7 52 26.5 97.5t53 89t81.5 88.5t113 98zM865 1006q0 -35 -8 -66
t-21.5 -54.5t-32 -37.5t-39.5 -14q-36 0 -67 8t-54.5 22.5t-36.5 33t-13 39.5q0 34 8 64.5t21.5 54t32.5 37.5t40 14q36 0 67 -8t54 -21.5t36 -32t13 -39.5z" />
    <glyph glyph-name="Agrave" unicode="&#xc0;" 
d="M1019 105l112 -20l-17 -85h-417l-8 85l141 20l-64 321h-476l-157 -321l142 -20l-17 -85h-374l-8 85l111 20l622 1248h149zM621 1104l-283 -579h408l-115 579h-10zM786 1471l-96 -11l-340 248l9 66l193 10l239 -281z" />
    <glyph glyph-name="Aacute" unicode="&#xc1;" 
d="M1019 105l112 -20l-17 -85h-417l-8 85l141 20l-64 321h-476l-157 -321l142 -20l-17 -85h-374l-8 85l111 20l622 1248h149zM621 1104l-283 -579h408l-115 579h-10zM576 1503l337 281l191 -10l-9 -66l-430 -248l-94 11z" />
    <glyph glyph-name="Acircumflex" unicode="&#xc2;" 
d="M1019 105l112 -20l-17 -85h-417l-8 85l141 20l-64 321h-476l-157 -321l142 -20l-17 -85h-374l-8 85l111 20l622 1248h149zM621 1104l-283 -579h408l-115 579h-10zM1035 1470l-106 -10l-196 198l-273 -198l-93 10l5 32l323 292l132 -10l213 -282z" />
    <glyph glyph-name="Atilde" unicode="&#xc3;" 
d="M1019 105l112 -20l-17 -85h-417l-8 85l141 20l-64 321h-476l-157 -321l142 -20l-17 -85h-374l-8 85l111 20l622 1248h149zM621 1104l-283 -579h408l-115 579h-10zM300 1520q8 54 28.5 94.5t50.5 68.5t66.5 42t76.5 14q65 0 123.5 -20.5t109.5 -45.5t94 -45.5t77 -20.5
q36 0 66.5 32t40.5 98l99 10l-7 -47q-8 -51 -27 -91.5t-47.5 -69t-64.5 -43.5t-78 -15q-57 0 -117 20.5t-115.5 45.5t-104 45.5t-83.5 20.5q-17 0 -33 -4.5t-29.5 -16.5t-23.5 -33t-15 -54l-91 -10z" />
    <glyph glyph-name="Adieresis" unicode="&#xc4;" 
d="M1019 105l112 -20l-17 -85h-417l-8 85l141 20l-64 321h-476l-157 -321l142 -20l-17 -85h-374l-8 85l111 20l622 1248h149zM621 1104l-283 -579h408l-115 579h-10zM387 1571q0 26 5.5 49.5t14.5 41.5t21.5 28.5t27.5 10.5q26 0 49.5 -5.5t41.5 -15.5t28.5 -22.5
t10.5 -27.5q0 -27 -5.5 -50.5t-15 -41t-22 -27.5t-27.5 -10q-27 0 -51 5.5t-41 15t-27 22t-10 27.5zM823 1571q0 26 5.5 49.5t14.5 41.5t21.5 28.5t27.5 10.5q27 0 50.5 -5.5t41 -15.5t28 -22.5t10.5 -27.5q0 -27 -5.5 -50.5t-15 -41t-22 -27.5t-27.5 -10q-27 0 -50.5 5.5
t-41 15t-27.5 22t-10 27.5z" />
    <glyph glyph-name="Aring" unicode="&#xc5;" 
d="M1019 105l112 -20l-17 -85h-417l-8 85l141 20l-64 321h-476l-157 -321l142 -20l-17 -85h-374l-8 85l111 20l622 1248h149zM621 1104l-283 -579h408l-115 579h-10zM534 1570q7 52 28.5 92t52.5 67t69 41t79 14q36 0 67 -9t53 -27.5t32 -47t5 -66.5q-8 -55 -29 -95.5
t-51.5 -66.5t-68.5 -39t-79 -13q-37 0 -68.5 9.5t-53 28t-31.5 46.5t-5 66zM639 1602q-7 -53 15.5 -83.5t58.5 -30.5q17 0 32 3t26 7q12 4 23 11q4 11 8 25q4 12 8 29t7 39q7 54 -16 84.5t-59 30.5q-17 0 -31 -3.5t-25 -7.5q-13 -4 -24 -10q-4 -7 -8 -19q-4 -11 -8 -28.5
t-7 -46.5z" />
    <glyph glyph-name="AE" unicode="&#xc6;" horiz-adv-x="1596" 
d="M1240 757l40 137l83 -20l-52 -355l-87 -5v144h-334l-79 -559h461l105 203l80 -13l-66 -289h-902l-8 85l141 20l45 321h-375l-196 -323l131 -18l-17 -85h-374l-8 85l113 20l770 1248h841l-19 -300h-86l-40 201h-433l-70 -497h336zM681 525l100 707l-429 -707h329z" />
    <glyph glyph-name="Ccedilla" unicode="&#xc7;" horiz-adv-x="1163" 
d="M81 604q52 380 233 575.5t481 195.5q101 0 194.5 -15.5t159.5 -43.5l-17 -270h-88l-45 203q-42 12 -107 19.5t-142 7.5q-79 0 -158 -23.5t-144 -64.5q-58 -96 -101.5 -226t-64.5 -279l-18 -133q-31 -225 69.5 -349t300.5 -124q90 0 189 27t195 77l-15 -76
q-95 -57 -214 -92q-100 -29 -197 -34l-38 -77q40 -11 73.5 -25t56 -35t32.5 -51t4 -72q-5 -38 -24.5 -70t-52 -55.5t-76.5 -37t-99 -13.5q-40 0 -73 7t-58 16q-29 11 -53 24l23 63q25 -11 52 -20q23 -8 52.5 -14t60.5 -6q20 0 36 2t27 4q12 3 22 7q5 12 9 26q4 12 7.5 27
t5.5 32q5 54 -25.5 85t-99.5 51l-36 52l43 83q-209 20 -308 132q-120 137 -84 401z" />
    <glyph glyph-name="Egrave" unicode="&#xc8;" horiz-adv-x="1165" 
d="M411 658l-79 -559h511l105 203l80 -13l-66 -289h-952l-8 85l141 20l161 1143l-141 20l17 85h943l-19 -300h-86l-40 201h-483l-70 -497h386l40 137l83 -20l-52 -355l-87 -5v144h-384zM788 1471l-96 -11l-340 248l9 66l193 10l239 -281z" />
    <glyph glyph-name="Eacute" unicode="&#xc9;" horiz-adv-x="1165" 
d="M411 658l-79 -559h511l105 203l80 -13l-66 -289h-952l-8 85l141 20l161 1143l-141 20l17 85h943l-19 -300h-86l-40 201h-483l-70 -497h386l40 137l83 -20l-52 -355l-87 -5v144h-384zM578 1503l337 281l191 -10l-9 -66l-430 -248l-94 11z" />
    <glyph glyph-name="Ecircumflex" unicode="&#xca;" horiz-adv-x="1165" 
d="M411 658l-79 -559h511l105 203l80 -13l-66 -289h-952l-8 85l141 20l161 1143l-141 20l17 85h943l-19 -300h-86l-40 201h-483l-70 -497h386l40 137l83 -20l-52 -355l-87 -5v144h-384zM1037 1470l-106 -10l-196 198l-273 -198l-93 10l5 32l323 292l132 -10l213 -282z" />
    <glyph glyph-name="Edieresis" unicode="&#xcb;" horiz-adv-x="1165" 
d="M411 658l-79 -559h511l105 203l80 -13l-66 -289h-952l-8 85l141 20l161 1143l-141 20l17 85h943l-19 -300h-86l-40 201h-483l-70 -497h386l40 137l83 -20l-52 -355l-87 -5v144h-384zM389 1571q0 26 5.5 49.5t14.5 41.5t21.5 28.5t27.5 10.5q26 0 49.5 -5.5t41.5 -15.5
t28.5 -22.5t10.5 -27.5q0 -27 -5.5 -50.5t-15 -41t-22 -27.5t-27.5 -10q-27 0 -51 5.5t-41 15t-27 22t-10 27.5zM825 1571q0 26 5.5 49.5t14.5 41.5t21.5 28.5t27.5 10.5q27 0 50.5 -5.5t41 -15.5t28 -22.5t10.5 -27.5q0 -27 -5.5 -50.5t-15 -41t-22 -27.5t-27.5 -10
q-27 0 -50.5 5.5t-41 15t-27.5 22t-10 27.5z" />
    <glyph glyph-name="Igrave" unicode="&#xcc;" horiz-adv-x="637" 
d="M306 1248l-141 20l17 85h447l8 -85l-141 -20l-161 -1143l141 -20l-17 -85h-447l-8 85l141 20zM509 1471l-96 -11l-340 248l9 66l193 10l239 -281z" />
    <glyph glyph-name="Iacute" unicode="&#xcd;" horiz-adv-x="637" 
d="M306 1248l-141 20l17 85h447l8 -85l-141 -20l-161 -1143l141 -20l-17 -85h-447l-8 85l141 20zM298 1503l337 281l191 -10l-9 -66l-430 -248l-94 11z" />
    <glyph glyph-name="Icircumflex" unicode="&#xce;" horiz-adv-x="637" 
d="M306 1248l-141 20l17 85h447l8 -85l-141 -20l-161 -1143l141 -20l-17 -85h-447l-8 85l141 20zM757 1470l-106 -10l-196 198l-273 -198l-93 10l5 32l323 292l132 -10l213 -282z" />
    <glyph glyph-name="Idieresis" unicode="&#xcf;" horiz-adv-x="637" 
d="M306 1248l-141 20l17 85h447l8 -85l-141 -20l-161 -1143l141 -20l-17 -85h-447l-8 85l141 20zM109 1571q0 26 5.5 49.5t14.5 41.5t21.5 28.5t27.5 10.5q26 0 49.5 -5.5t41.5 -15.5t28.5 -22.5t10.5 -27.5q0 -27 -5.5 -50.5t-15 -41t-22 -27.5t-27.5 -10q-27 0 -51 5.5
t-41 15t-27 22t-10 27.5zM545 1571q0 26 5.5 49.5t14.5 41.5t21.5 28.5t27.5 10.5q27 0 50.5 -5.5t41 -15.5t28 -22.5t10.5 -27.5q0 -27 -5.5 -50.5t-15 -41t-22 -27.5t-27.5 -10q-27 0 -50.5 5.5t-41 15t-27.5 22t-10 27.5z" />
    <glyph glyph-name="Eth" unicode="&#xd0;" horiz-adv-x="1335" 
d="M12 750h228l70 498l-141 20l17 85h546q300 0 431 -153t90 -458l-12 -88q-44 -310 -218.5 -482t-441.5 -172h-565l-8 85l141 20l75 535h-227zM554 99q74 0 148.5 16t135.5 43q68 69 127 187.5t82 276.5l13 94q35 259 -63.5 398.5t-322.5 139.5h-173l-71 -504h238l-15 -110
h-239l-76 -541h216z" />
    <glyph glyph-name="Ntilde" unicode="&#xd1;" horiz-adv-x="1524" 
d="M1140 1353h398l8 -85l-141 -20l-176 -1248h-287l-484 1218h-16l-157 -1113l141 -20l-17 -85h-397l-8 85l141 20l161 1143l-141 20l17 85h426l484 -1217h16l156 1112l-141 20zM500 1520q8 54 28.5 94.5t50.5 68.5t66.5 42t76.5 14q65 0 123.5 -20.5t109.5 -45.5t94 -45.5
t77 -20.5q36 0 66.5 32t40.5 98l99 10l-7 -47q-8 -51 -27 -91.5t-47.5 -69t-64.5 -43.5t-78 -15q-57 0 -117 20.5t-115.5 45.5t-104 45.5t-83.5 20.5q-17 0 -33 -4.5t-29.5 -16.5t-23.5 -33t-15 -54l-91 -10z" />
    <glyph glyph-name="Ograve" unicode="&#xd2;" horiz-adv-x="1346" 
d="M564 -22q-279 0 -400 137.5t-84 409.5l11 79q55 388 229 579.5t461 191.5q276 0 399 -137t84 -411l-11 -78q-53 -378 -225.5 -574.5t-463.5 -196.5zM1067 783q33 242 -51 367.5t-283 125.5q-73 0 -148 -23.5t-137 -64.5q-56 -108 -96 -235t-57 -250l-18 -133
q-32 -234 63 -363.5t272 -129.5q76 0 151 24t134 65q53 101 93.5 228.5t58.5 255.5zM907 1471l-96 -11l-340 248l9 66l193 10l239 -281z" />
    <glyph glyph-name="Oacute" unicode="&#xd3;" horiz-adv-x="1346" 
d="M564 -22q-279 0 -400 137.5t-84 409.5l11 79q55 388 229 579.5t461 191.5q276 0 399 -137t84 -411l-11 -78q-53 -378 -225.5 -574.5t-463.5 -196.5zM1067 783q33 242 -51 367.5t-283 125.5q-73 0 -148 -23.5t-137 -64.5q-56 -108 -96 -235t-57 -250l-18 -133
q-32 -234 63 -363.5t272 -129.5q76 0 151 24t134 65q53 101 93.5 228.5t58.5 255.5zM697 1503l337 281l191 -10l-9 -66l-430 -248l-94 11z" />
    <glyph glyph-name="Ocircumflex" unicode="&#xd4;" horiz-adv-x="1346" 
d="M564 -22q-279 0 -400 137.5t-84 409.5l11 79q55 388 229 579.5t461 191.5q276 0 399 -137t84 -411l-11 -78q-53 -378 -225.5 -574.5t-463.5 -196.5zM1067 783q33 242 -51 367.5t-283 125.5q-73 0 -148 -23.5t-137 -64.5q-56 -108 -96 -235t-57 -250l-18 -133
q-32 -234 63 -363.5t272 -129.5q76 0 151 24t134 65q53 101 93.5 228.5t58.5 255.5zM1156 1470l-106 -10l-196 198l-273 -198l-93 10l5 32l323 292l132 -10l213 -282z" />
    <glyph glyph-name="Otilde" unicode="&#xd5;" horiz-adv-x="1346" 
d="M564 -22q-279 0 -400 137.5t-84 409.5l11 79q55 388 229 579.5t461 191.5q276 0 399 -137t84 -411l-11 -78q-53 -378 -225.5 -574.5t-463.5 -196.5zM1067 783q33 242 -51 367.5t-283 125.5q-73 0 -148 -23.5t-137 -64.5q-56 -108 -96 -235t-57 -250l-18 -133
q-32 -234 63 -363.5t272 -129.5q76 0 151 24t134 65q53 101 93.5 228.5t58.5 255.5zM421 1520q8 54 28.5 94.5t50.5 68.5t66.5 42t76.5 14q65 0 123.5 -20.5t109.5 -45.5t94 -45.5t77 -20.5q36 0 66.5 32t40.5 98l99 10l-7 -47q-8 -51 -27 -91.5t-47.5 -69t-64.5 -43.5
t-78 -15q-57 0 -117 20.5t-115.5 45.5t-104 45.5t-83.5 20.5q-17 0 -33 -4.5t-29.5 -16.5t-23.5 -33t-15 -54l-91 -10z" />
    <glyph glyph-name="Odieresis" unicode="&#xd6;" horiz-adv-x="1346" 
d="M564 -22q-279 0 -400 137.5t-84 409.5l11 79q55 388 229 579.5t461 191.5q276 0 399 -137t84 -411l-11 -78q-53 -378 -225.5 -574.5t-463.5 -196.5zM1067 783q33 242 -51 367.5t-283 125.5q-73 0 -148 -23.5t-137 -64.5q-56 -108 -96 -235t-57 -250l-18 -133
q-32 -234 63 -363.5t272 -129.5q76 0 151 24t134 65q53 101 93.5 228.5t58.5 255.5zM508 1571q0 26 5.5 49.5t14.5 41.5t21.5 28.5t27.5 10.5q26 0 49.5 -5.5t41.5 -15.5t28.5 -22.5t10.5 -27.5q0 -27 -5.5 -50.5t-15 -41t-22 -27.5t-27.5 -10q-27 0 -51 5.5t-41 15t-27 22
t-10 27.5zM944 1571q0 26 5.5 49.5t14.5 41.5t21.5 28.5t27.5 10.5q27 0 50.5 -5.5t41 -15.5t28 -22.5t10.5 -27.5q0 -27 -5.5 -50.5t-15 -41t-22 -27.5t-27.5 -10q-27 0 -50.5 5.5t-41 15t-27.5 22t-10 27.5z" />
    <glyph glyph-name="multiply" unicode="&#xd7;" horiz-adv-x="1001" 
d="M264 944l246 -247l247 247l104 -104l-247 -247l247 -246l-104 -104l-247 246l-246 -246l-104 104l246 246l-246 247z" />
    <glyph glyph-name="Oslash" unicode="&#xd8;" horiz-adv-x="1346" 
d="M564 -22q-33 0 -63.5 2t-59.5 6l-78 -174h-134l2 20l83 184q-291 107 -234 509l11 79q26 188 82 332t141.5 241.5t202 147.5t264.5 50q38 0 74 -3t68 -8l80 176h135l-2 -20l-87 -191q134 -57 188.5 -181.5t26.5 -320.5l-11 -78q-53 -377 -225 -574t-464 -197zM277 570
q-20 -149 9.5 -250t92.5 -160l495 1095q-32 11 -67.5 16t-73.5 5q-62 0 -114 -13.5t-90 -30.5q-45 -19 -81 -44q-33 -61 -62 -137q-26 -65 -51.5 -153.5t-39.5 -194.5zM1067 783q20 153 -3.5 250.5t-78.5 153.5l-494 -1092q57 -18 121 -18q62 0 114 13.5t90 30.5
q45 19 81 45q33 63 62 140q25 66 50.5 153.5t39.5 190.5z" />
    <glyph glyph-name="Ugrave" unicode="&#xd9;" horiz-adv-x="1384" 
d="M604 1268l-141 -20l-98 -702q-32 -231 44 -350t247 -119q78 0 151.5 21.5t123.5 54.5q38 63 71.5 163.5t47.5 204.5l102 727l-141 20l17 85h398l8 -85l-141 -20l-102 -730q-40 -281 -184.5 -410.5t-408.5 -129.5q-253 0 -360 125.5t-71 387.5l106 757l-141 20l17 85h447z
M919 1471l-96 -11l-340 248l9 66l193 10l239 -281z" />
    <glyph glyph-name="Uacute" unicode="&#xda;" horiz-adv-x="1384" 
d="M604 1268l-141 -20l-98 -702q-32 -231 44 -350t247 -119q78 0 151.5 21.5t123.5 54.5q38 63 71.5 163.5t47.5 204.5l102 727l-141 20l17 85h398l8 -85l-141 -20l-102 -730q-40 -281 -184.5 -410.5t-408.5 -129.5q-253 0 -360 125.5t-71 387.5l106 757l-141 20l17 85h447z
M709 1503l337 281l191 -10l-9 -66l-430 -248l-94 11z" />
    <glyph glyph-name="Ucircumflex" unicode="&#xdb;" horiz-adv-x="1384" 
d="M604 1268l-141 -20l-98 -702q-32 -231 44 -350t247 -119q78 0 151.5 21.5t123.5 54.5q38 63 71.5 163.5t47.5 204.5l102 727l-141 20l17 85h398l8 -85l-141 -20l-102 -730q-40 -281 -184.5 -410.5t-408.5 -129.5q-253 0 -360 125.5t-71 387.5l106 757l-141 20l17 85h447z
M1168 1470l-106 -10l-196 198l-273 -198l-93 10l5 32l323 292l132 -10l213 -282z" />
    <glyph glyph-name="Udieresis" unicode="&#xdc;" horiz-adv-x="1384" 
d="M604 1268l-141 -20l-98 -702q-32 -231 44 -350t247 -119q78 0 151.5 21.5t123.5 54.5q38 63 71.5 163.5t47.5 204.5l102 727l-141 20l17 85h398l8 -85l-141 -20l-102 -730q-40 -281 -184.5 -410.5t-408.5 -129.5q-253 0 -360 125.5t-71 387.5l106 757l-141 20l17 85h447z
M520 1571q0 26 5.5 49.5t14.5 41.5t21.5 28.5t27.5 10.5q26 0 49.5 -5.5t41.5 -15.5t28.5 -22.5t10.5 -27.5q0 -27 -5.5 -50.5t-15 -41t-22 -27.5t-27.5 -10q-27 0 -51 5.5t-41 15t-27 22t-10 27.5zM956 1571q0 26 5.5 49.5t14.5 41.5t21.5 28.5t27.5 10.5q27 0 50.5 -5.5
t41 -15.5t28 -22.5t10.5 -27.5q0 -27 -5.5 -50.5t-15 -41t-22 -27.5t-27.5 -10q-27 0 -50.5 5.5t-41 15t-27.5 22t-10 27.5z" />
    <glyph glyph-name="Yacute" unicode="&#xdd;" horiz-adv-x="1086" 
d="M21 1353h401l8 -85l-111 -16l262 -530h16l394 529l-116 17l17 85h356l8 -85l-111 -20l-504 -672l-66 -471l141 -20l-17 -85h-447l-8 85l141 20l66 473l-335 670l-112 20zM551 1503l337 281l191 -10l-9 -66l-430 -248l-94 11z" />
    <glyph glyph-name="Thorn" unicode="&#xde;" horiz-adv-x="1030" 
d="M508 0h-497l-8 85l141 20l161 1143l-141 20l17 85h447l8 -85l-141 -20l-25 -176h168q213 0 314 -78.5t77 -246.5q-13 -90 -55 -159.5t-104 -116.5t-139.5 -71.5t-161.5 -24.5h-197l-38 -270l191 -20zM538 474q52 0 93 5.5t70 12.5q33 8 60 18q15 27 29 60
q12 28 23.5 65.5t17.5 82.5q7 55 -2.5 101.5t-38.5 80.5t-79.5 53.5t-125.5 19.5h-129l-70 -499h152z" />
    <glyph glyph-name="germandbls" unicode="&#xdf;" horiz-adv-x="1218" 
d="M105 1085h190l9 64q13 95 47.5 171.5t91.5 130t136 82.5t183 29q75 0 139 -17t108 -55t64.5 -99.5t8.5 -150.5q-10 -72 -34 -131t-59.5 -110.5t-81.5 -98t-100 -91.5q19 -17 41 -37q19 -17 42.5 -40.5l49.5 -49.5q34 -37 67 -77.5t56 -87.5t34 -101t2 -117
q-10 -74 -41.5 -133t-81 -101t-116.5 -64.5t-148 -22.5q-66 0 -114.5 10.5t-81.5 24.5q-39 15 -66 35l32 231h93l22 -188q13 -7 31 -12q16 -5 39 -8t55 -3q31 0 56.5 5t42.5 11q20 7 36 17q12 17 23 40q9 19 18 45.5t14 58.5q13 85 -28.5 166.5t-121.5 165.5
q-30 31 -58 57.5t-50 46.5q-26 23 -48 42l9 65q64 54 113.5 105t84.5 103t56 106t29 113q16 133 -31.5 195t-151.5 62q-38 0 -67 -7.5t-49 -16.5q-23 -11 -40 -23q-14 -31 -28 -73q-12 -36 -25.5 -90.5t-23.5 -126.5l-167 -1182q-17 -121 -50 -200.5t-79.5 -126t-105 -65
t-126.5 -18.5q-51 0 -93 7t-72 16q-35 11 -64 24l45 111q42 -15 88 -26q39 -10 86.5 -17.5t94.5 -7.5q18 25 36 65q15 34 30.5 86t26.5 125l151 1075h-189z" />
    <glyph glyph-name="agrave" unicode="&#xe0;" horiz-adv-x="1158" 
d="M1013 0l-230 -22l-81 78l26 190q-78 -122 -179 -195t-206 -73q-165 0 -222 95t-29 300l26 188q37 252 177.5 399t342.5 147q81 0 179.5 -20.5t199.5 -57.5l-129 -924l142 -20zM284 461q-27 -192 -3 -283.5t123 -91.5q84 0 175 81t167 206l85 617q-46 16 -99 24.5
t-100 8.5q-55 0 -108.5 -14t-94.5 -36q-40 -66 -72.5 -159.5t-53.5 -221.5zM752 1275l-89 -10l-244 329l10 66l176 10l152 -363z" />
    <glyph glyph-name="aacute" unicode="&#xe1;" horiz-adv-x="1158" 
d="M1013 0l-230 -22l-81 78l26 190q-78 -122 -179 -195t-206 -73q-165 0 -222 95t-29 300l26 188q37 252 177.5 399t342.5 147q81 0 179.5 -20.5t199.5 -57.5l-129 -924l142 -20zM284 461q-27 -192 -3 -283.5t123 -91.5q84 0 175 81t167 206l85 617q-46 16 -99 24.5
t-100 8.5q-55 0 -108.5 -14t-94.5 -36q-40 -66 -72.5 -159.5t-53.5 -221.5zM655 1307l254 363l181 -10l-10 -66l-356 -329l-74 10z" />
    <glyph glyph-name="acircumflex" unicode="&#xe2;" horiz-adv-x="1158" 
d="M1013 0l-230 -22l-81 78l26 190q-78 -122 -179 -195t-206 -73q-165 0 -222 95t-29 300l26 188q37 252 177.5 399t342.5 147q81 0 179.5 -20.5t199.5 -57.5l-129 -924l142 -20zM284 461q-27 -192 -3 -283.5t123 -91.5q84 0 175 81t167 206l85 617q-46 16 -99 24.5
t-100 8.5q-55 0 -108.5 -14t-94.5 -36q-40 -66 -72.5 -159.5t-53.5 -221.5zM948 1275l-97 -10l-149 262l-230 -262l-93 10l4 32l286 373l131 -10l152 -363z" />
    <glyph glyph-name="atilde" unicode="&#xe3;" horiz-adv-x="1158" 
d="M1013 0l-230 -22l-81 78l26 190q-78 -122 -179 -195t-206 -73q-165 0 -222 95t-29 300l26 188q37 252 177.5 399t342.5 147q81 0 179.5 -20.5t199.5 -57.5l-129 -924l142 -20zM284 461q-27 -192 -3 -283.5t123 -91.5q84 0 175 81t167 206l85 617q-46 16 -99 24.5
t-100 8.5q-55 0 -108.5 -14t-94.5 -36q-40 -66 -72.5 -159.5t-53.5 -221.5zM290 1307q16 108 82.5 163.5t169.5 55.5q54 0 106.5 -20.5t101.5 -45.5t92.5 -45.5t78.5 -20.5q41 0 71.5 32t41.5 98l89 10l-7 -47q-15 -102 -77 -160.5t-163 -58.5q-49 0 -104 20.5t-109 45.5
t-103 45.5t-85 20.5q-18 0 -35.5 -4.5t-31.5 -16.5t-25 -33t-16 -54l-81 -10z" />
    <glyph glyph-name="adieresis" unicode="&#xe4;" horiz-adv-x="1158" 
d="M1013 0l-230 -22l-81 78l26 190q-78 -122 -179 -195t-206 -73q-165 0 -222 95t-29 300l26 188q37 252 177.5 399t342.5 147q81 0 179.5 -20.5t199.5 -57.5l-129 -924l142 -20zM284 461q-27 -192 -3 -283.5t123 -91.5q84 0 175 81t167 206l85 617q-46 16 -99 24.5
t-100 8.5q-55 0 -108.5 -14t-94.5 -36q-40 -66 -72.5 -159.5t-53.5 -221.5zM390 1371q0 25 5 47.5t14 39.5t21 27t26 10q25 0 47.5 -5.5t39.5 -14.5t27 -21t10 -26q0 -52 -19.5 -87.5t-47.5 -35.5q-52 0 -87.5 19t-35.5 47zM816 1371q0 25 5 47.5t14 39.5t21 27t26 10
q25 0 47.5 -5.5t39.5 -14.5t27 -21t10 -26q0 -52 -19.5 -87.5t-47.5 -35.5q-52 0 -87.5 19t-35.5 47z" />
    <glyph glyph-name="aring" unicode="&#xe5;" horiz-adv-x="1158" 
d="M1013 0l-230 -22l-81 78l26 190q-78 -122 -179 -195t-206 -73q-165 0 -222 95t-29 300l26 188q37 252 177.5 399t342.5 147q81 0 179.5 -20.5t199.5 -57.5l-129 -924l142 -20zM284 461q-27 -192 -3 -283.5t123 -91.5q84 0 175 81t167 206l85 617q-46 16 -99 24.5
t-100 8.5q-55 0 -108.5 -14t-94.5 -36q-40 -66 -72.5 -159.5t-53.5 -221.5zM516 1436q8 59 31 103t56 73t73 43.5t82 14.5q38 0 71 -10t55.5 -30.5t33 -52.5t4.5 -77q-9 -62 -31 -106.5t-54.5 -73t-72.5 -42t-83 -13.5q-39 0 -72.5 10t-56 31t-32.5 53.5t-4 76.5zM626 1468
q-10 -66 13 -103t62 -37q16 0 30 2.5t25 6.5q12 4 23 10q7 13 13 31q5 15 11 38t11 52q11 66 -10 103t-66 37q-13 0 -24.5 -3t-21.5 -7q-11 -4 -22 -9q-9 -11 -17 -29q-7 -15 -14.5 -37.5t-12.5 -54.5z" />
    <glyph glyph-name="ae" unicode="&#xe6;" horiz-adv-x="1554" 
d="M1512 817q-9 -72 -44.5 -132t-91 -102.5t-130 -66.5t-161.5 -24q-61 0 -112 3t-83 7l-8 -59q-15 -104 -1.5 -175.5t44 -115.5t72 -64t82.5 -20q50 0 96 14t81 31q41 19 78 45v-86q-35 -27 -82 -47q-40 -18 -96.5 -32.5t-128.5 -14.5q-128 0 -205 47.5t-109 138.5
q-25 -24 -64.5 -56t-93 -61t-120 -49t-145.5 -20q-60 0 -110 17t-83.5 49t-49 78.5t-6.5 105.5q12 85 57.5 152t128 114t205 72.5t290.5 25.5l16 110q11 79 7.5 138t-27 98.5t-68.5 59t-118 19.5q-32 0 -60.5 -2.5t-51.5 -5.5q-26 -4 -49 -7l-90 -232h-87l40 283
q41 15 91 27q43 10 102 18.5t128 8.5q131 0 218.5 -33.5t126.5 -109.5q67 72 149.5 107.5t175.5 35.5q158 0 232 -71.5t55 -218.5zM371 68q58 0 113.5 20t100.5 45.5t75.5 49t39.5 31.5q-18 92 0 215l10 73q-116 -1 -197.5 -12t-132.5 -25q-61 -16 -98 -37q-13 -21 -24 -47
q-10 -23 -19 -54.5t-14 -71.5q-6 -48 5 -83t32.5 -58.5t50 -34.5t58.5 -11zM1044 968q-30 -43 -56 -101q-23 -50 -47 -121t-39 -163q18 -1 43 -2.5t54 -2.5t59.5 -1.5t60.5 -0.5q35 0 64.5 6t49.5 14q24 9 42 20q11 22 21 49q8 23 17 55t14 71q8 66 0.5 110t-26.5 69.5
t-47 36t-61 10.5q-31 0 -58 -8t-47 -17q-24 -11 -44 -24z" />
    <glyph glyph-name="ccedilla" unicode="&#xe7;" horiz-adv-x="926" 
d="M868 818l-86 -10v181q-32 14 -73 21t-86 7q-51 0 -100 -14t-85 -35q-54 -78 -91.5 -178.5t-57.5 -227.5l-17 -119q-25 -182 37.5 -278.5t171.5 -96.5q64 0 140.5 24.5t142.5 65.5v-86q-64 -43 -153 -69q-52 -14 -107 -20l-40 -81q40 -11 73.5 -25t56 -35t32.5 -51t4 -72
q-5 -38 -24.5 -70t-52 -55.5t-76.5 -37t-99 -13.5q-40 0 -73 7t-58 16q-29 11 -53 24l23 63q25 -11 52 -20q23 -8 52.5 -14t60.5 -6q20 0 36 2t27 4q12 3 22 7q5 12 9 26q4 12 7.5 27t5.5 32q5 54 -25.5 85t-99.5 51l-36 52l42 82q-151 14 -225 108q-86 111 -55 340l14 93
q41 277 188 431t353 154q80 0 153 -13t126 -39z" />
    <glyph glyph-name="egrave" unicode="&#xe8;" horiz-adv-x="937" 
d="M903 835q-22 -159 -139 -251t-290 -92q-61 0 -112 3t-83 7l-8 -59q-25 -182 35 -278.5t164 -96.5q61 0 131 26.5t122 63.5v-86q-55 -41 -135.5 -67.5t-171.5 -26.5q-190 0 -274.5 112t-52.5 339l13 93q37 268 173.5 426.5t338.5 158.5q161 0 234 -73t55 -199zM433 968
q-46 -68 -84.5 -170t-57.5 -215q56 -3 110.5 -5t106.5 -2q43 0 83.5 10.5t72.5 29.5q20 41 32.5 84.5t20.5 101.5q14 101 -19.5 158t-115.5 57q-36 0 -75 -13t-74 -36zM715 1275l-89 -10l-244 329l10 66l176 10l152 -363z" />
    <glyph glyph-name="eacute" unicode="&#xe9;" horiz-adv-x="937" 
d="M903 835q-22 -159 -139 -251t-290 -92q-61 0 -112 3t-83 7l-8 -59q-25 -182 35 -278.5t164 -96.5q61 0 131 26.5t122 63.5v-86q-55 -41 -135.5 -67.5t-171.5 -26.5q-190 0 -274.5 112t-52.5 339l13 93q37 268 173.5 426.5t338.5 158.5q161 0 234 -73t55 -199zM433 968
q-46 -68 -84.5 -170t-57.5 -215q56 -3 110.5 -5t106.5 -2q43 0 83.5 10.5t72.5 29.5q20 41 32.5 84.5t20.5 101.5q14 101 -19.5 158t-115.5 57q-36 0 -75 -13t-74 -36zM618 1307l254 363l181 -10l-10 -66l-356 -329l-74 10z" />
    <glyph glyph-name="ecircumflex" unicode="&#xea;" horiz-adv-x="937" 
d="M903 835q-22 -159 -139 -251t-290 -92q-61 0 -112 3t-83 7l-8 -59q-25 -182 35 -278.5t164 -96.5q61 0 131 26.5t122 63.5v-86q-55 -41 -135.5 -67.5t-171.5 -26.5q-190 0 -274.5 112t-52.5 339l13 93q37 268 173.5 426.5t338.5 158.5q161 0 234 -73t55 -199zM433 968
q-46 -68 -84.5 -170t-57.5 -215q56 -3 110.5 -5t106.5 -2q43 0 83.5 10.5t72.5 29.5q20 41 32.5 84.5t20.5 101.5q14 101 -19.5 158t-115.5 57q-36 0 -75 -13t-74 -36zM911 1275l-97 -10l-149 262l-230 -262l-93 10l4 32l286 373l131 -10l152 -363z" />
    <glyph glyph-name="edieresis" unicode="&#xeb;" horiz-adv-x="937" 
d="M903 835q-22 -159 -139 -251t-290 -92q-61 0 -112 3t-83 7l-8 -59q-25 -182 35 -278.5t164 -96.5q61 0 131 26.5t122 63.5v-86q-55 -41 -135.5 -67.5t-171.5 -26.5q-190 0 -274.5 112t-52.5 339l13 93q37 268 173.5 426.5t338.5 158.5q161 0 234 -73t55 -199zM433 968
q-46 -68 -84.5 -170t-57.5 -215q56 -3 110.5 -5t106.5 -2q43 0 83.5 10.5t72.5 29.5q20 41 32.5 84.5t20.5 101.5q14 101 -19.5 158t-115.5 57q-36 0 -75 -13t-74 -36zM353 1371q0 25 5 47.5t14 39.5t21 27t26 10q25 0 47.5 -5.5t39.5 -14.5t27 -21t10 -26
q0 -52 -19.5 -87.5t-47.5 -35.5q-52 0 -87.5 19t-35.5 47zM779 1371q0 25 5 47.5t14 39.5t21 27t26 10q25 0 47.5 -5.5t39.5 -14.5t27 -21t10 -26q0 -52 -19.5 -87.5t-47.5 -35.5q-52 0 -87.5 19t-35.5 47z" />
    <glyph glyph-name="igrave" unicode="&#xec;" horiz-adv-x="637" 
d="M163 1085l231 22l81 -78l-129 -924l141 -20l-17 -85l-230 -22l-81 78l128 924l-141 20zM448 1275l-89 -10l-244 329l10 66l176 10l152 -363z" />
    <glyph glyph-name="iacute" unicode="&#xed;" horiz-adv-x="637" 
d="M163 1085l231 22l81 -78l-129 -924l141 -20l-17 -85l-230 -22l-81 78l128 924l-141 20zM350 1307l254 363l181 -10l-10 -66l-356 -329l-74 10z" />
    <glyph glyph-name="icircumflex" unicode="&#xee;" horiz-adv-x="637" 
d="M163 1085l231 22l81 -78l-129 -924l141 -20l-17 -85l-230 -22l-81 78l128 924l-141 20zM644 1275l-97 -10l-149 262l-230 -262l-93 10l4 32l286 373l131 -10l152 -363z" />
    <glyph glyph-name="idieresis" unicode="&#xef;" horiz-adv-x="637" 
d="M163 1085l231 22l81 -78l-129 -924l141 -20l-17 -85l-230 -22l-81 78l128 924l-141 20zM86 1371q0 25 5 47.5t14 39.5t21 27t26 10q25 0 47.5 -5.5t39.5 -14.5t27 -21t10 -26q0 -52 -19.5 -87.5t-47.5 -35.5q-52 0 -87.5 19t-35.5 47zM512 1371q0 25 5 47.5t14 39.5
t21 27t26 10q25 0 47.5 -5.5t39.5 -14.5t27 -21t10 -26q0 -52 -19.5 -87.5t-47.5 -35.5q-52 0 -87.5 19t-35.5 47z" />
    <glyph glyph-name="eth" unicode="&#xf0;" horiz-adv-x="1089" 
d="M362 1259l245 109q-45 47 -97 90t-109 82l132 22q56 -29 105 -64t91 -76l265 118l27 -83l-229 -102q65 -78 110 -167.5t70.5 -181.5t32 -184t-4.5 -175l-13 -95q-17 -121 -64 -225.5t-119 -182t-165 -122t-202 -44.5q-107 0 -181 31t-116 89t-54 141.5t4 189.5l14 93
q22 145 72.5 254.5t123.5 183t163.5 110.5t191.5 37q36 0 71.5 -8.5t66.5 -27.5q-17 59 -48.5 116t-76.5 112l-279 -124zM818 632q16 116 5 191t-40 118t-71.5 59.5t-88.5 16.5q-40 0 -74 -8t-60 -17q-30 -11 -55 -24q-31 -46 -59 -107q-24 -52 -48 -127t-38 -172l-17 -119
q-15 -104 -1.5 -175.5t44 -115.5t72 -64t82.5 -20q36 0 70 7.5t60 17.5q31 11 59 25q30 40 58 98q23 50 47.5 123.5t38.5 173.5z" />
    <glyph glyph-name="ntilde" unicode="&#xf1;" horiz-adv-x="1279" 
d="M1123 0l-230 -22l-81 78l93 675q20 147 0 207.5t-94 60.5q-88 0 -187.5 -75t-193.5 -210l-103 -736l-176 22l135 980l-141 20l17 85l231 22l81 -78l-27 -190q95 127 208.5 197.5t223.5 70.5q135 0 186.5 -70t31.5 -218l-98 -714l141 -20zM381 1307q16 108 82.5 163.5
t169.5 55.5q54 0 106.5 -20.5t101.5 -45.5t92.5 -45.5t78.5 -20.5q41 0 71.5 32t41.5 98l89 10l-7 -47q-15 -102 -77 -160.5t-163 -58.5q-49 0 -104 20.5t-109 45.5t-103 45.5t-85 20.5q-18 0 -35.5 -4.5t-31.5 -16.5t-25 -33t-16 -54l-81 -10z" />
    <glyph glyph-name="ograve" unicode="&#xf2;" horiz-adv-x="1089" 
d="M437 -22q-203 0 -291.5 113t-55.5 338l14 93q40 271 188 428t363 157q206 0 291.5 -115t53.5 -345l-13 -95q-36 -254 -189.5 -414t-360.5 -160zM818 632q26 189 -23 287t-172 98q-51 0 -100.5 -14t-88.5 -35q-50 -75 -89 -182t-56 -224l-17 -119q-24 -182 35.5 -278.5
t161.5 -96.5q44 0 91.5 12.5t97.5 37.5q46 60 85.5 160t58.5 235zM770 1275l-89 -10l-244 329l10 66l176 10l152 -363z" />
    <glyph glyph-name="oacute" unicode="&#xf3;" horiz-adv-x="1089" 
d="M437 -22q-203 0 -291.5 113t-55.5 338l14 93q40 271 188 428t363 157q206 0 291.5 -115t53.5 -345l-13 -95q-36 -254 -189.5 -414t-360.5 -160zM818 632q26 189 -23 287t-172 98q-51 0 -100.5 -14t-88.5 -35q-50 -75 -89 -182t-56 -224l-17 -119q-24 -182 35.5 -278.5
t161.5 -96.5q44 0 91.5 12.5t97.5 37.5q46 60 85.5 160t58.5 235zM673 1307l254 363l181 -10l-10 -66l-356 -329l-74 10z" />
    <glyph glyph-name="ocircumflex" unicode="&#xf4;" horiz-adv-x="1089" 
d="M437 -22q-203 0 -291.5 113t-55.5 338l14 93q40 271 188 428t363 157q206 0 291.5 -115t53.5 -345l-13 -95q-36 -254 -189.5 -414t-360.5 -160zM818 632q26 189 -23 287t-172 98q-51 0 -100.5 -14t-88.5 -35q-50 -75 -89 -182t-56 -224l-17 -119q-24 -182 35.5 -278.5
t161.5 -96.5q44 0 91.5 12.5t97.5 37.5q46 60 85.5 160t58.5 235zM966 1275l-97 -10l-149 262l-230 -262l-93 10l4 32l286 373l131 -10l152 -363z" />
    <glyph glyph-name="otilde" unicode="&#xf5;" horiz-adv-x="1089" 
d="M437 -22q-203 0 -291.5 113t-55.5 338l14 93q40 271 188 428t363 157q206 0 291.5 -115t53.5 -345l-13 -95q-36 -254 -189.5 -414t-360.5 -160zM818 632q26 189 -23 287t-172 98q-51 0 -100.5 -14t-88.5 -35q-50 -75 -89 -182t-56 -224l-17 -119q-24 -182 35.5 -278.5
t161.5 -96.5q44 0 91.5 12.5t97.5 37.5q46 60 85.5 160t58.5 235zM308 1307q16 108 82.5 163.5t169.5 55.5q54 0 106.5 -20.5t101.5 -45.5t92.5 -45.5t78.5 -20.5q41 0 71.5 32t41.5 98l89 10l-7 -47q-15 -102 -77 -160.5t-163 -58.5q-49 0 -104 20.5t-109 45.5t-103 45.5
t-85 20.5q-18 0 -35.5 -4.5t-31.5 -16.5t-25 -33t-16 -54l-81 -10z" />
    <glyph glyph-name="odieresis" unicode="&#xf6;" horiz-adv-x="1089" 
d="M437 -22q-203 0 -291.5 113t-55.5 338l14 93q40 271 188 428t363 157q206 0 291.5 -115t53.5 -345l-13 -95q-36 -254 -189.5 -414t-360.5 -160zM818 632q26 189 -23 287t-172 98q-51 0 -100.5 -14t-88.5 -35q-50 -75 -89 -182t-56 -224l-17 -119q-24 -182 35.5 -278.5
t161.5 -96.5q44 0 91.5 12.5t97.5 37.5q46 60 85.5 160t58.5 235zM408 1371q0 25 5 47.5t14 39.5t21 27t26 10q25 0 47.5 -5.5t39.5 -14.5t27 -21t10 -26q0 -52 -19.5 -87.5t-47.5 -35.5q-52 0 -87.5 19t-35.5 47zM834 1371q0 25 5 47.5t14 39.5t21 27t26 10q25 0 47.5 -5.5
t39.5 -14.5t27 -21t10 -26q0 -52 -19.5 -87.5t-47.5 -35.5q-52 0 -87.5 19t-35.5 47z" />
    <glyph glyph-name="divide" unicode="&#xf7;" horiz-adv-x="1153" 
d="M160 667h853v-147h-853v147zM487 182q0 28 6.5 53t17.5 44t25.5 30t31.5 11q29 0 54 -6.5t43.5 -18t29 -26.5t10.5 -32q0 -27 -6.5 -51.5t-17.5 -43.5t-26 -30t-32 -11q-29 0 -53.5 6.5t-43 17.5t-29 25.5t-10.5 31.5zM487 947q0 28 6.5 53t17.5 44t25.5 30t31.5 11
q29 0 54 -6.5t43.5 -18t29 -26.5t10.5 -32q0 -27 -6.5 -51.5t-17.5 -43.5t-26 -30t-32 -11q-29 0 -53.5 6.5t-43 17.5t-29 25.5t-10.5 31.5z" />
    <glyph glyph-name="oslash" unicode="&#xf8;" horiz-adv-x="1089" 
d="M437 -22q-46 0 -85 6l-77 -172h-134l2 20l85 189q-95 51 -128 155t-10 253l14 93q22 145 72.5 254.5t123.5 183t163.5 110.5t191.5 37q33 0 63 -3l73 161h135l-2 -20l-79 -173q47 -22 81.5 -58t55 -88t25.5 -121.5t-7 -157.5l-13 -95q-17 -121 -64 -225.5t-119 -182
t-165 -122t-202 -44.5zM818 632q15 115 5 188.5t-38 117.5l-388 -856q34 -14 72 -14q36 0 70 7.5t60 17.5q31 11 59 25q30 40 58 98q23 50 47.5 123.5t38.5 173.5zM272 443q-13 -91 -4.5 -155.5t31.5 -109.5l377 833q-26 6 -53 6q-40 0 -74 -8t-60 -17q-30 -11 -55 -24
q-31 -46 -59 -107q-24 -52 -48 -127t-38 -172z" />
    <glyph glyph-name="ugrave" unicode="&#xf9;" horiz-adv-x="1263" 
d="M792 1085l231 22l81 -78l-129 -924l141 -20l-17 -85l-230 -22l-81 78l26 188q-91 -123 -204 -194.5t-226 -71.5q-133 0 -186 70t-32 218l97 714l-141 20l17 85l231 22l81 -78l-93 -675q-20 -147 1.5 -207.5t92.5 -60.5q89 0 189 75.5t190 206.5l85 612l-141 20zM750 1275
l-89 -10l-244 329l10 66l176 10l152 -363z" />
    <glyph glyph-name="uacute" unicode="&#xfa;" horiz-adv-x="1263" 
d="M792 1085l231 22l81 -78l-129 -924l141 -20l-17 -85l-230 -22l-81 78l26 188q-91 -123 -204 -194.5t-226 -71.5q-133 0 -186 70t-32 218l97 714l-141 20l17 85l231 22l81 -78l-93 -675q-20 -147 1.5 -207.5t92.5 -60.5q89 0 189 75.5t190 206.5l85 612l-141 20zM653 1307
l254 363l181 -10l-10 -66l-356 -329l-74 10z" />
    <glyph glyph-name="ucircumflex" unicode="&#xfb;" horiz-adv-x="1263" 
d="M792 1085l231 22l81 -78l-129 -924l141 -20l-17 -85l-230 -22l-81 78l26 188q-91 -123 -204 -194.5t-226 -71.5q-133 0 -186 70t-32 218l97 714l-141 20l17 85l231 22l81 -78l-93 -675q-20 -147 1.5 -207.5t92.5 -60.5q89 0 189 75.5t190 206.5l85 612l-141 20zM946 1275
l-97 -10l-149 262l-230 -262l-93 10l4 32l286 373l131 -10l152 -363z" />
    <glyph glyph-name="udieresis" unicode="&#xfc;" horiz-adv-x="1263" 
d="M792 1085l231 22l81 -78l-129 -924l141 -20l-17 -85l-230 -22l-81 78l26 188q-91 -123 -204 -194.5t-226 -71.5q-133 0 -186 70t-32 218l97 714l-141 20l17 85l231 22l81 -78l-93 -675q-20 -147 1.5 -207.5t92.5 -60.5q89 0 189 75.5t190 206.5l85 612l-141 20zM388 1371
q0 25 5 47.5t14 39.5t21 27t26 10q25 0 47.5 -5.5t39.5 -14.5t27 -21t10 -26q0 -52 -19.5 -87.5t-47.5 -35.5q-52 0 -87.5 19t-35.5 47zM814 1371q0 25 5 47.5t14 39.5t21 27t26 10q25 0 47.5 -5.5t39.5 -14.5t27 -21t10 -26q0 -52 -19.5 -87.5t-47.5 -35.5q-52 0 -87.5 19
t-35.5 47z" />
    <glyph glyph-name="yacute" unicode="&#xfd;" horiz-adv-x="1204" 
d="M141 1085l231 22l81 -78l-93 -675q-19 -136 0 -202t94 -66q88 1 185.5 73t193.5 210l85 611l-141 20l17 85l231 22l81 -78l-126 -900q-41 -287 -183.5 -436.5t-359.5 -149.5q-89 0 -180 19.5t-163 50.5l33 140q108 -40 228 -68.5t206 -28.5q84 47 148 159.5t86 273.5
l21 156q-93 -127 -205.5 -197t-224.5 -70q-133 0 -186 69.5t-32 218.5l97 714l-141 20zM655 1307l254 363l181 -10l-10 -66l-356 -329l-74 10z" />
    <glyph glyph-name="thorn" unicode="&#xfe;" horiz-adv-x="1117" 
d="M161 1540l237 22l81 -78l-91 -645q7 11 24 35t43 54t59.5 61.5t74 57.5t86.5 43t97 17q76 0 131 -20t87.5 -66t41 -121.5t-6.5 -187.5l-26 -188q-15 -112 -56 -211.5t-106.5 -173.5t-155 -117.5t-201.5 -43.5q-54 0 -107 7.5t-101 18.5l-46 -334l141 -20l-10 -85h-443
l-10 85l142 20l246 1765l-141 20zM833 624q14 100 15 171.5t-13 116.5t-43.5 66t-77.5 21q-42 0 -82 -19t-76.5 -48t-68 -63.5t-55.5 -66.5t-40 -56.5t-21 -33.5l-86 -617q25 -10 57 -17q27 -6 63 -11t80 -5q42 0 81 7.5t68 17.5q34 11 64 25q24 41 46 98q19 48 38.5 119
t32.5 164z" />
    <glyph glyph-name="ydieresis" unicode="&#xff;" horiz-adv-x="1204" 
d="M141 1085l231 22l81 -78l-93 -675q-19 -136 0 -202t94 -66q88 1 185.5 73t193.5 210l85 611l-141 20l17 85l231 22l81 -78l-126 -900q-41 -287 -183.5 -436.5t-359.5 -149.5q-89 0 -180 19.5t-163 50.5l33 140q108 -40 228 -68.5t206 -28.5q84 47 148 159.5t86 273.5
l21 156q-93 -127 -205.5 -197t-224.5 -70q-133 0 -186 69.5t-32 218.5l97 714l-141 20zM390 1371q0 25 5 47.5t14 39.5t21 27t26 10q25 0 47.5 -5.5t39.5 -14.5t27 -21t10 -26q0 -52 -19.5 -87.5t-47.5 -35.5q-52 0 -87.5 19t-35.5 47zM816 1371q0 25 5 47.5t14 39.5t21 27
t26 10q25 0 47.5 -5.5t39.5 -14.5t27 -21t10 -26q0 -52 -19.5 -87.5t-47.5 -35.5q-52 0 -87.5 19t-35.5 47z" />
    <glyph glyph-name="Amacron" unicode="&#x100;" 
d="M1019 105l112 -20l-17 -85h-417l-8 85l141 20l-64 321h-476l-157 -321l142 -20l-17 -85h-374l-8 85l111 20l622 1248h149zM621 1104l-283 -579h408l-115 579h-10zM346 1660h771l-20 -120h-770z" />
    <glyph glyph-name="amacron" unicode="&#x101;" horiz-adv-x="1158" 
d="M1013 0l-230 -22l-81 78l26 190q-78 -122 -179 -195t-206 -73q-165 0 -222 95t-29 300l26 188q37 252 177.5 399t342.5 147q81 0 179.5 -20.5t199.5 -57.5l-129 -924l142 -20zM284 461q-27 -192 -3 -283.5t123 -91.5q84 0 175 81t167 206l85 617q-46 16 -99 24.5
t-100 8.5q-55 0 -108.5 -14t-94.5 -36q-40 -66 -72.5 -159.5t-53.5 -221.5zM368 1463h711l-18 -110h-710z" />
    <glyph glyph-name="Abreve" unicode="&#x102;" 
d="M1019 105l112 -20l-17 -85h-417l-8 85l141 20l-64 321h-476l-157 -321l142 -20l-17 -85h-374l-8 85l111 20l622 1248h149zM621 1104l-283 -579h408l-115 579h-10zM1088 1749q-7 -50 -36.5 -99.5t-78.5 -89t-115 -64t-145 -24.5t-137.5 24.5t-96 64t-53.5 89t-9 99.5
l78 10q-2 -14 7 -40.5t35.5 -52.5t73.5 -45t121 -19q73 0 125.5 19t86 45t50.5 52.5t19 40.5z" />
    <glyph glyph-name="abreve" unicode="&#x103;" horiz-adv-x="1158" 
d="M1013 0l-230 -22l-81 78l26 190q-78 -122 -179 -195t-206 -73q-165 0 -222 95t-29 300l26 188q37 252 177.5 399t342.5 147q81 0 179.5 -20.5t199.5 -57.5l-129 -924l142 -20zM284 461q-27 -192 -3 -283.5t123 -91.5q84 0 175 81t167 206l85 617q-46 16 -99 24.5
t-100 8.5q-55 0 -108.5 -14t-94.5 -36q-40 -66 -72.5 -159.5t-53.5 -221.5zM1027 1592q-8 -54 -37 -107t-75 -95t-106 -68.5t-130 -26.5t-122.5 26.5t-86.5 68.5t-48.5 95t-6.5 107l68 10q-2 -16 7 -45.5t34 -59t67 -51t106 -21.5q61 0 109.5 21.5t82 51t52 59t20.5 45.5z
" />
    <glyph glyph-name="Aogonek" unicode="&#x104;" 
d="M852 0q-45 -28 -92.5 -63.5t-88 -76t-69 -84.5t-33.5 -89q-4 -34 13 -49t48 -15q29 0 58 12.5t53 27.5q28 18 55 40l-8 -73q-28 -25 -63 -44q-30 -17 -70.5 -30t-88.5 -13q-37 0 -65.5 7t-46.5 23.5t-25 43.5t-1 68q12 62 50 122t93.5 116t127.5 106q63 43 131 81
l-64 316h-476l-157 -321l142 -20l-17 -85h-374l-8 85l111 20l622 1248h149l261 -1248l112 -20l-17 -85h-262zM621 1104l-283 -579h408l-115 579h-10z" />
    <glyph glyph-name="aogonek" unicode="&#x105;" horiz-adv-x="1158" 
d="M1013 0q-48 -32 -95 -69.5t-85.5 -78t-64.5 -82.5t-31 -83q-4 -34 13 -49t48 -15q29 0 58 12.5t53 27.5q28 18 55 40l-8 -73q-28 -25 -63 -44q-30 -17 -70.5 -30t-88.5 -13q-37 0 -65.5 7t-46.5 23.5t-25 43.5t-1 68q9 55 43.5 107.5t90.5 103.5q50 45 117 88l-64 -6
l-81 78l26 190q-78 -122 -179 -195t-206 -73q-165 0 -222 95t-29 300l26 188q37 252 177.5 399t342.5 147q81 0 179.5 -20.5t199.5 -57.5l-129 -924l142 -20zM284 461q-27 -192 -3 -283.5t123 -91.5q84 0 175 81t167 206l85 617q-46 16 -99 24.5t-100 8.5q-55 0 -108.5 -14
t-94.5 -36q-40 -66 -72.5 -159.5t-53.5 -221.5z" />
    <glyph glyph-name="Cacute" unicode="&#x106;" horiz-adv-x="1163" 
d="M81 604q52 380 233 575.5t481 195.5q101 0 194.5 -15.5t159.5 -43.5l-17 -270h-88l-45 203q-42 12 -107 19.5t-142 7.5q-79 0 -158 -23.5t-144 -64.5q-58 -96 -101.5 -226t-64.5 -279l-18 -133q-31 -225 69.5 -349t300.5 -124q90 0 189 27t195 77l-15 -76
q-95 -57 -213.5 -92t-233.5 -35q-283 0 -403 136.5t-84 400.5zM696 1503l337 281l191 -10l-9 -66l-430 -248l-94 11z" />
    <glyph glyph-name="cacute" unicode="&#x107;" horiz-adv-x="926" 
d="M868 818l-86 -10v181q-32 14 -73 21t-86 7q-51 0 -100 -14t-85 -35q-54 -78 -91.5 -178.5t-57.5 -227.5l-17 -119q-25 -182 37.5 -278.5t171.5 -96.5q64 0 140.5 24.5t142.5 65.5v-86q-64 -43 -153 -68.5t-184 -25.5q-195 0 -281.5 111t-55.5 340l14 93q41 277 188 431
t353 154q80 0 153 -13t126 -39zM628 1307l254 363l181 -10l-10 -66l-356 -329l-74 10z" />
    <glyph glyph-name="Ccircumflex" unicode="&#x108;" horiz-adv-x="1163" 
d="M81 604q52 380 233 575.5t481 195.5q101 0 194.5 -15.5t159.5 -43.5l-17 -270h-88l-45 203q-42 12 -107 19.5t-142 7.5q-79 0 -158 -23.5t-144 -64.5q-58 -96 -101.5 -226t-64.5 -279l-18 -133q-31 -225 69.5 -349t300.5 -124q90 0 189 27t195 77l-15 -76
q-95 -57 -213.5 -92t-233.5 -35q-283 0 -403 136.5t-84 400.5zM1155 1470l-106 -10l-196 198l-273 -198l-93 10l5 32l323 292l132 -10l213 -282z" />
    <glyph glyph-name="ccircumflex" unicode="&#x109;" horiz-adv-x="926" 
d="M868 818l-86 -10v181q-32 14 -73 21t-86 7q-51 0 -100 -14t-85 -35q-54 -78 -91.5 -178.5t-57.5 -227.5l-17 -119q-25 -182 37.5 -278.5t171.5 -96.5q64 0 140.5 24.5t142.5 65.5v-86q-64 -43 -153 -68.5t-184 -25.5q-195 0 -281.5 111t-55.5 340l14 93q41 277 188 431
t353 154q80 0 153 -13t126 -39zM921 1275l-97 -10l-149 262l-230 -262l-93 10l4 32l286 373l131 -10l152 -363z" />
    <glyph glyph-name="Cdotaccent" unicode="&#x10a;" horiz-adv-x="1163" 
d="M81 604q52 380 233 575.5t481 195.5q101 0 194.5 -15.5t159.5 -43.5l-17 -270h-88l-45 203q-42 12 -107 19.5t-142 7.5q-79 0 -158 -23.5t-144 -64.5q-58 -96 -101.5 -226t-64.5 -279l-18 -133q-31 -225 69.5 -349t300.5 -124q90 0 189 27t195 77l-15 -76
q-95 -57 -213.5 -92t-233.5 -35q-283 0 -403 136.5t-84 400.5zM752 1599q4 27 14.5 51t26 42t33.5 28.5t37 10.5q27 0 50 -7.5t39 -20t24 -30t5 -36.5q-4 -26 -14.5 -50t-26 -42t-33.5 -28.5t-37 -10.5q-27 0 -50 7.5t-39 20t-24 29.5t-5 36z" />
    <glyph glyph-name="cdotaccent" unicode="&#x10b;" horiz-adv-x="926" 
d="M868 818l-86 -10v181q-32 14 -73 21t-86 7q-51 0 -100 -14t-85 -35q-54 -78 -91.5 -178.5t-57.5 -227.5l-17 -119q-25 -182 37.5 -278.5t171.5 -96.5q64 0 140.5 24.5t142.5 65.5v-86q-64 -43 -153 -68.5t-184 -25.5q-195 0 -281.5 111t-55.5 340l14 93q41 277 188 431
t353 154q80 0 153 -13t126 -39zM593 1410q0 26 5.5 49.5t15 41.5t22 28.5t27.5 10.5q26 0 49.5 -5.5t41.5 -15t28.5 -22.5t10.5 -27q0 -27 -5.5 -51t-15 -41.5t-22.5 -27.5t-27 -10q-27 0 -51 5.5t-41.5 15t-27.5 22t-10 27.5z" />
    <glyph glyph-name="Ccaron" unicode="&#x10c;" horiz-adv-x="1163" 
d="M81 604q52 380 233 575.5t481 195.5q101 0 194.5 -15.5t159.5 -43.5l-17 -270h-88l-45 203q-42 12 -107 19.5t-142 7.5q-79 0 -158 -23.5t-144 -64.5q-58 -96 -101.5 -226t-64.5 -279l-18 -133q-31 -225 69.5 -349t300.5 -124q90 0 189 27t195 77l-15 -76
q-95 -57 -213.5 -92t-233.5 -35q-283 0 -403 136.5t-84 400.5zM543 1784l105 10l198 -202l271 202l94 -10l-5 -32l-324 -292l-132 10l-212 282z" />
    <glyph glyph-name="ccaron" unicode="&#x10d;" horiz-adv-x="926" 
d="M868 818l-86 -10v181q-32 14 -73 21t-86 7q-51 0 -100 -14t-85 -35q-54 -78 -91.5 -178.5t-57.5 -227.5l-17 -119q-25 -182 37.5 -278.5t171.5 -96.5q64 0 140.5 24.5t142.5 65.5v-86q-64 -43 -153 -68.5t-184 -25.5q-195 0 -281.5 111t-55.5 340l14 93q41 277 188 431
t353 154q80 0 153 -13t126 -39zM440 1660l97 10l141 -262l238 262l93 -10l-4 -32l-286 -373l-131 10l-152 363z" />
    <glyph glyph-name="Dcaron" unicode="&#x10e;" horiz-adv-x="1335" 
d="M16 0l-8 85l141 20l161 1143l-141 20l17 85h546q300 0 431 -153t90 -458l-12 -88q-44 -310 -218.5 -482t-441.5 -172h-565zM554 99q74 0 148.5 16t135.5 43q68 69 127 187.5t82 276.5l13 94q35 259 -63.5 398.5t-322.5 139.5h-173l-163 -1155h216zM427 1784l105 10
l198 -202l271 202l94 -10l-5 -32l-324 -292l-132 10l-212 282z" />
    <glyph glyph-name="dcaron" unicode="&#x10f;" 
d="M770 1540l230 22l81 -78l-193 -1379l142 -20l-17 -85l-230 -22l-81 78l26 190q-80 -122 -179.5 -195t-202.5 -73q-169 0 -225.5 96.5t-28.5 298.5l26 188q37 257 176 401.5t344 144.5q49 0 101.5 -7t105.5 -19l49 354l-141 20zM284 461q-30 -213 -0.5 -294t120.5 -81
q84 0 175.5 81.5t166.5 206.5l86 616q-38 14 -92.5 23.5t-107.5 9.5q-54 0 -108 -14t-95 -36q-40 -65 -75.5 -169t-50.5 -212zM1232 1540h166l-5 -42l-111 -341h-103z" />
    <glyph glyph-name="Dcroat" unicode="&#x110;" horiz-adv-x="1335" 
d="M12 750h228l70 498l-141 20l17 85h546q300 0 431 -153t90 -458l-12 -88q-44 -310 -218.5 -482t-441.5 -172h-565l-8 85l141 20l75 535h-227zM554 99q74 0 148.5 16t135.5 43q68 69 127 187.5t82 276.5l13 94q35 259 -63.5 398.5t-322.5 139.5h-173l-71 -504h238l-15 -110
h-239l-76 -541h216z" />
    <glyph glyph-name="dcroat" unicode="&#x111;" 
d="M509 1328h370l15 107l-141 20l17 85l230 22l81 -78l-21 -156h142l-14 -97h-142l-158 -1126l142 -20l-17 -85l-230 -22l-81 78l26 190q-80 -122 -179.5 -195t-202.5 -73q-169 0 -225.5 96.5t-28.5 298.5l26 188q37 257 176 401.5t344 144.5q49 0 101.5 -7t105.5 -19
l21 150h-371zM284 461q-30 -213 -0.5 -294t120.5 -81q84 0 175.5 81.5t166.5 206.5l86 616q-38 14 -92.5 23.5t-107.5 9.5q-54 0 -108 -14t-95 -36q-40 -65 -75.5 -169t-50.5 -212z" />
    <glyph glyph-name="Emacron" unicode="&#x112;" horiz-adv-x="1165" 
d="M411 658l-79 -559h511l105 203l80 -13l-66 -289h-952l-8 85l141 20l161 1143l-141 20l17 85h943l-19 -300h-86l-40 201h-483l-70 -497h386l40 137l83 -20l-52 -355l-87 -5v144h-384zM348 1660h771l-20 -120h-770z" />
    <glyph glyph-name="emacron" unicode="&#x113;" horiz-adv-x="937" 
d="M903 835q-22 -159 -139 -251t-290 -92q-61 0 -112 3t-83 7l-8 -59q-25 -182 35 -278.5t164 -96.5q61 0 131 26.5t122 63.5v-86q-55 -41 -135.5 -67.5t-171.5 -26.5q-190 0 -274.5 112t-52.5 339l13 93q37 268 173.5 426.5t338.5 158.5q161 0 234 -73t55 -199zM433 968
q-46 -68 -84.5 -170t-57.5 -215q56 -3 110.5 -5t106.5 -2q43 0 83.5 10.5t72.5 29.5q20 41 32.5 84.5t20.5 101.5q14 101 -19.5 158t-115.5 57q-36 0 -75 -13t-74 -36zM331 1463h711l-18 -110h-710z" />
    <glyph glyph-name="Ebreve" unicode="&#x114;" horiz-adv-x="1165" 
d="M411 658l-79 -559h511l105 203l80 -13l-66 -289h-952l-8 85l141 20l161 1143l-141 20l17 85h943l-19 -300h-86l-40 201h-483l-70 -497h386l40 137l83 -20l-52 -355l-87 -5v144h-384zM1090 1749q-7 -50 -36.5 -99.5t-78.5 -89t-115 -64t-145 -24.5t-137.5 24.5t-96 64
t-53.5 89t-9 99.5l78 10q-2 -14 7 -40.5t35.5 -52.5t73.5 -45t121 -19q73 0 125.5 19t86 45t50.5 52.5t19 40.5z" />
    <glyph glyph-name="ebreve" unicode="&#x115;" horiz-adv-x="937" 
d="M903 835q-22 -159 -139 -251t-290 -92q-61 0 -112 3t-83 7l-8 -59q-25 -182 35 -278.5t164 -96.5q61 0 131 26.5t122 63.5v-86q-55 -41 -135.5 -67.5t-171.5 -26.5q-190 0 -274.5 112t-52.5 339l13 93q37 268 173.5 426.5t338.5 158.5q161 0 234 -73t55 -199zM433 968
q-46 -68 -84.5 -170t-57.5 -215q56 -3 110.5 -5t106.5 -2q43 0 83.5 10.5t72.5 29.5q20 41 32.5 84.5t20.5 101.5q14 101 -19.5 158t-115.5 57q-36 0 -75 -13t-74 -36zM990 1592q-8 -54 -37 -107t-75 -95t-106 -68.5t-130 -26.5t-122.5 26.5t-86.5 68.5t-48.5 95t-6.5 107
l68 10q-2 -16 7 -45.5t34 -59t67 -51t106 -21.5q61 0 109.5 21.5t82 51t52 59t20.5 45.5z" />
    <glyph glyph-name="Edotaccent" unicode="&#x116;" horiz-adv-x="1165" 
d="M411 658l-79 -559h511l105 203l80 -13l-66 -289h-952l-8 85l141 20l161 1143l-141 20l17 85h943l-19 -300h-86l-40 201h-483l-70 -497h386l40 137l83 -20l-52 -355l-87 -5v144h-384zM634 1599q4 27 14.5 51t26 42t33.5 28.5t37 10.5q27 0 50 -7.5t39 -20t24 -30t5 -36.5
q-4 -26 -14.5 -50t-26 -42t-33.5 -28.5t-37 -10.5q-27 0 -50 7.5t-39 20t-24 29.5t-5 36z" />
    <glyph glyph-name="edotaccent" unicode="&#x117;" horiz-adv-x="937" 
d="M903 835q-22 -159 -139 -251t-290 -92q-61 0 -112 3t-83 7l-8 -59q-25 -182 35 -278.5t164 -96.5q61 0 131 26.5t122 63.5v-86q-55 -41 -135.5 -67.5t-171.5 -26.5q-190 0 -274.5 112t-52.5 339l13 93q37 268 173.5 426.5t338.5 158.5q161 0 234 -73t55 -199zM433 968
q-46 -68 -84.5 -170t-57.5 -215q56 -3 110.5 -5t106.5 -2q43 0 83.5 10.5t72.5 29.5q20 41 32.5 84.5t20.5 101.5q14 101 -19.5 158t-115.5 57q-36 0 -75 -13t-74 -36zM583 1410q0 26 5.5 49.5t15 41.5t22 28.5t27.5 10.5q26 0 49.5 -5.5t41.5 -15t28.5 -22.5t10.5 -27
q0 -27 -5.5 -51t-15 -41.5t-22.5 -27.5t-27 -10q-27 0 -51 5.5t-41.5 15t-27.5 22t-10 27.5z" />
    <glyph glyph-name="Eogonek" unicode="&#x118;" horiz-adv-x="1165" 
d="M411 658l-79 -559h511l105 203l80 -13l-66 -289q-45 -28 -92.5 -63.5t-88 -76t-69 -84.5t-33.5 -89q-4 -34 13 -49t48 -15q29 0 58 12.5t53 27.5q28 18 55 40l-8 -73q-28 -25 -63 -44q-30 -17 -70.5 -30t-88.5 -13q-37 0 -65.5 7t-47 23.5t-25.5 43.5t0 68q9 51 46 106
t94 109q55 52 124 100h-792l-8 85l141 20l161 1143l-141 20l17 85h943l-19 -300h-86l-40 201h-483l-70 -497h386l40 137l83 -20l-52 -355l-87 -5v144h-384z" />
    <glyph glyph-name="eogonek" unicode="&#x119;" horiz-adv-x="937" 
d="M903 835q-22 -159 -139 -251t-290 -92q-61 0 -112 3t-83 7l-8 -59q-25 -182 35 -278.5t164 -96.5q61 0 131 26q48 19 88 42l34 22v-86l-12 -8q-43 -33 -85 -75q-48 -48 -88 -100t-66.5 -104.5t-31.5 -97.5q-4 -34 13 -49t48 -15q29 0 58 12.5t53 27.5q28 18 55 40l-8 -73
q-28 -25 -63 -44q-30 -17 -70.5 -30t-88.5 -13q-37 0 -65.5 7t-47 23.5t-25.5 43.5t0 68q9 56 47 117.5t95 123.5q26 29 56 58q-39 -6 -81 -6q-190 0 -274.5 112t-52.5 339l13 93q37 268 173.5 426.5t338.5 158.5q161 0 234 -73t55 -199zM433 968q-46 -68 -84.5 -170
t-57.5 -215q56 -3 110.5 -5t106.5 -2q43 0 83.5 10.5t72.5 29.5q20 41 32.5 84.5t20.5 101.5q14 101 -19.5 158t-115.5 57q-36 0 -75 -13t-74 -36z" />
    <glyph glyph-name="Ecaron" unicode="&#x11a;" horiz-adv-x="1165" 
d="M411 658l-79 -559h511l105 203l80 -13l-66 -289h-952l-8 85l141 20l161 1143l-141 20l17 85h943l-19 -300h-86l-40 201h-483l-70 -497h386l40 137l83 -20l-52 -355l-87 -5v144h-384zM425 1784l105 10l198 -202l271 202l94 -10l-5 -32l-324 -292l-132 10l-212 282z" />
    <glyph glyph-name="ecaron" unicode="&#x11b;" horiz-adv-x="937" 
d="M903 835q-22 -159 -139 -251t-290 -92q-61 0 -112 3t-83 7l-8 -59q-25 -182 35 -278.5t164 -96.5q61 0 131 26.5t122 63.5v-86q-55 -41 -135.5 -67.5t-171.5 -26.5q-190 0 -274.5 112t-52.5 339l13 93q37 268 173.5 426.5t338.5 158.5q161 0 234 -73t55 -199zM433 968
q-46 -68 -84.5 -170t-57.5 -215q56 -3 110.5 -5t106.5 -2q43 0 83.5 10.5t72.5 29.5q20 41 32.5 84.5t20.5 101.5q14 101 -19.5 158t-115.5 57q-36 0 -75 -13t-74 -36zM430 1660l97 10l141 -262l238 262l93 -10l-4 -32l-286 -373l-131 10l-152 363z" />
    <glyph glyph-name="Gcircumflex" unicode="&#x11c;" horiz-adv-x="1275" 
d="M752 646h447l8 -85l-141 -20l-61 -436q-104 -59 -224.5 -93t-232.5 -34q-263 0 -388 135t-89 392l13 89q55 378 240 579.5t482 201.5q100 0 191.5 -14.5t163.5 -42.5l-17 -270h-88l-45 201q-53 13 -117.5 20t-128.5 7q-81 0 -163.5 -24t-149.5 -64q-59 -98 -101.5 -223
t-64.5 -282l-18 -133q-29 -227 78.5 -350t269.5 -123q48 0 100 9.5t100 25.5l60 429l-141 20zM1147 1470l-106 -10l-196 198l-273 -198l-93 10l5 32l323 292l132 -10l213 -282z" />
    <glyph glyph-name="gcircumflex" unicode="&#x11d;" horiz-adv-x="1114" 
d="M39 -247q119 -44 236.5 -70.5t197.5 -26.5q90 52 151.5 165t82.5 268l21 156q-83 -125 -181.5 -196t-199.5 -71q-174 0 -228 100t-26 295l26 188q35 246 174.5 396t345.5 150q85 0 187 -22t192 -56l-126 -900q-40 -288 -183.5 -437t-359.5 -149q-93 0 -186.5 21
t-156.5 49zM285 461q-30 -210 -1 -292.5t121 -82.5q80 0 170 76.5t171 209.5l86 618q-40 14 -94 23.5t-105 9.5q-56 0 -110 -14t-93 -36q-43 -69 -77 -173t-49 -208zM936 1275l-97 -10l-149 262l-230 -262l-93 10l4 32l286 373l131 -10l152 -363z" />
    <glyph glyph-name="Gbreve" unicode="&#x11e;" horiz-adv-x="1275" 
d="M752 646h447l8 -85l-141 -20l-61 -436q-104 -59 -224.5 -93t-232.5 -34q-263 0 -388 135t-89 392l13 89q55 378 240 579.5t482 201.5q100 0 191.5 -14.5t163.5 -42.5l-17 -270h-88l-45 201q-53 13 -117.5 20t-128.5 7q-81 0 -163.5 -24t-149.5 -64q-59 -98 -101.5 -223
t-64.5 -282l-18 -133q-29 -227 78.5 -350t269.5 -123q48 0 100 9.5t100 25.5l60 429l-141 20zM1200 1749q-7 -50 -36.5 -99.5t-78.5 -89t-115 -64t-145 -24.5t-137.5 24.5t-96 64t-53.5 89t-9 99.5l78 10q-2 -14 7 -40.5t35.5 -52.5t73.5 -45t121 -19q73 0 125.5 19t86 45
t50.5 52.5t19 40.5z" />
    <glyph glyph-name="gbreve" unicode="&#x11f;" horiz-adv-x="1114" 
d="M39 -247q119 -44 236.5 -70.5t197.5 -26.5q90 52 151.5 165t82.5 268l21 156q-83 -125 -181.5 -196t-199.5 -71q-174 0 -228 100t-26 295l26 188q35 246 174.5 396t345.5 150q85 0 187 -22t192 -56l-126 -900q-40 -288 -183.5 -437t-359.5 -149q-93 0 -186.5 21
t-156.5 49zM285 461q-30 -210 -1 -292.5t121 -82.5q80 0 170 76.5t171 209.5l86 618q-40 14 -94 23.5t-105 9.5q-56 0 -110 -14t-93 -36q-43 -69 -77 -173t-49 -208zM1015 1592q-8 -54 -37 -107t-75 -95t-106 -68.5t-130 -26.5t-122.5 26.5t-86.5 68.5t-48.5 95t-6.5 107
l68 10q-2 -16 7 -45.5t34 -59t67 -51t106 -21.5q61 0 109.5 21.5t82 51t52 59t20.5 45.5z" />
    <glyph glyph-name="Gdotaccent" unicode="&#x120;" horiz-adv-x="1275" 
d="M752 646h447l8 -85l-141 -20l-61 -436q-104 -59 -224.5 -93t-232.5 -34q-263 0 -388 135t-89 392l13 89q55 378 240 579.5t482 201.5q100 0 191.5 -14.5t163.5 -42.5l-17 -270h-88l-45 201q-53 13 -117.5 20t-128.5 7q-81 0 -163.5 -24t-149.5 -64q-59 -98 -101.5 -223
t-64.5 -282l-18 -133q-29 -227 78.5 -350t269.5 -123q48 0 100 9.5t100 25.5l60 429l-141 20zM744 1599q4 27 14.5 51t26 42t33.5 28.5t37 10.5q27 0 50 -7.5t39 -20t24 -30t5 -36.5q-4 -26 -14.5 -50t-26 -42t-33.5 -28.5t-37 -10.5q-27 0 -50 7.5t-39 20t-24 29.5t-5 36z
" />
    <glyph glyph-name="gdotaccent" unicode="&#x121;" horiz-adv-x="1114" 
d="M39 -247q119 -44 236.5 -70.5t197.5 -26.5q90 52 151.5 165t82.5 268l21 156q-83 -125 -181.5 -196t-199.5 -71q-174 0 -228 100t-26 295l26 188q35 246 174.5 396t345.5 150q85 0 187 -22t192 -56l-126 -900q-40 -288 -183.5 -437t-359.5 -149q-93 0 -186.5 21
t-156.5 49zM285 461q-30 -210 -1 -292.5t121 -82.5q80 0 170 76.5t171 209.5l86 618q-40 14 -94 23.5t-105 9.5q-56 0 -110 -14t-93 -36q-43 -69 -77 -173t-49 -208zM608 1410q0 26 5.5 49.5t15 41.5t22 28.5t27.5 10.5q26 0 49.5 -5.5t41.5 -15t28.5 -22.5t10.5 -27
q0 -27 -5.5 -51t-15 -41.5t-22.5 -27.5t-27 -10q-27 0 -51 5.5t-41.5 15t-27.5 22t-10 27.5z" />
    <glyph glyph-name="Gcommaaccent" unicode="&#x122;" horiz-adv-x="1275" 
d="M752 646h447l8 -85l-141 -20l-61 -436q-104 -59 -224.5 -93t-232.5 -34q-263 0 -388 135t-89 392l13 89q55 378 240 579.5t482 201.5q100 0 191.5 -14.5t163.5 -42.5l-17 -270h-88l-45 201q-53 13 -117.5 20t-128.5 7q-81 0 -163.5 -24t-149.5 -64q-59 -98 -101.5 -223
t-64.5 -282l-18 -133q-29 -227 78.5 -350t269.5 -123q48 0 100 9.5t100 25.5l60 429l-141 20zM457 -151h166l-5 -42l-111 -341h-103z" />
    <glyph glyph-name="gcommaaccent" unicode="&#x123;" horiz-adv-x="1114" 
d="M39 -247q119 -44 236.5 -70.5t197.5 -26.5q90 52 151.5 165t82.5 268l21 156q-83 -125 -181.5 -196t-199.5 -71q-174 0 -228 100t-26 295l26 188q35 246 174.5 396t345.5 150q85 0 187 -22t192 -56l-126 -900q-40 -288 -183.5 -437t-359.5 -149q-93 0 -186.5 21
t-156.5 49zM285 461q-30 -210 -1 -292.5t121 -82.5q80 0 170 76.5t171 209.5l86 618q-40 14 -94 23.5t-105 9.5q-56 0 -110 -14t-93 -36q-43 -69 -77 -173t-49 -208zM687 1648h166l-5 -42l-111 -341h-103z" />
    <glyph glyph-name="Hcircumflex" unicode="&#x124;" horiz-adv-x="1451" 
d="M182 1353h447l8 -85l-141 -20l-68 -480h624l68 480l-141 20l17 85h447l8 -85l-141 -20l-161 -1143l141 -20l-17 -85h-447l-8 85l141 20l79 564h-624l-79 -564l141 -20l-17 -85h-447l-8 85l141 20l161 1143l-141 20zM1185 1470l-106 -10l-196 198l-273 -198l-93 10l5 32
l323 292l132 -10l213 -282z" />
    <glyph glyph-name="hcircumflex" unicode="&#x125;" horiz-adv-x="1263" 
d="M1106 0l-230 -22l-82 78l93 675q20 143 0 205.5t-94 62.5q-88 0 -187.5 -75t-193.5 -210l-102 -736l-178 22l200 1435l-141 20l17 85l230 22l81 -78l-90 -646q90 123 204 196t228 73q134 0 186.5 -70t31.5 -218l-98 -714l142 -20zM754 1680l-106 -10l-196 198l-273 -198
l-93 10l5 32l323 292l132 -10l213 -282z" />
    <glyph glyph-name="Hbar" unicode="&#x126;" horiz-adv-x="1451" 
d="M125 1084h158l23 164l-141 20l17 85h447l8 -85l-141 -20l-24 -164h624l24 164l-141 20l17 85h447l8 -85l-141 -20l-23 -164h146l-15 -110h-147l-122 -869l141 -20l-17 -85h-447l-8 85l141 20l79 564h-624l-79 -564l141 -20l-17 -85h-447l-8 85l141 20l122 869h-157z
M1052 768l29 206h-624l-29 -206h624z" />
    <glyph glyph-name="hbar" unicode="&#x127;" horiz-adv-x="1263" 
d="M1106 0l-230 -22l-82 78l93 675q20 143 0 205.5t-94 62.5q-88 0 -187.5 -75t-193.5 -210l-102 -736l-178 22l172 1236h-220l17 117h219l12 82l-141 20l17 85l230 22l81 -78l-18 -131h293l-17 -117h-293l-55 -398q90 123 204 196t228 73q134 0 186.5 -70t31.5 -218
l-98 -714l142 -20z" />
    <glyph glyph-name="Itilde" unicode="&#x128;" horiz-adv-x="637" 
d="M306 1248l-141 20l17 85h447l8 -85l-141 -20l-161 -1143l141 -20l-17 -85h-447l-8 85l141 20zM22 1520q8 54 28.5 94.5t50.5 68.5t66.5 42t76.5 14q65 0 123.5 -20.5t109.5 -45.5t94 -45.5t77 -20.5q36 0 66.5 32t40.5 98l99 10l-7 -47q-8 -51 -27 -91.5t-47.5 -69
t-64.5 -43.5t-78 -15q-57 0 -117 20.5t-115.5 45.5t-104 45.5t-83.5 20.5q-17 0 -33 -4.5t-29.5 -16.5t-23.5 -33t-15 -54l-91 -10z" />
    <glyph glyph-name="itilde" unicode="&#x129;" horiz-adv-x="637" 
d="M163 1085l231 22l81 -78l-129 -924l141 -20l-17 -85l-230 -22l-81 78l128 924l-141 20zM-14 1307q16 108 82.5 163.5t169.5 55.5q54 0 106.5 -20.5t101.5 -45.5t92.5 -45.5t78.5 -20.5q41 0 71.5 32t41.5 98l89 10l-7 -47q-15 -102 -77 -160.5t-163 -58.5
q-49 0 -104 20.5t-109 45.5t-103 45.5t-85 20.5q-18 0 -35.5 -4.5t-31.5 -16.5t-25 -33t-16 -54l-81 -10z" />
    <glyph glyph-name="Imacron" unicode="&#x12a;" horiz-adv-x="637" 
d="M306 1248l-141 20l17 85h447l8 -85l-141 -20l-161 -1143l141 -20l-17 -85h-447l-8 85l141 20zM68 1660h771l-20 -120h-770z" />
    <glyph glyph-name="imacron" unicode="&#x12b;" horiz-adv-x="637" 
d="M163 1085l231 22l81 -78l-129 -924l141 -20l-17 -85l-230 -22l-81 78l128 924l-141 20zM64 1463h711l-18 -110h-710z" />
    <glyph glyph-name="Ibreve" unicode="&#x12c;" horiz-adv-x="637" 
d="M306 1248l-141 20l17 85h447l8 -85l-141 -20l-161 -1143l141 -20l-17 -85h-447l-8 85l141 20zM810 1749q-7 -50 -36.5 -99.5t-78.5 -89t-115 -64t-145 -24.5t-137.5 24.5t-96 64t-53.5 89t-9 99.5l78 10q-2 -14 7 -40.5t35.5 -52.5t73.5 -45t121 -19q73 0 125.5 19t86 45
t50.5 52.5t19 40.5z" />
    <glyph glyph-name="ibreve" unicode="&#x12d;" horiz-adv-x="637" 
d="M163 1085l231 22l81 -78l-129 -924l141 -20l-17 -85l-230 -22l-81 78l128 924l-141 20zM723 1592q-8 -54 -37 -107t-75 -95t-106 -68.5t-130 -26.5t-122.5 26.5t-86.5 68.5t-48.5 95t-6.5 107l68 10q-2 -16 7 -45.5t34 -59t67 -51t106 -21.5q61 0 109.5 21.5t82 51t52 59
t20.5 45.5z" />
    <glyph glyph-name="Iogonek" unicode="&#x12e;" horiz-adv-x="637" 
d="M306 1248l-141 20l17 85h447l8 -85l-141 -20l-161 -1143l141 -20l-17 -85h-157q-45 -28 -92.5 -63.5t-88 -76t-69 -84.5t-33.5 -89q-4 -34 13 -49t48 -15q29 0 58 12.5t53 27.5q28 18 55 40l-8 -73q-28 -25 -63 -44q-30 -17 -70.5 -30t-88.5 -13q-37 0 -65.5 7
t-46.5 23.5t-25 43.5t-1 68q9 54 46 108.5t94 107.5q54 51 123 99h-129l-8 85l141 20z" />
    <glyph glyph-name="iogonek" unicode="&#x12f;" horiz-adv-x="637" 
d="M163 1085l231 22l81 -78l-129 -924l141 -20l-17 -85q-48 -32 -95 -69.5t-85.5 -78t-64.5 -82.5t-31 -83q-4 -34 13 -49t48 -15q29 0 58 12.5t53 27.5q28 18 55 40l-8 -73q-28 -25 -63 -44q-30 -17 -70.5 -30t-88.5 -13q-37 0 -65.5 7t-46.5 23.5t-25 43.5t-1 68
q9 55 43.5 107.5t90.5 102.5q51 46 118 90l-65 -7l-81 78l128 924l-141 20zM326 1410q0 52 20.5 91t49.5 39q51 0 90.5 -20.5t39.5 -49.5q0 -55 -21 -92.5t-49 -37.5q-55 0 -92.5 20.5t-37.5 49.5z" />
    <glyph glyph-name="Idotaccent" unicode="&#x130;" horiz-adv-x="637" 
d="M306 1248l-141 20l17 85h447l8 -85l-141 -20l-161 -1143l141 -20l-17 -85h-447l-8 85l141 20zM354 1599q4 27 14.5 51t26 42t33.5 28.5t37 10.5q27 0 50 -7.5t39 -20t24 -30t5 -36.5q-4 -26 -14.5 -50t-26 -42t-33.5 -28.5t-37 -10.5q-27 0 -50 7.5t-39 20t-24 29.5
t-5 36z" />
    <glyph glyph-name="dotlessi" unicode="&#x131;" horiz-adv-x="637" 
d="M163 1085l231 22l81 -78l-129 -924l141 -20l-17 -85l-230 -22l-81 78l128 924l-141 20z" />
    <glyph glyph-name="IJ" unicode="&#x132;" horiz-adv-x="1527" 
d="M306 1248l-141 20l17 85h447l8 -85l-141 -20l-161 -1143l141 -20l-17 -85h-447l-8 85l141 20zM1036 1353h497l8 -85l-141 -20l-128 -912q-24 -174 -120 -266t-256 -92q-58 0 -117 14t-106 39l16 260h86l46 -204q16 -4 41.5 -7.5t50.5 -3.5q24 0 50.5 5t52.5 16
q20 42 39 111.5t32 160.5l123 879l-191 20z" />
    <glyph glyph-name="ij" unicode="&#x133;" horiz-adv-x="1216" 
d="M163 1085l231 22l81 -78l-129 -924l141 -20l-17 -85l-230 -22l-81 78l128 924l-141 20zM326 1410q0 52 20.5 91t49.5 39q51 0 90.5 -20.5t39.5 -49.5q0 -55 -21 -92.5t-49 -37.5q-55 0 -92.5 20.5t-37.5 49.5zM797 1085l231 22l81 -78l-152 -1076q-31 -215 -116.5 -312.5
t-242.5 -97.5q-62 0 -124 14t-105 33l45 111q75 -24 147 -37.5t127 -13.5q29 43 51 109t35 155l147 1066l-141 20zM960 1410q0 52 20.5 91t49.5 39q51 0 90.5 -20.5t39.5 -49.5q0 -55 -21 -92.5t-49 -37.5q-55 0 -92.5 20.5t-37.5 49.5z" />
    <glyph glyph-name="Jcircumflex" unicode="&#x134;" horiz-adv-x="890" 
d="M399 1353h497l8 -85l-141 -20l-128 -912q-24 -174 -120 -266t-256 -92q-58 0 -117 14t-106 39l16 260h86l46 -204q16 -4 41.5 -7.5t50.5 -3.5q24 0 50.5 5t52.5 16q20 42 39 111.5t32 160.5l123 879l-191 20zM1012 1470l-106 -10l-196 198l-273 -198l-93 10l5 32l323 292
l132 -10l213 -282z" />
    <glyph glyph-name="jcircumflex" unicode="&#x135;" horiz-adv-x="579" 
d="M160 1085l231 22l81 -78l-152 -1076q-17 -119 -49.5 -198t-78.5 -126t-104.5 -66.5t-126.5 -19.5q-48 0 -90 7t-73 16q-36 11 -66 24l45 111q43 -15 90 -26q40 -10 88.5 -17.5t95.5 -7.5q18 26 34 64q14 32 28 81.5t24 118.5l147 1066l-141 20zM648 1275l-97 -10
l-149 262l-230 -262l-93 10l4 32l286 373l131 -10l152 -363z" />
    <glyph glyph-name="Kcommaaccent" unicode="&#x136;" horiz-adv-x="1272" 
d="M459 0h-447l-8 85l141 20l161 1143l-141 20l17 85h447l8 -85l-141 -20l-84 -594l13 -6l627 600l-109 20l17 85h354l8 -85l-91 -20l-508 -481l383 -662l112 -20l-17 -85h-248l-368 637l-202 -191l-48 -341l141 -20zM487 -151h166l-5 -42l-111 -341h-103z" />
    <glyph glyph-name="kcommaaccent" unicode="&#x137;" horiz-adv-x="1110" 
d="M1041 0l-213 -22l-81 78l-231 465q-33 -17 -68 -33.5t-71 -30.5l-67 -479l-178 22l200 1435l-141 20l17 85l231 22l81 -78l-125 -897q77 34 149 79.5t136.5 97.5t121 109t101.5 115l-84 12l17 85l148 22l104 -98q-29 -42 -71 -91.5t-95.5 -101.5t-117.5 -104.5
t-137 -101.5l250 -506l141 -19zM411 -151h166l-5 -42l-111 -341h-103z" />
    <glyph glyph-name="kgreenlandic" unicode="&#x138;" horiz-adv-x="1206" 
d="M375 105l141 -20l-17 -85h-436l-8 85l141 20l122 875l-140 20l17 85l231 22l81 -78l-70 -493l8 -3q42 0 81 24.5t76 65t73 92t72.5 105.5t75.5 105.5t81 92t88.5 65t99.5 24.5q28 0 51.5 -7.5t39.5 -21t24 -32.5t5 -42t-12 -45t-22.5 -39t-31.5 -27.5t-38 -10.5
q-36 0 -60 12t-49 34q-20 0 -46.5 -28t-59 -73t-70.5 -100.5t-82 -109.5l264 -513l141 -19l-17 -85l-213 -22l-82 78l-221 427q-45 -37 -94 -59t-101 -22z" />
    <glyph glyph-name="Lacute" unicode="&#x139;" horiz-adv-x="976" 
d="M820 0h-806l-8 85l141 20l161 1143l-141 20l17 85h477l8 -85l-171 -20l-162 -1149h361l110 213l81 -12zM307 1503l337 281l191 -10l-9 -66l-430 -248l-94 11z" />
    <glyph glyph-name="lacute" unicode="&#x13a;" horiz-adv-x="620" 
d="M210 1540l231 22l81 -78l-193 -1379l141 -20l-17 -85l-230 -22l-81 78l192 1379l-141 20zM309 1713l337 281l191 -10l-9 -66l-430 -248l-94 11z" />
    <glyph glyph-name="Lcommaaccent" unicode="&#x13b;" horiz-adv-x="976" 
d="M820 0h-806l-8 85l141 20l161 1143l-141 20l17 85h477l8 -85l-171 -20l-162 -1149h361l110 213l81 -12zM303 -151h166l-5 -42l-111 -341h-103z" />
    <glyph glyph-name="lcommaaccent" unicode="&#x13c;" horiz-adv-x="620" 
d="M210 1540l231 22l81 -78l-193 -1379l141 -20l-17 -85l-230 -22l-81 78l192 1379l-141 20zM141 -151h166l-5 -42l-111 -341h-103z" />
    <glyph glyph-name="Lcaron" unicode="&#x13d;" horiz-adv-x="976" 
d="M820 0h-806l-8 85l141 20l161 1143l-141 20l17 85h477l8 -85l-171 -20l-162 -1149h361l110 213l81 -12zM757 1540h166l-5 -42l-111 -341h-103z" />
    <glyph glyph-name="lcaron" unicode="&#x13e;" horiz-adv-x="695" 
d="M210 1540l231 22l81 -78l-193 -1379l141 -20l-17 -85l-230 -22l-81 78l192 1379l-141 20zM674 1540h166l-5 -42l-111 -341h-103z" />
    <glyph glyph-name="Ldot" unicode="&#x13f;" horiz-adv-x="976" 
d="M820 0h-806l-8 85l141 20l161 1143l-141 20l17 85h477l8 -85l-171 -20l-162 -1149h361l110 213l81 -12zM757 654q0 31 7 59t19.5 49t29 33.5t34.5 12.5q33 0 61 -7t48.5 -19.5t32.5 -29.5t12 -36q0 -30 -7 -58t-19.5 -49t-29 -33.5t-35.5 -12.5q-32 0 -60 7t-48.5 19.5
t-32.5 29t-12 35.5z" />
    <glyph glyph-name="ldot" unicode="&#x140;" horiz-adv-x="765" 
d="M210 1540l231 22l81 -78l-193 -1379l141 -20l-17 -85l-230 -22l-81 78l192 1379l-141 20zM579 654q0 31 7 59t19.5 49t29 33.5t34.5 12.5q33 0 61 -7t48.5 -19.5t32.5 -29.5t12 -36q0 -30 -7 -58t-19.5 -49t-29 -33.5t-35.5 -12.5q-32 0 -60 7t-48.5 19.5t-32.5 29
t-12 35.5z" />
    <glyph glyph-name="Lslash" unicode="&#x141;" horiz-adv-x="976" 
d="M1031 0h-806l-8 85l141 20l60 427l-228 -122l19 139l228 122l82 577l-141 20l17 85h477l8 -85l-171 -20l-66 -467l354 190l-19 -138l-355 -190l-76 -544h361l110 213l81 -12z" />
    <glyph glyph-name="lslash" unicode="&#x142;" horiz-adv-x="620" 
d="M-15 684l264 141l85 610l-141 20l17 85l231 22l81 -78l-78 -555l254 135l-19 -138l-254 -136l-96 -685l141 -20l-17 -85l-230 -22l-81 78l88 630l-265 -141z" />
    <glyph glyph-name="Nacute" unicode="&#x143;" horiz-adv-x="1524" 
d="M1140 1353h398l8 -85l-141 -20l-176 -1248h-287l-484 1218h-16l-157 -1113l141 -20l-17 -85h-397l-8 85l141 20l161 1143l-141 20l17 85h426l484 -1217h16l156 1112l-141 20zM776 1503l337 281l191 -10l-9 -66l-430 -248l-94 11z" />
    <glyph glyph-name="nacute" unicode="&#x144;" horiz-adv-x="1279" 
d="M1123 0l-230 -22l-81 78l93 675q20 147 0 207.5t-94 60.5q-88 0 -187.5 -75t-193.5 -210l-103 -736l-176 22l135 980l-141 20l17 85l231 22l81 -78l-27 -190q95 127 208.5 197.5t223.5 70.5q135 0 186.5 -70t31.5 -218l-98 -714l141 -20zM746 1307l254 363l181 -10
l-10 -66l-356 -329l-74 10z" />
    <glyph glyph-name="Ncommaaccent" unicode="&#x145;" horiz-adv-x="1524" 
d="M1140 1353h398l8 -85l-141 -20l-176 -1248h-287l-484 1218h-16l-157 -1113l141 -20l-17 -85h-397l-8 85l141 20l161 1143l-141 20l17 85h426l484 -1217h16l156 1112l-141 20zM539 -151h166l-5 -42l-111 -341h-103z" />
    <glyph glyph-name="ncommaaccent" unicode="&#x146;" horiz-adv-x="1279" 
d="M1123 0l-230 -22l-81 78l93 675q20 147 0 207.5t-94 60.5q-88 0 -187.5 -75t-193.5 -210l-103 -736l-176 22l135 980l-141 20l17 85l231 22l81 -78l-27 -190q95 127 208.5 197.5t223.5 70.5q135 0 186.5 -70t31.5 -218l-98 -714l141 -20zM484 -151h166l-5 -42l-111 -341
h-103z" />
    <glyph glyph-name="Ncaron" unicode="&#x147;" horiz-adv-x="1524" 
d="M1140 1353h398l8 -85l-141 -20l-176 -1248h-287l-484 1218h-16l-157 -1113l141 -20l-17 -85h-397l-8 85l141 20l161 1143l-141 20l17 85h426l484 -1217h16l156 1112l-141 20zM623 1784l105 10l198 -202l271 202l94 -10l-5 -32l-324 -292l-132 10l-212 282z" />
    <glyph glyph-name="ncaron" unicode="&#x148;" horiz-adv-x="1279" 
d="M1123 0l-230 -22l-81 78l93 675q20 147 0 207.5t-94 60.5q-88 0 -187.5 -75t-193.5 -210l-103 -736l-176 22l135 980l-141 20l17 85l231 22l81 -78l-27 -190q95 127 208.5 197.5t223.5 70.5q135 0 186.5 -70t31.5 -218l-98 -714l141 -20zM558 1660l97 10l141 -262
l238 262l93 -10l-4 -32l-286 -373l-131 10l-152 363z" />
    <glyph glyph-name="napostrophe" unicode="&#x149;" horiz-adv-x="1279" 
d="M1123 0l-230 -22l-81 78l93 675q20 147 0 207.5t-94 60.5q-88 0 -187.5 -75t-193.5 -210l-103 -736l-176 22l135 980l-141 20l17 85l231 22l81 -78l-27 -190q95 127 208.5 197.5t223.5 70.5q135 0 186.5 -70t31.5 -218l-98 -714l141 -20zM-65 1404q4 32 15.5 60.5
t27.5 50.5t34.5 34.5t37.5 12.5q36 0 73.5 -11t58.5 -37q13 -17 21 -50t-1 -97q-6 -46 -19 -89t-40.5 -88t-73 -92.5t-116.5 -102.5l-52 73q88 66 125.5 116.5t42.5 88.5q2 18 -11 28t-34 16q-44 11 -68.5 34.5t-20.5 52.5z" />
    <glyph glyph-name="Eng" unicode="&#x14a;" horiz-adv-x="1524" 
d="M1140 1353h398l8 -85l-141 -20l-176 -1248q-18 -132 -52 -220t-80 -140.5t-103 -74.5t-122 -22q-59 0 -107.5 10t-84.5 23q-42 15 -76 34l45 111q48 -20 100 -36q45 -14 98 -24.5t106 -10.5q28 26 53 65q21 33 41.5 82t30.5 117l12 86h-148l-484 1218h-16l-157 -1113
l141 -20l-17 -85h-397l-8 85l141 20l161 1143l-141 20l17 85h426l484 -1217h16l156 1112l-141 20z" />
    <glyph glyph-name="eng" unicode="&#x14b;" horiz-adv-x="1235" 
d="M162 1085l231 22l81 -78l-27 -190q8 11 27 35t48 54t67 61.5t83 57.5t97 43t110 17q63 0 109 -15.5t74 -50t37 -89.5t-2 -133l-112 -819q-19 -137 -53 -225.5t-80.5 -140t-105.5 -71.5t-127 -20q-48 0 -90 7t-73 16q-36 11 -66 24l45 111q40 -15 85 -26q38 -10 85 -17.5
t94 -7.5q20 26 38 64q15 32 30.5 81.5t25.5 118.5l112 817q11 78 10.5 129.5t-12.5 82t-35 43.5t-57 13q-46 0 -90 -18.5t-84 -46.5t-75 -62t-62 -66t-45 -57t-25 -35l-103 -736l-176 22l135 980l-141 20z" />
    <glyph glyph-name="Omacron" unicode="&#x14c;" horiz-adv-x="1346" 
d="M564 -22q-279 0 -400 137.5t-84 409.5l11 79q55 388 229 579.5t461 191.5q276 0 399 -137t84 -411l-11 -78q-53 -378 -225.5 -574.5t-463.5 -196.5zM1067 783q33 242 -51 367.5t-283 125.5q-73 0 -148 -23.5t-137 -64.5q-56 -108 -96 -235t-57 -250l-18 -133
q-32 -234 63 -363.5t272 -129.5q76 0 151 24t134 65q53 101 93.5 228.5t58.5 255.5zM467 1660h771l-20 -120h-770z" />
    <glyph glyph-name="omacron" unicode="&#x14d;" horiz-adv-x="1089" 
d="M437 -22q-203 0 -291.5 113t-55.5 338l14 93q40 271 188 428t363 157q206 0 291.5 -115t53.5 -345l-13 -95q-36 -254 -189.5 -414t-360.5 -160zM818 632q26 189 -23 287t-172 98q-51 0 -100.5 -14t-88.5 -35q-50 -75 -89 -182t-56 -224l-17 -119q-24 -182 35.5 -278.5
t161.5 -96.5q44 0 91.5 12.5t97.5 37.5q46 60 85.5 160t58.5 235zM386 1463h711l-18 -110h-710z" />
    <glyph glyph-name="Obreve" unicode="&#x14e;" horiz-adv-x="1346" 
d="M564 -22q-279 0 -400 137.5t-84 409.5l11 79q55 388 229 579.5t461 191.5q276 0 399 -137t84 -411l-11 -78q-53 -378 -225.5 -574.5t-463.5 -196.5zM1067 783q33 242 -51 367.5t-283 125.5q-73 0 -148 -23.5t-137 -64.5q-56 -108 -96 -235t-57 -250l-18 -133
q-32 -234 63 -363.5t272 -129.5q76 0 151 24t134 65q53 101 93.5 228.5t58.5 255.5zM1209 1749q-7 -50 -36.5 -99.5t-78.5 -89t-115 -64t-145 -24.5t-137.5 24.5t-96 64t-53.5 89t-9 99.5l78 10q-2 -14 7 -40.5t35.5 -52.5t73.5 -45t121 -19q73 0 125.5 19t86 45t50.5 52.5
t19 40.5z" />
    <glyph glyph-name="obreve" unicode="&#x14f;" horiz-adv-x="1089" 
d="M437 -22q-203 0 -291.5 113t-55.5 338l14 93q40 271 188 428t363 157q206 0 291.5 -115t53.5 -345l-13 -95q-36 -254 -189.5 -414t-360.5 -160zM818 632q26 189 -23 287t-172 98q-51 0 -100.5 -14t-88.5 -35q-50 -75 -89 -182t-56 -224l-17 -119q-24 -182 35.5 -278.5
t161.5 -96.5q44 0 91.5 12.5t97.5 37.5q46 60 85.5 160t58.5 235zM1045 1592q-8 -54 -37 -107t-75 -95t-106 -68.5t-130 -26.5t-122.5 26.5t-86.5 68.5t-48.5 95t-6.5 107l68 10q-2 -16 7 -45.5t34 -59t67 -51t106 -21.5q61 0 109.5 21.5t82 51t52 59t20.5 45.5z" />
    <glyph glyph-name="Ohungarumlaut" unicode="&#x150;" horiz-adv-x="1346" 
d="M564 -22q-279 0 -400 137.5t-84 409.5l11 79q55 388 229 579.5t461 191.5q276 0 399 -137t84 -411l-11 -78q-53 -378 -225.5 -574.5t-463.5 -196.5zM1067 783q33 242 -51 367.5t-283 125.5q-73 0 -148 -23.5t-137 -64.5q-56 -108 -96 -235t-57 -250l-18 -133
q-32 -234 63 -363.5t272 -129.5q76 0 151 24t134 65q53 101 93.5 228.5t58.5 255.5zM547 1503l336 281l191 -10l-9 -66l-429 -248l-94 11zM965 1503l337 281l191 -10l-9 -66l-430 -248l-94 11z" />
    <glyph glyph-name="ohungarumlaut" unicode="&#x151;" horiz-adv-x="1089" 
d="M437 -22q-203 0 -291.5 113t-55.5 338l14 93q40 271 188 428t363 157q206 0 291.5 -115t53.5 -345l-13 -95q-36 -254 -189.5 -414t-360.5 -160zM818 632q26 189 -23 287t-172 98q-51 0 -100.5 -14t-88.5 -35q-50 -75 -89 -182t-56 -224l-17 -119q-24 -182 35.5 -278.5
t161.5 -96.5q44 0 91.5 12.5t97.5 37.5q46 60 85.5 160t58.5 235zM422 1307l254 363l181 -10l-10 -66l-356 -329l-74 10zM800 1307l254 363l181 -10l-10 -66l-356 -329l-74 10z" />
    <glyph glyph-name="OE" unicode="&#x152;" horiz-adv-x="1776" 
d="M1420 757l40 137l83 -20l-52 -355l-87 -5v144h-334l-79 -559h461l105 203l80 -13l-66 -289h-784q-30 -5 -89.5 -13.5t-133.5 -8.5q-281 0 -401.5 136.5t-82.5 410.5l11 79q26 188 82 332t141.5 241.5t202 147.5t264.5 50q113 0 197 -22h754l-19 -300h-86l-40 201h-433
l-70 -497h336zM733 1276q-62 0 -114 -13.5t-90 -30.5q-45 -19 -81 -44q-33 -61 -62 -137q-26 -65 -51.5 -153.5t-39.5 -194.5l-18 -133q-17 -128 3 -221t67.5 -153.5t116 -89.5t148.5 -29q63 0 108.5 12t83.5 30l154 1093q-45 34 -102.5 49t-122.5 15z" />
    <glyph glyph-name="oe" unicode="&#x153;" horiz-adv-x="1643" 
d="M1603 835q-22 -159 -139 -251t-290 -92q-61 0 -112 3t-83 7l-8 -59q-25 -182 35 -278.5t164 -96.5q61 0 131 26.5t122 63.5v-86q-55 -41 -135.5 -67.5t-171.5 -26.5q-190 0 -275 112q-20 26 -33 59q-5 -6 -11 -11q-153 -160 -360 -160q-203 0 -291.5 113t-55.5 338l14 93
q40 271 188 428t363 157q206 0 291 -115q16 -21 27 -46l2 2q137 159 339 159q161 0 234 -73t55 -199zM818 632q26 189 -23 287t-172 98q-51 0 -100.5 -14t-88.5 -35q-50 -75 -89 -182t-56 -224l-17 -119q-24 -182 35.5 -278.5t161.5 -96.5q44 0 91.5 12.5t97.5 37.5
q46 60 85 160q32 79 50 180zM1133 968q-46 -68 -84.5 -170t-57.5 -215q56 -3 110.5 -5t106.5 -2q43 0 83.5 10.5t72.5 29.5q20 41 32.5 84.5t20.5 101.5q14 101 -19.5 158t-115.5 57q-36 0 -75 -13t-74 -36z" />
    <glyph glyph-name="Racute" unicode="&#x154;" horiz-adv-x="1201" 
d="M463 0h-447l-8 85l141 20l161 1143l-141 20l17 85h498q204 0 303 -88t75 -262q-18 -125 -91.5 -219t-178.5 -137l-8 -19l217 -523l122 -20l-17 -85h-259l-255 616h-181l-72 -511l141 -20zM550 715q67 0 133.5 13.5t113.5 35.5q24 42 42 97t25 108q20 146 -41 215.5
t-226 69.5h-96l-76 -539h125zM505 1503l337 281l191 -10l-9 -66l-430 -248l-94 11z" />
    <glyph glyph-name="racute" unicode="&#x155;" horiz-adv-x="925" 
d="M176 1085l231 22l81 -78l-29 -209q63 136 147.5 211.5t176.5 75.5q42 0 82.5 -14.5t69.5 -37.5l-56 -237l-106 -12v173q-7 5 -20 7.5t-28 2.5q-60 0 -135.5 -86.5t-154.5 -251.5l-76 -546l142 -20l-17 -85h-438l-8 85l140 20l122 875l-141 20zM576 1307l254 363l181 -10
l-10 -66l-356 -329l-74 10z" />
    <glyph glyph-name="Rcommaaccent" unicode="&#x156;" horiz-adv-x="1201" 
d="M463 0h-447l-8 85l141 20l161 1143l-141 20l17 85h498q204 0 303 -88t75 -262q-18 -125 -91.5 -219t-178.5 -137l-8 -19l217 -523l122 -20l-17 -85h-259l-255 616h-181l-72 -511l141 -20zM550 715q67 0 133.5 13.5t113.5 35.5q24 42 42 97t25 108q20 146 -41 215.5
t-226 69.5h-96l-76 -539h125zM430 -151h166l-5 -42l-111 -341h-103z" />
    <glyph glyph-name="rcommaaccent" unicode="&#x157;" horiz-adv-x="925" 
d="M176 1085l231 22l81 -78l-29 -209q63 136 147.5 211.5t176.5 75.5q42 0 82.5 -14.5t69.5 -37.5l-56 -237l-106 -12v173q-7 5 -20 7.5t-28 2.5q-60 0 -135.5 -86.5t-154.5 -251.5l-76 -546l142 -20l-17 -85h-438l-8 85l140 20l122 875l-141 20zM143 -151h166l-5 -42
l-111 -341h-103z" />
    <glyph glyph-name="Rcaron" unicode="&#x158;" horiz-adv-x="1201" 
d="M463 0h-447l-8 85l141 20l161 1143l-141 20l17 85h498q204 0 303 -88t75 -262q-18 -125 -91.5 -219t-178.5 -137l-8 -19l217 -523l122 -20l-17 -85h-259l-255 616h-181l-72 -511l141 -20zM550 715q67 0 133.5 13.5t113.5 35.5q24 42 42 97t25 108q20 146 -41 215.5
t-226 69.5h-96l-76 -539h125zM352 1784l105 10l198 -202l271 202l94 -10l-5 -32l-324 -292l-132 10l-212 282z" />
    <glyph glyph-name="rcaron" unicode="&#x159;" horiz-adv-x="925" 
d="M176 1085l231 22l81 -78l-29 -209q63 136 147.5 211.5t176.5 75.5q42 0 82.5 -14.5t69.5 -37.5l-56 -237l-106 -12v173q-7 5 -20 7.5t-28 2.5q-60 0 -135.5 -86.5t-154.5 -251.5l-76 -546l142 -20l-17 -85h-438l-8 85l140 20l122 875l-141 20zM388 1660l97 10l141 -262
l238 262l93 -10l-4 -32l-286 -373l-131 10l-152 363z" />
    <glyph glyph-name="Sacute" unicode="&#x15a;" horiz-adv-x="1047" 
d="M623 762q173 -112 246.5 -203.5t55.5 -213.5q-23 -165 -165.5 -266t-358.5 -101q-109 0 -206 16.5t-163 46.5l16 259h100l45 -199q45 -12 98 -18t113 -6q68 0 134.5 10.5t118.5 27.5q20 28 40.5 75t27.5 91q13 83 -37 157t-227 190q-207 132 -266 213.5t-44 192.5
q22 155 162 248t358 93q93 0 179.5 -14t144.5 -38l-17 -270h-88l-45 201q-36 9 -90 15.5t-108 6.5q-65 0 -129 -10.5t-114 -27.5q-23 -40 -36.5 -77.5t-19.5 -74.5q-11 -76 42.5 -141.5t232.5 -182.5zM549 1503l337 281l191 -10l-9 -66l-430 -248l-94 11z" />
    <glyph glyph-name="sacute" unicode="&#x15b;" horiz-adv-x="923" 
d="M540 632q177 -108 229 -184.5t38 -176.5q-20 -139 -140.5 -216t-298.5 -77q-83 0 -159 19.5t-127 50.5l24 240h82l31 -197q33 -11 79 -17t96 -6q48 0 95 8.5t78 19.5q18 21 32.5 52t20.5 72q10 70 -29 126.5t-203 159.5q-155 96 -201 164.5t-33 157.5q19 122 129 200.5
t286 78.5q80 0 154 -18t124 -50l-25 -241h-81l-33 199q-28 9 -70 14.5t-85 5.5q-44 0 -88 -8.5t-71 -19.5q-21 -22 -34.5 -49t-18.5 -58q-12 -76 28.5 -123.5t170.5 -126.5zM557 1307l254 363l181 -10l-10 -66l-356 -329l-74 10z" />
    <glyph glyph-name="Scircumflex" unicode="&#x15c;" horiz-adv-x="1047" 
d="M623 762q173 -112 246.5 -203.5t55.5 -213.5q-23 -165 -165.5 -266t-358.5 -101q-109 0 -206 16.5t-163 46.5l16 259h100l45 -199q45 -12 98 -18t113 -6q68 0 134.5 10.5t118.5 27.5q20 28 40.5 75t27.5 91q13 83 -37 157t-227 190q-207 132 -266 213.5t-44 192.5
q22 155 162 248t358 93q93 0 179.5 -14t144.5 -38l-17 -270h-88l-45 201q-36 9 -90 15.5t-108 6.5q-65 0 -129 -10.5t-114 -27.5q-23 -40 -36.5 -77.5t-19.5 -74.5q-11 -76 42.5 -141.5t232.5 -182.5zM1008 1470l-106 -10l-196 198l-273 -198l-93 10l5 32l323 292l132 -10
l213 -282z" />
    <glyph glyph-name="scircumflex" unicode="&#x15d;" horiz-adv-x="923" 
d="M540 632q177 -108 229 -184.5t38 -176.5q-20 -139 -140.5 -216t-298.5 -77q-83 0 -159 19.5t-127 50.5l24 240h82l31 -197q33 -11 79 -17t96 -6q48 0 95 8.5t78 19.5q18 21 32.5 52t20.5 72q10 70 -29 126.5t-203 159.5q-155 96 -201 164.5t-33 157.5q19 122 129 200.5
t286 78.5q80 0 154 -18t124 -50l-25 -241h-81l-33 199q-28 9 -70 14.5t-85 5.5q-44 0 -88 -8.5t-71 -19.5q-21 -22 -34.5 -49t-18.5 -58q-12 -76 28.5 -123.5t170.5 -126.5zM850 1275l-97 -10l-149 262l-230 -262l-93 10l4 32l286 373l131 -10l152 -363z" />
    <glyph glyph-name="Scedilla" unicode="&#x15e;" horiz-adv-x="1047" 
d="M623 762q173 -112 246.5 -203.5t55.5 -213.5q-23 -165 -166 -266q-109 -78 -261 -95l-41 -82q40 -11 73.5 -25t56 -35t32.5 -51t4 -72q-5 -38 -24.5 -70t-52 -55.5t-76.5 -37t-99 -13.5q-40 0 -73 7t-58 16q-29 11 -53 24l23 63q25 -11 52 -20q23 -8 52.5 -14t60.5 -6
q20 0 36 2t27 4q12 3 22 7q5 12 9 26q4 12 7.5 27t5.5 32q5 54 -25.5 85t-99.5 51l-36 52l41 80q-87 2 -167 16q-97 16 -163 46l16 259h100l45 -199q45 -12 98 -18t113 -6q68 0 134.5 10.5t118.5 27.5q20 28 40.5 75t27.5 91q13 83 -37 157t-227 190q-207 132 -266 213.5
t-44 192.5q22 155 162 248t358 93q93 0 179.5 -14t144.5 -38l-17 -270h-88l-45 201q-36 9 -90 15.5t-108 6.5q-65 0 -129 -10.5t-114 -27.5q-23 -40 -36.5 -77.5t-19.5 -74.5q-11 -76 42.5 -141.5t232.5 -182.5z" />
    <glyph glyph-name="scedilla" unicode="&#x15f;" horiz-adv-x="923" 
d="M540 632q177 -108 229 -184.5t38 -176.5q-20 -139 -141 -216q-84 -54 -195 -70l-42 -83q40 -11 73.5 -25t56 -35t32.5 -51t4 -72q-5 -38 -24.5 -70t-52 -55.5t-76.5 -37t-99 -13.5q-40 0 -73 7t-58 16q-29 11 -53 24l23 63q25 -11 52 -20q23 -8 52.5 -14t60.5 -6
q20 0 36 2t27 4q12 3 22 7q5 12 9 26q4 12 7.5 27t5.5 32q5 54 -25.5 85t-99.5 51l-36 52l41 80q-65 3 -125 19q-76 19 -127 50l24 240h82l31 -197q33 -11 79 -17t96 -6q48 0 95 8.5t78 19.5q18 21 32.5 52t20.5 72q10 70 -29 126.5t-203 159.5q-155 96 -201 164.5
t-33 157.5q19 122 129 200.5t286 78.5q80 0 154 -18t124 -50l-25 -241h-81l-33 199q-28 9 -70 14.5t-85 5.5q-44 0 -88 -8.5t-71 -19.5q-21 -22 -34.5 -49t-18.5 -58q-12 -76 28.5 -123.5t170.5 -126.5z" />
    <glyph glyph-name="Scaron" unicode="&#x160;" horiz-adv-x="1047" 
d="M623 762q173 -112 246.5 -203.5t55.5 -213.5q-23 -165 -165.5 -266t-358.5 -101q-109 0 -206 16.5t-163 46.5l16 259h100l45 -199q45 -12 98 -18t113 -6q68 0 134.5 10.5t118.5 27.5q20 28 40.5 75t27.5 91q13 83 -37 157t-227 190q-207 132 -266 213.5t-44 192.5
q22 155 162 248t358 93q93 0 179.5 -14t144.5 -38l-17 -270h-88l-45 201q-36 9 -90 15.5t-108 6.5q-65 0 -129 -10.5t-114 -27.5q-23 -40 -36.5 -77.5t-19.5 -74.5q-11 -76 42.5 -141.5t232.5 -182.5zM396 1784l105 10l198 -202l271 202l94 -10l-5 -32l-324 -292l-132 10
l-212 282z" />
    <glyph glyph-name="scaron" unicode="&#x161;" horiz-adv-x="923" 
d="M540 632q177 -108 229 -184.5t38 -176.5q-20 -139 -140.5 -216t-298.5 -77q-83 0 -159 19.5t-127 50.5l24 240h82l31 -197q33 -11 79 -17t96 -6q48 0 95 8.5t78 19.5q18 21 32.5 52t20.5 72q10 70 -29 126.5t-203 159.5q-155 96 -201 164.5t-33 157.5q19 122 129 200.5
t286 78.5q80 0 154 -18t124 -50l-25 -241h-81l-33 199q-28 9 -70 14.5t-85 5.5q-44 0 -88 -8.5t-71 -19.5q-21 -22 -34.5 -49t-18.5 -58q-12 -76 28.5 -123.5t170.5 -126.5zM369 1660l97 10l141 -262l238 262l93 -10l-4 -32l-286 -373l-131 10l-152 363z" />
    <glyph glyph-name="Tcommaaccent" unicode="&#x162;" horiz-adv-x="1038" 
d="M506 1254h-305l-75 -191h-88l56 290h1032l-27 -290h-79l-30 191h-294l-162 -1149l141 -20l-17 -85h-171l-49 -98q40 -11 73.5 -25t56 -35t32.5 -51t4 -72q-5 -38 -24.5 -70t-52 -55.5t-76.5 -37t-99 -13.5q-40 0 -73 7t-58 16q-29 11 -53 24l23 63q25 -11 52 -20
q23 -8 52.5 -14t60.5 -6q20 0 36 2t27 4q12 3 22 7q5 12 9 26q4 12 7.5 27t5.5 32q5 54 -25.5 85t-99.5 51l-36 52l52 101h-143l-8 85l141 20z" />
    <glyph glyph-name="tcommaaccent" unicode="&#x163;" horiz-adv-x="765" 
d="M99 1085h176l29 207l193 83l-41 -290h307l-11 -84h-308l-91 -653q-19 -137 8 -208.5t105 -71.5q42 0 96.5 21.5t96.5 48.5v-86q-55 -34 -121 -54q-52 -16 -105 -19l-38 -77q40 -11 73.5 -25t56 -35t32.5 -51t4 -72q-5 -38 -24.5 -70t-52 -55.5t-76.5 -37t-99 -13.5
q-40 0 -73 7t-58 16q-29 11 -53 24l23 63q25 -11 52 -20q23 -8 52.5 -14t60.5 -6q20 0 36 2t27 4q12 3 22 7q5 12 9 26q4 12 7.5 27t5.5 32q5 54 -25.5 85t-99.5 51l-36 52l47 91q-74 20 -108 77q-52 89 -27 267l92 667h-175z" />
    <glyph glyph-name="Tcaron" unicode="&#x164;" horiz-adv-x="1038" 
d="M506 1254h-305l-75 -191h-88l56 290h1032l-27 -290h-79l-30 191h-294l-162 -1149l141 -20l-17 -85h-447l-8 85l141 20zM353 1784l105 10l198 -202l271 202l94 -10l-5 -32l-324 -292l-132 10l-212 282z" />
    <glyph glyph-name="tcaron" unicode="&#x165;" horiz-adv-x="765" 
d="M99 1085h176l29 207l193 83l-41 -290h307l-11 -84h-308l-91 -653q-19 -137 8 -208.5t105 -71.5q42 0 96.5 21.5t96.5 48.5v-86q-55 -34 -120.5 -54t-132.5 -20q-155 0 -207.5 89t-27.5 267l92 667h-175zM662 1540h166l-5 -42l-111 -341h-103z" />
    <glyph glyph-name="Tbar" unicode="&#x166;" horiz-adv-x="1038" 
d="M189 694h238l79 560h-305l-75 -191h-88l56 290h1032l-27 -290h-79l-30 191h-294l-79 -560h225l-16 -117h-226l-66 -472l141 -20l-17 -85h-447l-8 85l141 20l66 472h-237z" />
    <glyph glyph-name="tbar" unicode="&#x167;" horiz-adv-x="765" 
d="M46 657h169l48 344h-175l11 84h176l29 207l193 83l-41 -290h307l-11 -84h-308l-48 -344h303l-16 -117h-303l-27 -192q-19 -137 8 -208.5t105 -71.5q42 0 96.5 21.5t96.5 48.5v-86q-55 -34 -120.5 -54t-132.5 -20q-155 0 -207.5 89t-27.5 267l28 206h-169z" />
    <glyph glyph-name="Utilde" unicode="&#x168;" horiz-adv-x="1384" 
d="M604 1268l-141 -20l-98 -702q-32 -231 44 -350t247 -119q78 0 151.5 21.5t123.5 54.5q38 63 71.5 163.5t47.5 204.5l102 727l-141 20l17 85h398l8 -85l-141 -20l-102 -730q-40 -281 -184.5 -410.5t-408.5 -129.5q-253 0 -360 125.5t-71 387.5l106 757l-141 20l17 85h447z
M433 1520q8 54 28.5 94.5t50.5 68.5t66.5 42t76.5 14q65 0 123.5 -20.5t109.5 -45.5t94 -45.5t77 -20.5q36 0 66.5 32t40.5 98l99 10l-7 -47q-8 -51 -27 -91.5t-47.5 -69t-64.5 -43.5t-78 -15q-57 0 -117 20.5t-115.5 45.5t-104 45.5t-83.5 20.5q-17 0 -33 -4.5t-29.5 -16.5
t-23.5 -33t-15 -54l-91 -10z" />
    <glyph glyph-name="utilde" unicode="&#x169;" horiz-adv-x="1263" 
d="M792 1085l231 22l81 -78l-129 -924l141 -20l-17 -85l-230 -22l-81 78l26 188q-91 -123 -204 -194.5t-226 -71.5q-133 0 -186 70t-32 218l97 714l-141 20l17 85l231 22l81 -78l-93 -675q-20 -147 1.5 -207.5t92.5 -60.5q89 0 189 75.5t190 206.5l85 612l-141 20zM288 1307
q16 108 82.5 163.5t169.5 55.5q54 0 106.5 -20.5t101.5 -45.5t92.5 -45.5t78.5 -20.5q41 0 71.5 32t41.5 98l89 10l-7 -47q-15 -102 -77 -160.5t-163 -58.5q-49 0 -104 20.5t-109 45.5t-103 45.5t-85 20.5q-18 0 -35.5 -4.5t-31.5 -16.5t-25 -33t-16 -54l-81 -10z" />
    <glyph glyph-name="Umacron" unicode="&#x16a;" horiz-adv-x="1384" 
d="M604 1268l-141 -20l-98 -702q-32 -231 44 -350t247 -119q78 0 151.5 21.5t123.5 54.5q38 63 71.5 163.5t47.5 204.5l102 727l-141 20l17 85h398l8 -85l-141 -20l-102 -730q-40 -281 -184.5 -410.5t-408.5 -129.5q-253 0 -360 125.5t-71 387.5l106 757l-141 20l17 85h447z
M479 1660h771l-20 -120h-770z" />
    <glyph glyph-name="umacron" unicode="&#x16b;" horiz-adv-x="1263" 
d="M792 1085l231 22l81 -78l-129 -924l141 -20l-17 -85l-230 -22l-81 78l26 188q-91 -123 -204 -194.5t-226 -71.5q-133 0 -186 70t-32 218l97 714l-141 20l17 85l231 22l81 -78l-93 -675q-20 -147 1.5 -207.5t92.5 -60.5q89 0 189 75.5t190 206.5l85 612l-141 20zM366 1463
h711l-18 -110h-710z" />
    <glyph glyph-name="Ubreve" unicode="&#x16c;" horiz-adv-x="1384" 
d="M604 1268l-141 -20l-98 -702q-32 -231 44 -350t247 -119q78 0 151.5 21.5t123.5 54.5q38 63 71.5 163.5t47.5 204.5l102 727l-141 20l17 85h398l8 -85l-141 -20l-102 -730q-40 -281 -184.5 -410.5t-408.5 -129.5q-253 0 -360 125.5t-71 387.5l106 757l-141 20l17 85h447z
M1221 1749q-7 -50 -36.5 -99.5t-78.5 -89t-115 -64t-145 -24.5t-137.5 24.5t-96 64t-53.5 89t-9 99.5l78 10q-2 -14 7 -40.5t35.5 -52.5t73.5 -45t121 -19q73 0 125.5 19t86 45t50.5 52.5t19 40.5z" />
    <glyph glyph-name="ubreve" unicode="&#x16d;" horiz-adv-x="1263" 
d="M792 1085l231 22l81 -78l-129 -924l141 -20l-17 -85l-230 -22l-81 78l26 188q-91 -123 -204 -194.5t-226 -71.5q-133 0 -186 70t-32 218l97 714l-141 20l17 85l231 22l81 -78l-93 -675q-20 -147 1.5 -207.5t92.5 -60.5q89 0 189 75.5t190 206.5l85 612l-141 20z
M1025 1592q-8 -54 -37 -107t-75 -95t-106 -68.5t-130 -26.5t-122.5 26.5t-86.5 68.5t-48.5 95t-6.5 107l68 10q-2 -16 7 -45.5t34 -59t67 -51t106 -21.5q61 0 109.5 21.5t82 51t52 59t20.5 45.5z" />
    <glyph glyph-name="Uring" unicode="&#x16e;" horiz-adv-x="1384" 
d="M604 1268l-141 -20l-98 -702q-32 -231 44 -350t247 -119q78 0 151.5 21.5t123.5 54.5q38 63 71.5 163.5t47.5 204.5l102 727l-141 20l17 85h398l8 -85l-141 -20l-102 -730q-40 -281 -184.5 -410.5t-408.5 -129.5q-253 0 -360 125.5t-71 387.5l106 757l-141 20l17 85h447z
M667 1570q7 52 28.5 92t52.5 67t69 41t79 14q36 0 67 -9t53 -27.5t32 -47t5 -66.5q-8 -55 -29 -95.5t-51.5 -66.5t-68.5 -39t-79 -13q-37 0 -68.5 9.5t-53 28t-31.5 46.5t-5 66zM772 1602q-7 -53 15.5 -83.5t58.5 -30.5q17 0 32 3t26 7q12 4 23 11q4 11 8 25q4 12 8 29t7 39
q7 54 -16 84.5t-59 30.5q-17 0 -31 -3.5t-25 -7.5q-13 -4 -24 -10q-4 -7 -8 -19q-4 -11 -8 -28.5t-7 -46.5z" />
    <glyph glyph-name="uring" unicode="&#x16f;" horiz-adv-x="1263" 
d="M792 1085l231 22l81 -78l-129 -924l141 -20l-17 -85l-230 -22l-81 78l26 188q-91 -123 -204 -194.5t-226 -71.5q-133 0 -186 70t-32 218l97 714l-141 20l17 85l231 22l81 -78l-93 -675q-20 -147 1.5 -207.5t92.5 -60.5q89 0 189 75.5t190 206.5l85 612l-141 20zM514 1436
q8 59 31 103t56 73t73 43.5t82 14.5q38 0 71 -10t55.5 -30.5t33 -52.5t4.5 -77q-9 -62 -31 -106.5t-54.5 -73t-72.5 -42t-83 -13.5q-39 0 -72.5 10t-56 31t-32.5 53.5t-4 76.5zM624 1468q-10 -66 13 -103t62 -37q16 0 30 2.5t25 6.5q12 4 23 10q7 13 13 31q5 15 11 38t11 52
q11 66 -10 103t-66 37q-13 0 -24.5 -3t-21.5 -7q-11 -4 -22 -9q-9 -11 -17 -29q-7 -15 -14.5 -37.5t-12.5 -54.5z" />
    <glyph glyph-name="Uhungarumlaut" unicode="&#x170;" horiz-adv-x="1384" 
d="M604 1268l-141 -20l-98 -702q-32 -231 44 -350t247 -119q78 0 151.5 21.5t123.5 54.5q38 63 71.5 163.5t47.5 204.5l102 727l-141 20l17 85h398l8 -85l-141 -20l-102 -730q-40 -281 -184.5 -410.5t-408.5 -129.5q-253 0 -360 125.5t-71 387.5l106 757l-141 20l17 85h447z
M559 1503l336 281l191 -10l-9 -66l-429 -248l-94 11zM977 1503l337 281l191 -10l-9 -66l-430 -248l-94 11z" />
    <glyph glyph-name="uhungarumlaut" unicode="&#x171;" horiz-adv-x="1263" 
d="M792 1085l231 22l81 -78l-129 -924l141 -20l-17 -85l-230 -22l-81 78l26 188q-91 -123 -204 -194.5t-226 -71.5q-133 0 -186 70t-32 218l97 714l-141 20l17 85l231 22l81 -78l-93 -675q-20 -147 1.5 -207.5t92.5 -60.5q89 0 189 75.5t190 206.5l85 612l-141 20zM402 1307
l254 363l181 -10l-10 -66l-356 -329l-74 10zM780 1307l254 363l181 -10l-10 -66l-356 -329l-74 10z" />
    <glyph glyph-name="Uogonek" unicode="&#x172;" horiz-adv-x="1384" 
d="M604 1268l-141 -20l-98 -702q-32 -231 44 -350t247 -119q78 0 151.5 21.5t123.5 54.5q38 63 71.5 163.5t47.5 204.5l102 727l-141 20l17 85h398l8 -85l-141 -20l-102 -730q-40 -281 -185 -411q-52 -46 -119 -76q-65 -29 -119.5 -71.5t-94.5 -89.5t-64 -95t-28 -88
q-4 -34 13 -49t48 -15q29 0 58 12.5t53 27.5q28 18 55 40l-8 -73q-28 -25 -63 -44q-30 -17 -70.5 -30t-88.5 -13q-37 0 -65.5 7t-46.5 23.5t-25 43.5t-1 68q8 54 36.5 108.5t79.5 107.5q39 39 93 78q-25 -1 -51 -1q-253 0 -360 125.5t-71 387.5l106 757l-141 20l17 85h447z
" />
    <glyph glyph-name="uogonek" unicode="&#x173;" horiz-adv-x="1263" 
d="M792 1085l231 22l81 -78l-129 -924l141 -20l-17 -85q-48 -32 -95 -69.5t-85.5 -78t-64 -82.5t-30.5 -83q-4 -34 13 -49t48 -15q29 0 58 12.5t53 27.5q28 18 55 40l-8 -73q-28 -25 -63 -44q-30 -17 -70.5 -30t-88.5 -13q-37 0 -65.5 7t-46.5 23.5t-25 43.5t-1 68
q9 55 42.5 106.5t88.5 101.5q53 47 124 92l-69 -7l-81 78l26 188q-91 -123 -204 -194.5t-226 -71.5q-133 0 -186 70t-32 218l97 714l-141 20l17 85l231 22l81 -78l-93 -675q-20 -147 1.5 -207.5t92.5 -60.5q89 0 189 75.5t190 206.5l85 612l-141 20z" />
    <glyph glyph-name="Wcircumflex" unicode="&#x174;" horiz-adv-x="2028" 
d="M57 1353h417l8 -85l-141 -20l200 -1016h16l500 1121h191l176 -1121h16l454 1016l-141 20l17 85h374l8 -85l-111 -20l-569 -1248h-191l-177 1107h-16l-493 -1107h-192l-253 1248l-110 20zM1510 1470l-106 -10l-196 198l-273 -198l-93 10l5 32l323 292l132 -10l213 -282z
" />
    <glyph glyph-name="wcircumflex" unicode="&#x175;" horiz-adv-x="1565" 
d="M48 1085l204 22l81 -78l115 -827l384 905l105 -22l133 -950q67 100 123 210t98.5 220t70 216.5t38.5 198.5l-141 20l17 85l190 22l81 -78q0 -83 -19.5 -174t-53 -185t-78.5 -187.5t-95.5 -182.5t-104 -171t-104.5 -151l-174 22l-109 776l-329 -798l-174 22l-138 980
l-137 20zM1158 1275l-97 -10l-149 262l-230 -262l-93 10l4 32l286 373l131 -10l152 -363z" />
    <glyph glyph-name="Ycircumflex" unicode="&#x176;" horiz-adv-x="1086" 
d="M21 1353h401l8 -85l-111 -16l262 -530h16l394 529l-116 17l17 85h356l8 -85l-111 -20l-504 -672l-66 -471l141 -20l-17 -85h-447l-8 85l141 20l66 473l-335 670l-112 20zM1010 1470l-106 -10l-196 198l-273 -198l-93 10l5 32l323 292l132 -10l213 -282z" />
    <glyph glyph-name="ycircumflex" unicode="&#x177;" horiz-adv-x="1204" 
d="M141 1085l231 22l81 -78l-93 -675q-19 -136 0 -202t94 -66q88 1 185.5 73t193.5 210l85 611l-141 20l17 85l231 22l81 -78l-126 -900q-41 -287 -183.5 -436.5t-359.5 -149.5q-89 0 -180 19.5t-163 50.5l33 140q108 -40 228 -68.5t206 -28.5q84 47 148 159.5t86 273.5
l21 156q-93 -127 -205.5 -197t-224.5 -70q-133 0 -186 69.5t-32 218.5l97 714l-141 20zM948 1275l-97 -10l-149 262l-230 -262l-93 10l4 32l286 373l131 -10l152 -363z" />
    <glyph glyph-name="Ydieresis" unicode="&#x178;" horiz-adv-x="1086" 
d="M21 1353h401l8 -85l-111 -16l262 -530h16l394 529l-116 17l17 85h356l8 -85l-111 -20l-504 -672l-66 -471l141 -20l-17 -85h-447l-8 85l141 20l66 473l-335 670l-112 20zM362 1571q0 26 5.5 49.5t14.5 41.5t21.5 28.5t27.5 10.5q26 0 49.5 -5.5t41.5 -15.5t28.5 -22.5
t10.5 -27.5q0 -27 -5.5 -50.5t-15 -41t-22 -27.5t-27.5 -10q-27 0 -51 5.5t-41 15t-27 22t-10 27.5zM798 1571q0 26 5.5 49.5t14.5 41.5t21.5 28.5t27.5 10.5q27 0 50.5 -5.5t41 -15.5t28 -22.5t10.5 -27.5q0 -27 -5.5 -50.5t-15 -41t-22 -27.5t-27.5 -10q-27 0 -50.5 5.5
t-41 15t-27.5 22t-10 27.5z" />
    <glyph glyph-name="Zacute" unicode="&#x179;" horiz-adv-x="1142" 
d="M1110 1353v-94l-868 -1146l3 -14h577l99 213l90 -12l-67 -300h-930v95l867 1145l-3 14h-536l-99 -213l-91 12l68 300h890zM557 1503l337 281l191 -10l-9 -66l-430 -248l-94 11z" />
    <glyph glyph-name="zacute" unicode="&#x17a;" horiz-adv-x="953" 
d="M732 1005h-419l-82 -174l-103 26l50 228h767l-10 -83l-709 -922h428l82 174l103 -26l-50 -228h-767l11 95zM575 1307l254 363l181 -10l-10 -66l-356 -329l-74 10z" />
    <glyph glyph-name="Zdotaccent" unicode="&#x17b;" horiz-adv-x="1142" 
d="M1110 1353v-94l-868 -1146l3 -14h577l99 213l90 -12l-67 -300h-930v95l867 1145l-3 14h-536l-99 -213l-91 12l68 300h890zM613 1599q4 27 14.5 51t26 42t33.5 28.5t37 10.5q27 0 50 -7.5t39 -20t24 -30t5 -36.5q-4 -26 -14.5 -50t-26 -42t-33.5 -28.5t-37 -10.5
q-27 0 -50 7.5t-39 20t-24 29.5t-5 36z" />
    <glyph glyph-name="zdotaccent" unicode="&#x17c;" horiz-adv-x="953" 
d="M732 1005h-419l-82 -174l-103 26l50 228h767l-10 -83l-709 -922h428l82 174l103 -26l-50 -228h-767l11 95zM540 1410q0 26 5.5 49.5t15 41.5t22 28.5t27.5 10.5q26 0 49.5 -5.5t41.5 -15t28.5 -22.5t10.5 -27q0 -27 -5.5 -51t-15 -41.5t-22.5 -27.5t-27 -10
q-27 0 -51 5.5t-41.5 15t-27.5 22t-10 27.5z" />
    <glyph glyph-name="Zcaron" unicode="&#x17d;" horiz-adv-x="1142" 
d="M1110 1353v-94l-868 -1146l3 -14h577l99 213l90 -12l-67 -300h-930v95l867 1145l-3 14h-536l-99 -213l-91 12l68 300h890zM404 1784l105 10l198 -202l271 202l94 -10l-5 -32l-324 -292l-132 10l-212 282z" />
    <glyph glyph-name="zcaron" unicode="&#x17e;" horiz-adv-x="953" 
d="M732 1005h-419l-82 -174l-103 26l50 228h767l-10 -83l-709 -922h428l82 174l103 -26l-50 -228h-767l11 95zM387 1660l97 10l141 -262l238 262l93 -10l-4 -32l-286 -373l-131 10l-152 363z" />
    <glyph glyph-name="longs" unicode="&#x17f;" horiz-adv-x="648" 
d="M99 1085h191q22 126 57.5 216.5t84 148t110 85t136.5 27.5q38 0 72 -7.5t59 -16.5q29 -11 53 -23l-40 -111q-33 14 -70 25q-32 10 -73 18t-85 8q-25 -31 -48 -79q-20 -42 -40.5 -108t-33.5 -161l-160 -1154q-17 -121 -50 -200.5t-79.5 -126t-105 -65t-126.5 -18.5
q-51 0 -93 7t-72 16q-35 11 -64 24l45 111q42 -15 88 -26q39 -10 86.5 -17.5t94.5 -7.5q18 25 36 65q15 34 30.5 86t26.5 125l148 1075h-189z" />
    <glyph glyph-name="uni018F" unicode="&#x18f;" horiz-adv-x="1335" 
d="M159 702h891l11 81q19 141 0 235.5t-66 152t-116.5 81.5t-151.5 24q-91 0 -167.5 -17t-132.5 -37q-65 -24 -118 -54l18 96q190 111 448 111q276 0 399 -137t84 -411l-11 -78q-56 -394 -219 -582.5t-440 -188.5q-265 0 -379 136.5t-75 410.5zM331 570q-19 -138 -4 -232
t56 -152t106 -83.5t147 -25.5q60 0 109.5 14.5t85.5 32.5q42 21 76 48q24 53 47 118q20 56 41.5 132t37.5 167h-700z" />
    <glyph glyph-name="florin" unicode="&#x192;" horiz-adv-x="744" 
d="M369 -47q-17 -119 -50 -198t-80 -126t-107 -66.5t-130 -19.5q-45 0 -81.5 5.5t-63.5 12.5q-32 8 -57 19l44 111q41 -12 84 -21q37 -8 81.5 -14t87.5 -6q17 26 34 64q14 32 28.5 81.5t24.5 118.5l89 640h-186l11 84h186l78 555q14 101 46 171.5t78 114.5t103.5 63.5
t123.5 19.5q36 0 67 -6t54 -13q27 -8 50 -18l-51 -111q-34 11 -70 20q-31 8 -70 14.5t-77 6.5q-14 -24 -27 -59q-11 -30 -23.5 -76.5t-21.5 -110.5l-80 -571h198l-11 -84h-199z" />
    <glyph glyph-name="Ohorn" unicode="&#x1a0;" horiz-adv-x="1394" 
d="M1501 1589q40 -60 51.5 -114t5.5 -99q-8 -59 -36 -107.5t-82.5 -92t-141.5 -83.5q-26 -12 -56 -24q21 -104 2 -242l-11 -78q-53 -378 -225.5 -574.5t-463.5 -196.5q-279 0 -400 137.5t-84 409.5l11 79q55 388 229 579.5t461 191.5q276 0 399 -137q30 -34 50 -75
q10 4 19 9q52 25 84.5 50.5t48.5 53.5t21 64q5 35 -1 65t-16 52q-11 26 -27 45l4 30zM1047 783q33 242 -51 367.5t-283 125.5q-73 0 -148 -23.5t-137 -64.5q-56 -108 -96 -235t-57 -250l-18 -133q-32 -234 63 -363.5t272 -129.5q76 0 151 24t134 65q53 101 93.5 228.5
t58.5 255.5z" />
    <glyph glyph-name="ohorn" unicode="&#x1a1;" horiz-adv-x="1140" 
d="M1231 1432q40 -60 51.5 -114t5.5 -99q-8 -59 -36 -107.5t-82.5 -92t-141.5 -83.5q-20 -9 -43 -19q38 -105 15 -270l-13 -95q-36 -254 -189.5 -414t-360.5 -160q-203 0 -291.5 113t-55.5 338l14 93q40 271 188 428t363 157q194 0 281 -103q12 6 23 11q52 25 84.5 50.5
t48.5 53.5t21 64q5 35 -1 65t-16 52q-11 26 -27 45l4 30zM818 632q26 189 -23 287t-172 98q-51 0 -100.5 -14t-88.5 -35q-50 -75 -89 -182t-56 -224l-17 -119q-24 -182 35.5 -278.5t161.5 -96.5q44 0 91.5 12.5t97.5 37.5q46 60 85.5 160t58.5 235z" />
    <glyph glyph-name="Uhorn" unicode="&#x1af;" horiz-adv-x="1524" 
d="M1594 1589q40 -60 51.5 -114t5.5 -99q-8 -59 -36 -107.5t-82.5 -92t-141.5 -83.5q-55 -25 -127 -50l-73 -525q-40 -281 -184.5 -410.5t-408.5 -129.5q-253 0 -360 125.5t-71 387.5l106 757l-141 20l17 85h447l8 -85l-141 -20l-98 -702q-32 -231 44 -350t247 -119
q78 0 151.5 21.5t123.5 54.5q38 63 71.5 163.5t47.5 204.5l102 727l-141 20l17 85h398l8 -85l-141 -20l-14 -96q23 10 43 20q52 25 84.5 50.5t48.5 53.5t21 64q5 35 -1 65t-16 52q-11 26 -27 45l4 30z" />
    <glyph glyph-name="uhorn" unicode="&#x1b0;" horiz-adv-x="1300" 
d="M1404 1432q40 -60 51.5 -114t5.5 -99q-8 -59 -36 -107.5t-82.5 -92t-141.5 -83.5q-51 -23 -117 -47l-109 -784l141 -20l-17 -85l-230 -22l-81 78l26 188q-91 -123 -204 -194.5t-226 -71.5q-133 0 -186 70t-32 218l97 714l-141 20l17 85l231 22l81 -78l-93 -675
q-20 -147 1.5 -207.5t92.5 -60.5q89 0 189 75.5t190 206.5l85 612l-141 20l17 85l231 22l81 -78l-4 -29q17 8 32 15q52 25 84.5 50.5t48.5 53.5t21 64q5 35 -1 65t-16 52q-11 26 -27 45l4 30z" />
    <glyph glyph-name="uni01CD" unicode="&#x1cd;" 
d="M1019 105l112 -20l-17 -85h-417l-8 85l141 20l-64 321h-476l-157 -321l142 -20l-17 -85h-374l-8 85l111 20l622 1248h149zM621 1104l-283 -579h408l-115 579h-10zM423 1784l105 10l198 -202l271 202l94 -10l-5 -32l-324 -292l-132 10l-212 282z" />
    <glyph glyph-name="uni01CE" unicode="&#x1ce;" horiz-adv-x="1158" 
d="M1013 0l-230 -22l-81 78l26 190q-78 -122 -179 -195t-206 -73q-165 0 -222 95t-29 300l26 188q37 252 177.5 399t342.5 147q81 0 179.5 -20.5t199.5 -57.5l-129 -924l142 -20zM284 461q-27 -192 -3 -283.5t123 -91.5q84 0 175 81t167 206l85 617q-46 16 -99 24.5
t-100 8.5q-55 0 -108.5 -14t-94.5 -36q-40 -66 -72.5 -159.5t-53.5 -221.5zM467 1660l97 10l141 -262l238 262l93 -10l-4 -32l-286 -373l-131 10l-152 363z" />
    <glyph glyph-name="uni01CF" unicode="&#x1cf;" horiz-adv-x="637" 
d="M306 1248l-141 20l17 85h447l8 -85l-141 -20l-161 -1143l141 -20l-17 -85h-447l-8 85l141 20zM145 1784l105 10l198 -202l271 202l94 -10l-5 -32l-324 -292l-132 10l-212 282z" />
    <glyph glyph-name="uni01D0" unicode="&#x1d0;" horiz-adv-x="637" 
d="M163 1085l231 22l81 -78l-129 -924l141 -20l-17 -85l-230 -22l-81 78l128 924l-141 20zM163 1660l97 10l141 -262l238 262l93 -10l-4 -32l-286 -373l-131 10l-152 363z" />
    <glyph glyph-name="uni01D1" unicode="&#x1d1;" horiz-adv-x="1346" 
d="M564 -22q-279 0 -400 137.5t-84 409.5l11 79q55 388 229 579.5t461 191.5q276 0 399 -137t84 -411l-11 -78q-53 -378 -225.5 -574.5t-463.5 -196.5zM1067 783q33 242 -51 367.5t-283 125.5q-73 0 -148 -23.5t-137 -64.5q-56 -108 -96 -235t-57 -250l-18 -133
q-32 -234 63 -363.5t272 -129.5q76 0 151 24t134 65q53 101 93.5 228.5t58.5 255.5zM544 1784l105 10l198 -202l271 202l94 -10l-5 -32l-324 -292l-132 10l-212 282z" />
    <glyph glyph-name="uni01D2" unicode="&#x1d2;" horiz-adv-x="1089" 
d="M437 -22q-203 0 -291.5 113t-55.5 338l14 93q40 271 188 428t363 157q206 0 291.5 -115t53.5 -345l-13 -95q-36 -254 -189.5 -414t-360.5 -160zM818 632q26 189 -23 287t-172 98q-51 0 -100.5 -14t-88.5 -35q-50 -75 -89 -182t-56 -224l-17 -119q-24 -182 35.5 -278.5
t161.5 -96.5q44 0 91.5 12.5t97.5 37.5q46 60 85.5 160t58.5 235zM485 1660l97 10l141 -262l238 262l93 -10l-4 -32l-286 -373l-131 10l-152 363z" />
    <glyph glyph-name="uni01D3" unicode="&#x1d3;" horiz-adv-x="1384" 
d="M604 1268l-141 -20l-98 -702q-32 -231 44 -350t247 -119q78 0 151.5 21.5t123.5 54.5q38 63 71.5 163.5t47.5 204.5l102 727l-141 20l17 85h398l8 -85l-141 -20l-102 -730q-40 -281 -184.5 -410.5t-408.5 -129.5q-253 0 -360 125.5t-71 387.5l106 757l-141 20l17 85h447z
M556 1784l105 10l198 -202l271 202l94 -10l-5 -32l-324 -292l-132 10l-212 282z" />
    <glyph glyph-name="uni01D4" unicode="&#x1d4;" horiz-adv-x="1263" 
d="M792 1085l231 22l81 -78l-129 -924l141 -20l-17 -85l-230 -22l-81 78l26 188q-91 -123 -204 -194.5t-226 -71.5q-133 0 -186 70t-32 218l97 714l-141 20l17 85l231 22l81 -78l-93 -675q-20 -147 1.5 -207.5t92.5 -60.5q89 0 189 75.5t190 206.5l85 612l-141 20zM465 1660
l97 10l141 -262l238 262l93 -10l-4 -32l-286 -373l-131 10l-152 363z" />
    <glyph glyph-name="uni01D5" unicode="&#x1d5;" horiz-adv-x="1384" 
d="M604 1268l-141 -20l-98 -702q-32 -231 44 -350t247 -119q78 0 151.5 21.5t123.5 54.5q38 63 71.5 163.5t47.5 204.5l102 727l-141 20l17 85h398l8 -85l-141 -20l-102 -730q-40 -281 -184.5 -410.5t-408.5 -129.5q-253 0 -360 125.5t-71 387.5l106 757l-141 20l17 85h447z
M520 1571q0 26 5.5 49.5t14.5 41.5t21.5 28.5t27.5 10.5q26 0 49.5 -5.5t41.5 -15.5t28.5 -22.5t10.5 -27.5q0 -27 -5.5 -50.5t-15 -41t-22 -27.5t-27.5 -10q-27 0 -51 5.5t-41 15t-27 22t-10 27.5zM956 1571q0 26 5.5 49.5t14.5 41.5t21.5 28.5t27.5 10.5q27 0 50.5 -5.5
t41 -15.5t28 -22.5t10.5 -27.5q0 -27 -5.5 -50.5t-15 -41t-22 -27.5t-27.5 -10q-27 0 -50.5 5.5t-41 15t-27.5 22t-10 27.5zM526 1912h771l-20 -120h-770z" />
    <glyph glyph-name="uni01D6" unicode="&#x1d6;" horiz-adv-x="1263" 
d="M792 1085l231 22l81 -78l-129 -924l141 -20l-17 -85l-230 -22l-81 78l26 188q-91 -123 -204 -194.5t-226 -71.5q-133 0 -186 70t-32 218l97 714l-141 20l17 85l231 22l81 -78l-93 -675q-20 -147 1.5 -207.5t92.5 -60.5q89 0 189 75.5t190 206.5l85 612l-141 20zM398 1371
q0 25 5 47.5t14 39.5t21 27t26 10q25 0 47.5 -5.5t39.5 -14.5t27 -21t10 -26q0 -52 -19.5 -87.5t-47.5 -35.5q-52 0 -87.5 19t-35.5 47zM824 1371q0 25 5 47.5t14 39.5t21 27t26 10q25 0 47.5 -5.5t39.5 -14.5t27 -21t10 -26q0 -52 -19.5 -87.5t-47.5 -35.5q-52 0 -87.5 19
t-35.5 47zM421 1750h711l-18 -110h-710z" />
    <glyph glyph-name="uni01D7" unicode="&#x1d7;" horiz-adv-x="1384" 
d="M604 1268l-141 -20l-98 -702q-32 -231 44 -350t247 -119q78 0 151.5 21.5t123.5 54.5q38 63 71.5 163.5t47.5 204.5l102 727l-141 20l17 85h398l8 -85l-141 -20l-102 -730q-40 -281 -184.5 -410.5t-408.5 -129.5q-253 0 -360 125.5t-71 387.5l106 757l-141 20l17 85h447z
M520 1571q0 26 5.5 49.5t14.5 41.5t21.5 28.5t27.5 10.5q26 0 49.5 -5.5t41.5 -15.5t28.5 -22.5t10.5 -27.5q0 -27 -5.5 -50.5t-15 -41t-22 -27.5t-27.5 -10q-27 0 -51 5.5t-41 15t-27 22t-10 27.5zM956 1571q0 26 5.5 49.5t14.5 41.5t21.5 28.5t27.5 10.5q27 0 50.5 -5.5
t41 -15.5t28 -22.5t10.5 -27.5q0 -27 -5.5 -50.5t-15 -41t-22 -27.5t-27.5 -10q-27 0 -50.5 5.5t-41 15t-27.5 22t-10 27.5zM744 1788l337 281l191 -10l-9 -66l-430 -248l-94 11z" />
    <glyph glyph-name="uni01D8" unicode="&#x1d8;" horiz-adv-x="1263" 
d="M792 1085l231 22l81 -78l-129 -924l141 -20l-17 -85l-230 -22l-81 78l26 188q-91 -123 -204 -194.5t-226 -71.5q-133 0 -186 70t-32 218l97 714l-141 20l17 85l231 22l81 -78l-93 -675q-20 -147 1.5 -207.5t92.5 -60.5q89 0 189 75.5t190 206.5l85 612l-141 20zM398 1371
q0 25 5 47.5t14 39.5t21 27t26 10q25 0 47.5 -5.5t39.5 -14.5t27 -21t10 -26q0 -52 -19.5 -87.5t-47.5 -35.5q-52 0 -87.5 19t-35.5 47zM824 1371q0 25 5 47.5t14 39.5t21 27t26 10q25 0 47.5 -5.5t39.5 -14.5t27 -21t10 -26q0 -52 -19.5 -87.5t-47.5 -35.5q-52 0 -87.5 19
t-35.5 47zM706 1644l254 363l181 -10l-10 -66l-356 -329l-74 10z" />
    <glyph glyph-name="uni01D9" unicode="&#x1d9;" horiz-adv-x="1384" 
d="M604 1268l-141 -20l-98 -702q-32 -231 44 -350t247 -119q78 0 151.5 21.5t123.5 54.5q38 63 71.5 163.5t47.5 204.5l102 727l-141 20l17 85h398l8 -85l-141 -20l-102 -730q-40 -281 -184.5 -410.5t-408.5 -129.5q-253 0 -360 125.5t-71 387.5l106 757l-141 20l17 85h447z
M585 2069l105 10l198 -202l271 202l94 -10l-5 -32l-324 -292l-132 10l-212 282zM956 1571q0 26 5.5 49.5t14.5 41.5t21.5 28.5t27.5 10.5q27 0 50.5 -5.5t41 -15.5t28 -22.5t10.5 -27.5q0 -27 -5.5 -50.5t-15 -41t-22 -27.5t-27.5 -10q-27 0 -50.5 5.5t-41 15t-27.5 22
t-10 27.5zM520 1571q0 26 5.5 49.5t14.5 41.5t21.5 28.5t27.5 10.5q26 0 49.5 -5.5t41.5 -15.5t28.5 -22.5t10.5 -27.5q0 -27 -5.5 -50.5t-15 -41t-22 -27.5t-27.5 -10q-27 0 -51 5.5t-41 15t-27 22t-10 27.5z" />
    <glyph glyph-name="uni01DA" unicode="&#x1da;" horiz-adv-x="1263" 
d="M792 1085l231 22l81 -78l-129 -924l141 -20l-17 -85l-230 -22l-81 78l26 188q-91 -123 -204 -194.5t-226 -71.5q-133 0 -186 70t-32 218l97 714l-141 20l17 85l231 22l81 -78l-93 -675q-20 -147 1.5 -207.5t92.5 -60.5q89 0 189 75.5t190 206.5l85 612l-141 20zM528 1997
l97 10l141 -262l238 262l93 -10l-4 -32l-286 -373l-131 10l-152 363zM824 1371q0 25 5 47.5t14 39.5t21 27t26 10q25 0 47.5 -5.5t39.5 -14.5t27 -21t10 -26q0 -52 -19.5 -87.5t-47.5 -35.5q-52 0 -87.5 19t-35.5 47zM398 1371q0 25 5 47.5t14 39.5t21 27t26 10
q25 0 47.5 -5.5t39.5 -14.5t27 -21t10 -26q0 -52 -19.5 -87.5t-47.5 -35.5q-52 0 -87.5 19t-35.5 47z" />
    <glyph glyph-name="uni01DB" unicode="&#x1db;" horiz-adv-x="1384" 
d="M604 1268l-141 -20l-98 -702q-32 -231 44 -350t247 -119q78 0 151.5 21.5t123.5 54.5q38 63 71.5 163.5t47.5 204.5l102 727l-141 20l17 85h398l8 -85l-141 -20l-102 -730q-40 -281 -184.5 -410.5t-408.5 -129.5q-253 0 -360 125.5t-71 387.5l106 757l-141 20l17 85h447z
M520 1571q0 26 5.5 49.5t14.5 41.5t21.5 28.5t27.5 10.5q26 0 49.5 -5.5t41.5 -15.5t28.5 -22.5t10.5 -27.5q0 -27 -5.5 -50.5t-15 -41t-22 -27.5t-27.5 -10q-27 0 -51 5.5t-41 15t-27 22t-10 27.5zM956 1571q0 26 5.5 49.5t14.5 41.5t21.5 28.5t27.5 10.5q27 0 50.5 -5.5
t41 -15.5t28 -22.5t10.5 -27.5q0 -27 -5.5 -50.5t-15 -41t-22 -27.5t-27.5 -10q-27 0 -50.5 5.5t-41 15t-27.5 22t-10 27.5zM992 1756l-96 -11l-340 248l9 66l193 10l239 -281z" />
    <glyph glyph-name="uni01DC" unicode="&#x1dc;" horiz-adv-x="1263" 
d="M792 1085l231 22l81 -78l-129 -924l141 -20l-17 -85l-230 -22l-81 78l26 188q-91 -123 -204 -194.5t-226 -71.5q-133 0 -186 70t-32 218l97 714l-141 20l17 85l231 22l81 -78l-93 -675q-20 -147 1.5 -207.5t92.5 -60.5q89 0 189 75.5t190 206.5l85 612l-141 20zM398 1371
q0 25 5 47.5t14 39.5t21 27t26 10q25 0 47.5 -5.5t39.5 -14.5t27 -21t10 -26q0 -52 -19.5 -87.5t-47.5 -35.5q-52 0 -87.5 19t-35.5 47zM824 1371q0 25 5 47.5t14 39.5t21 27t26 10q25 0 47.5 -5.5t39.5 -14.5t27 -21t10 -26q0 -52 -19.5 -87.5t-47.5 -35.5q-52 0 -87.5 19
t-35.5 47zM809 1612l-89 -10l-244 329l10 66l176 10l152 -363z" />
    <glyph glyph-name="Gcaron" unicode="&#x1e6;" horiz-adv-x="1275" 
d="M752 646h447l8 -85l-141 -20l-61 -436q-104 -59 -224.5 -93t-232.5 -34q-263 0 -388 135t-89 392l13 89q55 378 240 579.5t482 201.5q100 0 191.5 -14.5t163.5 -42.5l-17 -270h-88l-45 201q-53 13 -117.5 20t-128.5 7q-81 0 -163.5 -24t-149.5 -64q-59 -98 -101.5 -223
t-64.5 -282l-18 -133q-29 -227 78.5 -350t269.5 -123q48 0 100 9.5t100 25.5l60 429l-141 20zM535 1784l105 10l198 -202l271 202l94 -10l-5 -32l-324 -292l-132 10l-212 282z" />
    <glyph glyph-name="gcaron" unicode="&#x1e7;" horiz-adv-x="1114" 
d="M39 -247q119 -44 236.5 -70.5t197.5 -26.5q90 52 151.5 165t82.5 268l21 156q-83 -125 -181.5 -196t-199.5 -71q-174 0 -228 100t-26 295l26 188q35 246 174.5 396t345.5 150q85 0 187 -22t192 -56l-126 -900q-40 -288 -183.5 -437t-359.5 -149q-93 0 -186.5 21
t-156.5 49zM285 461q-30 -210 -1 -292.5t121 -82.5q80 0 170 76.5t171 209.5l86 618q-40 14 -94 23.5t-105 9.5q-56 0 -110 -14t-93 -36q-43 -69 -77 -173t-49 -208zM455 1660l97 10l141 -262l238 262l93 -10l-4 -32l-286 -373l-131 10l-152 363z" />
    <glyph glyph-name="jcaron" unicode="&#x1f0;" horiz-adv-x="579" 
d="M160 1085l231 22l81 -78l-152 -1076q-17 -119 -49.5 -198t-78.5 -126t-104.5 -66.5t-126.5 -19.5q-48 0 -90 7t-73 16q-36 11 -66 24l45 111q43 -15 90 -26q40 -10 88.5 -17.5t95.5 -7.5q18 26 34 64q14 32 28 81.5t24 118.5l147 1066l-141 20zM167 1660l97 10l141 -262
l238 262l93 -10l-4 -32l-286 -373l-131 10l-152 363z" />
    <glyph glyph-name="Gacute" unicode="&#x1f4;" horiz-adv-x="1275" 
d="M752 646h447l8 -85l-141 -20l-61 -436q-104 -59 -224.5 -93t-232.5 -34q-263 0 -388 135t-89 392l13 89q55 378 240 579.5t482 201.5q100 0 191.5 -14.5t163.5 -42.5l-17 -270h-88l-45 201q-53 13 -117.5 20t-128.5 7q-81 0 -163.5 -24t-149.5 -64q-59 -98 -101.5 -223
t-64.5 -282l-18 -133q-29 -227 78.5 -350t269.5 -123q48 0 100 9.5t100 25.5l60 429l-141 20zM688 1503l337 281l191 -10l-9 -66l-430 -248l-94 11z" />
    <glyph glyph-name="gacute" unicode="&#x1f5;" horiz-adv-x="1114" 
d="M39 -247q119 -44 236.5 -70.5t197.5 -26.5q90 52 151.5 165t82.5 268l21 156q-83 -125 -181.5 -196t-199.5 -71q-174 0 -228 100t-26 295l26 188q35 246 174.5 396t345.5 150q85 0 187 -22t192 -56l-126 -900q-40 -288 -183.5 -437t-359.5 -149q-93 0 -186.5 21
t-156.5 49zM285 461q-30 -210 -1 -292.5t121 -82.5q80 0 170 76.5t171 209.5l86 618q-40 14 -94 23.5t-105 9.5q-56 0 -110 -14t-93 -36q-43 -69 -77 -173t-49 -208zM643 1307l254 363l181 -10l-10 -66l-356 -329l-74 10z" />
    <glyph glyph-name="Aringacute" unicode="&#x1fa;" 
d="M1019 105l112 -20l-17 -85h-417l-8 85l141 20l-64 321h-476l-157 -321l142 -20l-17 -85h-374l-8 85l111 20l622 1248h149zM621 1104l-283 -579h408l-115 579h-10zM527 1570q7 52 28.5 92t52.5 67t69 41t79 14q36 0 67 -9t53 -27.5t32 -47t5 -66.5q-8 -55 -29 -95.5
t-51.5 -66.5t-68.5 -39t-79 -13q-37 0 -68.5 9.5t-53 28t-31.5 46.5t-5 66zM632 1602q-7 -53 15.5 -83.5t58.5 -30.5q17 0 32 3t26 7q12 4 23 11q4 11 8 25q4 12 8 29t7 39q7 54 -16 84.5t-59 30.5q-17 0 -31 -3.5t-25 -7.5q-13 -4 -24 -10q-4 -7 -8 -19q-4 -11 -8 -28.5
t-7 -46.5zM695 1882l337 281l191 -10l-9 -66l-430 -248l-94 11z" />
    <glyph glyph-name="aringacute" unicode="&#x1fb;" horiz-adv-x="1158" 
d="M1013 0l-230 -22l-81 78l26 190q-78 -122 -179 -195t-206 -73q-165 0 -222 95t-29 300l26 188q37 252 177.5 399t342.5 147q81 0 179.5 -20.5t199.5 -57.5l-129 -924l142 -20zM284 461q-27 -192 -3 -283.5t123 -91.5q84 0 175 81t167 206l85 617q-46 16 -99 24.5
t-100 8.5q-55 0 -108.5 -14t-94.5 -36q-40 -66 -72.5 -159.5t-53.5 -221.5zM503 1436q8 59 31 103t56 73t73 43.5t82 14.5q38 0 71 -10t55.5 -30.5t33 -52.5t4.5 -77q-9 -62 -31 -106.5t-54.5 -73t-72.5 -42t-83 -13.5q-39 0 -72.5 10t-56 31t-32.5 53.5t-4 76.5zM613 1468
q-10 -66 13 -103t62 -37q16 0 30 2.5t25 6.5q12 4 23 10q7 13 13 31q5 15 11 38t11 52q11 66 -10 103t-66 37q-13 0 -24.5 -3t-21.5 -7q-11 -4 -22 -9q-9 -11 -17 -29q-7 -15 -14.5 -37.5t-12.5 -54.5zM717 1803l254 363l181 -10l-10 -66l-356 -329l-74 10z" />
    <glyph glyph-name="AEacute" unicode="&#x1fc;" horiz-adv-x="1596" 
d="M1240 757l40 137l83 -20l-52 -355l-87 -5v144h-334l-79 -559h461l105 203l80 -13l-66 -289h-902l-8 85l141 20l45 321h-375l-196 -323l131 -18l-17 -85h-374l-8 85l113 20l770 1248h841l-19 -300h-86l-40 201h-433l-70 -497h336zM681 525l100 707l-429 -707h329z
M919 1503l337 281l191 -10l-9 -66l-430 -248l-94 11z" />
    <glyph glyph-name="aeacute" unicode="&#x1fd;" horiz-adv-x="1622" 
d="M1515 817q-9 -72 -44.5 -132t-91 -102.5t-130 -66.5t-161.5 -24q-61 0 -112 3t-83 7l-8 -59q-15 -104 -1.5 -175.5t44 -115.5t72 -64t82.5 -20q50 0 96 14t81 31q41 19 78 45v-86q-35 -27 -82 -47q-40 -18 -96.5 -32.5t-128.5 -14.5q-128 0 -205 47.5t-109 138.5
q-25 -24 -64.5 -56t-93 -61t-120 -49t-145.5 -20q-60 0 -110 17t-83.5 49t-49 78.5t-6.5 105.5q12 85 57.5 152t128 114t205 72.5t290.5 25.5l16 110q11 79 7.5 138t-27 98.5t-68.5 59t-118 19.5q-32 0 -60.5 -2.5t-51.5 -5.5q-26 -4 -49 -7l-90 -232h-87l40 283
q41 15 91 27q43 10 102 18.5t128 8.5q131 0 218.5 -33.5t126.5 -109.5q67 72 149.5 107.5t175.5 35.5q158 0 232 -71.5t55 -218.5zM374 68q58 0 113.5 20t100.5 45.5t75.5 49t39.5 31.5q-18 92 0 215l10 73q-116 -1 -197.5 -12t-132.5 -25q-61 -16 -98 -37q-13 -21 -24 -47
q-10 -23 -19 -54.5t-14 -71.5q-6 -48 5 -83t32.5 -58.5t50 -34.5t58.5 -11zM1047 968q-30 -43 -56 -101q-23 -50 -47 -121t-39 -163q18 -1 43 -2.5t54 -2.5t59.5 -1.5t60.5 -0.5q35 0 64.5 6t49.5 14q24 9 42 20q11 22 21 49q8 23 17 55t14 71q8 66 0.5 110t-26.5 69.5
t-47 36t-61 10.5q-31 0 -58 -8t-47 -17q-24 -11 -44 -24zM870 1307l254 363l181 -10l-10 -66l-356 -329l-74 10z" />
    <glyph glyph-name="Oslashacute" unicode="&#x1fe;" horiz-adv-x="1346" 
d="M564 -22q-33 0 -63.5 2t-59.5 6l-78 -174h-134l2 20l83 184q-291 107 -234 509l11 79q26 188 82 332t141.5 241.5t202 147.5t264.5 50q38 0 74 -3t68 -8l80 176h135l-2 -20l-87 -191q134 -57 188.5 -181.5t26.5 -320.5l-11 -78q-53 -377 -225 -574t-464 -197zM277 570
q-20 -149 9.5 -250t92.5 -160l495 1095q-32 11 -67.5 16t-73.5 5q-62 0 -114 -13.5t-90 -30.5q-45 -19 -81 -44q-33 -61 -62 -137q-26 -65 -51.5 -153.5t-39.5 -194.5zM1067 783q20 153 -3.5 250.5t-78.5 153.5l-494 -1092q57 -18 121 -18q62 0 114 13.5t90 30.5
q45 19 81 45q33 63 62 140q25 66 50.5 153.5t39.5 190.5zM719 1503l337 281l191 -10l-9 -66l-430 -248l-94 11z" />
    <glyph glyph-name="oslashacute" unicode="&#x1ff;" horiz-adv-x="1089" 
d="M437 -22q-46 0 -85 6l-77 -172h-134l2 20l85 189q-95 51 -128 155t-10 253l14 93q22 145 72.5 254.5t123.5 183t163.5 110.5t191.5 37q33 0 63 -3l73 161h135l-2 -20l-79 -173q47 -22 81.5 -58t55 -88t25.5 -121.5t-7 -157.5l-13 -95q-17 -121 -64 -225.5t-119 -182
t-165 -122t-202 -44.5zM818 632q15 115 5 188.5t-38 117.5l-388 -856q34 -14 72 -14q36 0 70 7.5t60 17.5q31 11 59 25q30 40 58 98q23 50 47.5 123.5t38.5 173.5zM272 443q-13 -91 -4.5 -155.5t31.5 -109.5l377 833q-26 6 -53 6q-40 0 -74 -8t-60 -17q-30 -11 -55 -24
q-31 -46 -59 -107q-24 -52 -48 -127t-38 -172zM596 1307l254 363l181 -10l-10 -66l-356 -329l-74 10z" />
    <glyph glyph-name="Scommaaccent" unicode="&#x218;" horiz-adv-x="1047" 
d="M623 762q173 -112 246.5 -203.5t55.5 -213.5q-23 -165 -165.5 -266t-358.5 -101q-109 0 -206 16.5t-163 46.5l16 259h100l45 -199q45 -12 98 -18t113 -6q68 0 134.5 10.5t118.5 27.5q20 28 40.5 75t27.5 91q13 83 -37 157t-227 190q-207 132 -266 213.5t-44 192.5
q22 155 162 248t358 93q93 0 179.5 -14t144.5 -38l-17 -270h-88l-45 201q-36 9 -90 15.5t-108 6.5q-65 0 -129 -10.5t-114 -27.5q-23 -40 -36.5 -77.5t-19.5 -74.5q-11 -76 42.5 -141.5t232.5 -182.5zM317 -151h166l-5 -42l-111 -341h-103z" />
    <glyph glyph-name="scommaaccent" unicode="&#x219;" horiz-adv-x="923" 
d="M540 632q177 -108 229 -184.5t38 -176.5q-20 -139 -140.5 -216t-298.5 -77q-83 0 -159 19.5t-127 50.5l24 240h82l31 -197q33 -11 79 -17t96 -6q48 0 95 8.5t78 19.5q18 21 32.5 52t20.5 72q10 70 -29 126.5t-203 159.5q-155 96 -201 164.5t-33 157.5q19 122 129 200.5
t286 78.5q80 0 154 -18t124 -50l-25 -241h-81l-33 199q-28 9 -70 14.5t-85 5.5q-44 0 -88 -8.5t-71 -19.5q-21 -22 -34.5 -49t-18.5 -58q-12 -76 28.5 -123.5t170.5 -126.5zM289 -151h166l-5 -42l-111 -341h-103z" />
    <glyph glyph-name="uni021A" unicode="&#x21a;" horiz-adv-x="1038" 
d="M506 1254h-305l-75 -191h-88l56 290h1032l-27 -290h-79l-30 191h-294l-162 -1149l141 -20l-17 -85h-447l-8 85l141 20zM298 -151h166l-5 -42l-111 -341h-103z" />
    <glyph glyph-name="uni021B" unicode="&#x21b;" horiz-adv-x="765" 
d="M99 1085h176l29 207l193 83l-41 -290h307l-11 -84h-308l-91 -653q-19 -137 8 -208.5t105 -71.5q42 0 96.5 21.5t96.5 48.5v-86q-55 -34 -120.5 -54t-132.5 -20q-155 0 -207.5 89t-27.5 267l92 667h-175zM255 -151h166l-5 -42l-111 -341h-103z" />
    <glyph glyph-name="uni0237" unicode="&#x237;" horiz-adv-x="579" 
d="M160 1085l231 22l81 -78l-152 -1076q-17 -119 -49.5 -198t-78.5 -126t-104.5 -66.5t-126.5 -19.5q-48 0 -90 7t-73 16q-36 11 -66 24l45 111q43 -15 90 -26q40 -10 88.5 -17.5t95.5 -7.5q18 26 34 64q14 32 28 81.5t24 118.5l147 1066l-141 20z" />
    <glyph glyph-name="uni0251" unicode="&#x251;" horiz-adv-x="1158" 
d="M1013 0l-230 -22l-81 78l26 190q-78 -122 -179 -195t-206 -73q-165 0 -222 95t-29 300l26 188q37 252 177.5 399t342.5 147q81 0 179.5 -20.5t199.5 -57.5l-129 -924l142 -20zM284 461q-27 -192 -3 -283.5t123 -91.5q84 0 175 81t167 206l85 617q-46 16 -99 24.5
t-100 8.5q-55 0 -108.5 -14t-94.5 -36q-40 -66 -72.5 -159.5t-53.5 -221.5z" />
    <glyph glyph-name="uni0259" unicode="&#x259;" horiz-adv-x="967" 
d="M63 268q9 72 44.5 132t91 102.5t130 66.5t161.5 24q61 0 111.5 -3.5t82.5 -6.5l9 59q15 108 4.5 180.5t-39 115.5t-71.5 61t-91 18q-50 0 -96 -14t-81 -31q-41 -20 -78 -45v86q35 26 82 47q40 17 96.5 32t128.5 15q101 0 170.5 -30.5t109 -88.5t51 -142t-3.5 -190
l-13 -93q-20 -145 -66 -254.5t-112.5 -183t-151.5 -110.5t-182 -37q-158 0 -232 71.5t-55 218.5zM531 117q30 43 56 101q23 50 46.5 120.5t38.5 162.5q-18 1 -43 2.5t-53.5 2.5t-59.5 2t-60 1q-36 0 -65 -6t-49 -14q-24 -9 -42 -20q-11 -22 -21 -49q-8 -23 -17 -55.5
t-14 -70.5q-8 -66 -0.5 -110t26.5 -69.5t47 -36t61 -10.5q31 0 58 7.5t47 16.5q24 11 44 25z" />
    <glyph glyph-name="uni0261" unicode="&#x261;" horiz-adv-x="1116" 
d="M39 -247q119 -44 236.5 -70.5t197.5 -26.5q90 52 151.5 165t82.5 268l21 156q-83 -125 -181.5 -196t-199.5 -71q-174 0 -228 100t-26 295l26 188q35 246 174.5 396t345.5 150q85 0 187 -22t192 -56l-126 -900q-40 -288 -183.5 -437t-359.5 -149q-93 0 -186.5 21
t-156.5 49zM285 461q-30 -210 -1 -292.5t121 -82.5q80 0 170 76.5t171 209.5l86 618q-40 14 -94 23.5t-105 9.5q-56 0 -110 -14t-93 -36q-43 -69 -77 -173t-49 -208z" />
    <glyph glyph-name="uni02BB" unicode="&#x2bb;" horiz-adv-x="706" 
d="M472 1153q-5 -32 -16 -60.5t-27 -50.5t-34.5 -34.5t-37.5 -12.5q-36 0 -73.5 11t-58.5 37q-6 9 -12 21t-9 29t-3.5 41t4.5 56q6 46 19 89t40.5 88t73 92.5t116.5 102.5l52 -73q-88 -66 -125.5 -116.5t-42.5 -88.5q-2 -18 11 -28t34 -16q44 -11 68.5 -34.5t20.5 -52.5z
" />
    <glyph glyph-name="uni02BC" unicode="&#x2bc;" horiz-adv-x="710" 
d="M234 1404q4 32 15.5 60.5t27.5 50.5t34.5 34.5t37.5 12.5q36 0 73.5 -11t58.5 -37q13 -17 21 -50t-1 -97q-6 -46 -19 -89t-40.5 -88t-73 -92.5t-116.5 -102.5l-52 73q88 66 125.5 116.5t42.5 88.5q2 18 -11 28t-34 16q-44 11 -68.5 34.5t-20.5 52.5z" />
    <glyph glyph-name="uni02BE" unicode="&#x2be;" horiz-adv-x="548" 
d="M255 1328q16 0 30 2.5t25 6.5q12 4 23 10q7 13 13 31q5 15 11 38t11 52q11 66 -7 103t-69 37l20 62q38 0 71 -10t55.5 -31.5t33 -56t3.5 -82.5q-8 -58 -29 -100.5t-52.5 -70t-72 -41t-86.5 -13.5l20 63v0z" />
    <glyph glyph-name="uni02BF" unicode="&#x2bf;" horiz-adv-x="548" 
d="M236 1265q-39 0 -72.5 10.5t-56 32t-32.5 56t-3 82.5q8 55 30.5 97t55.5 70t73 42.5t82 14.5l-20 -62q-13 0 -24.5 -3t-21.5 -7q-11 -4 -22 -9q-9 -11 -17 -29q-7 -15 -14.5 -37.5t-12.5 -54.5q-10 -66 9.5 -103t65.5 -37z" />
    <glyph glyph-name="circumflex" unicode="&#x2c6;" horiz-adv-x="973" 
d="M769 1275l-97 -10l-149 262l-230 -262l-93 10l4 32l286 373l131 -10l152 -363z" />
    <glyph glyph-name="caron" unicode="&#x2c7;" horiz-adv-x="973" 
d="M204 1660l97 10l141 -262l238 262l93 -10l-4 -32l-286 -373l-131 10l-152 363z" />
    <glyph glyph-name="uni02C8" unicode="&#x2c8;" horiz-adv-x="675" 
d="M307 1670h118l-57 -404h-118z" />
    <glyph glyph-name="uni02C9" unicode="&#x2c9;" horiz-adv-x="1028" 
d="M168 1463h710l-19 -110h-709z" />
    <glyph glyph-name="uni02CA" unicode="&#x2ca;" horiz-adv-x="840" 
d="M205 1307l254 363l181 -10l-10 -66l-356 -329l-74 10z" />
    <glyph glyph-name="uni02CB" unicode="&#x2cb;" horiz-adv-x="738" 
d="M533 1275l-89 -10l-244 329l10 66l176 10l152 -363z" />
    <glyph glyph-name="uni02CC" unicode="&#x2cc;" horiz-adv-x="675" 
d="M307 -189h118l-57 -404h-118z" />
    <glyph glyph-name="breve" unicode="&#x2d8;" horiz-adv-x="920" 
d="M770 1592q-8 -54 -37 -107t-75 -95t-106 -68.5t-130 -26.5t-122.5 26.5t-86.5 68.5t-48.5 95t-6.5 107l68 10q-2 -16 7 -45.5t34 -59t67 -51t106 -21.5q61 0 109.5 21.5t82 51t52 59t20.5 45.5z" />
    <glyph glyph-name="dotaccent" unicode="&#x2d9;" horiz-adv-x="700" 
d="M250 1410q0 26 5.5 49.5t15 41.5t22 28.5t27.5 10.5q26 0 49.5 -5.5t41.5 -15t28.5 -22.5t10.5 -27q0 -27 -5.5 -51t-15 -41.5t-22.5 -27.5t-27 -10q-27 0 -51 5.5t-41.5 15t-27.5 22t-10 27.5z" />
    <glyph glyph-name="ring" unicode="&#x2da;" horiz-adv-x="818" 
d="M206 1436q8 59 31 103t56 73t73 43.5t82 14.5q38 0 71 -10t55.5 -30.5t33 -52.5t4.5 -77q-9 -62 -31 -106.5t-54.5 -73t-72.5 -42t-83 -13.5q-39 0 -72.5 10t-56 31t-32.5 53.5t-4 76.5zM316 1468q-10 -66 13 -103t62 -37q16 0 30 2.5t25 6.5q12 4 23 10q7 13 13 31
q5 15 11 38t11 52q11 66 -10 103t-66 37q-13 0 -24.5 -3t-21.5 -7q-11 -4 -22 -9q-9 -11 -17 -29q-7 -15 -14.5 -37.5t-12.5 -54.5z" />
    <glyph glyph-name="ogonek" unicode="&#x2db;" horiz-adv-x="830" 
d="M630 0q-45 -28 -92.5 -63.5t-88 -76t-69 -84.5t-33.5 -89q-4 -34 13 -49t48 -15q29 0 58 12.5t53 27.5q28 18 55 40l-8 -73q-28 -25 -63 -44q-30 -17 -70.5 -30t-88.5 -13q-37 0 -65.5 7t-46.5 23.5t-25 43.5t-1 68q10 62 47.5 123.5t94.5 118.5t129.5 108t152.5 92v-127
z" />
    <glyph glyph-name="tilde" unicode="&#x2dc;" horiz-adv-x="1137" 
d="M154 1307q16 108 82.5 163.5t169.5 55.5q54 0 106.5 -20.5t101.5 -45.5t92.5 -45.5t78.5 -20.5q41 0 71.5 32t41.5 98l89 10l-7 -47q-15 -102 -77 -160.5t-163 -58.5q-49 0 -104 20.5t-109 45.5t-103 45.5t-85 20.5q-18 0 -35.5 -4.5t-31.5 -16.5t-25 -33t-16 -54
l-81 -10z" />
    <glyph glyph-name="hungarumlaut" unicode="&#x2dd;" horiz-adv-x="1118" 
d="M155 1307l254 363l181 -10l-10 -66l-356 -329l-74 10zM533 1307l254 363l181 -10l-10 -66l-356 -329l-74 10z" />
    <glyph glyph-name="uni02F3" unicode="&#x2f3;" horiz-adv-x="818" 
d="M206 -405q8 59 31 103t56 73t73 43.5t82 14.5q38 0 71 -10t55.5 -30.5t33 -52.5t4.5 -77q-9 -62 -31 -106.5t-54.5 -73t-72.5 -42t-83 -13.5q-39 0 -72.5 10t-56 31t-32.5 53.5t-4 76.5zM316 -373q-10 -66 13 -103t62 -37q16 0 30 2.5t25 6.5q12 4 23 10q7 13 13 31
q5 15 11 38t11 52q11 66 -10 103t-66 37q-13 0 -24.5 -3t-21.5 -7q-11 -4 -22 -9q-9 -11 -17 -29q-7 -15 -14.5 -37.5t-12.5 -54.5z" />
    <glyph glyph-name="gravecomb" unicode="&#x300;" horiz-adv-x="0" 
d="M-209 1275l-89 -10l-244 329l10 66l176 10l152 -363z" />
    <glyph glyph-name="acutecomb" unicode="&#x301;" horiz-adv-x="0" 
d="M-650 1307l254 363l181 -10l-10 -66l-356 -329l-74 10z" />
    <glyph glyph-name="uni0302" unicode="&#x302;" horiz-adv-x="0" 
d="M-205 1275l-97 -10l-149 262l-230 -262l-93 10l4 32l286 373l131 -10l152 -363z" />
    <glyph glyph-name="tildecomb" unicode="&#x303;" horiz-adv-x="0" 
d="M-981 1307q16 108 82.5 163.5t169.5 55.5q54 0 106.5 -20.5t101.5 -45.5t92.5 -45.5t78.5 -20.5q41 0 71.5 32t41.5 98l89 10l-7 -47q-15 -102 -77 -160.5t-163 -58.5q-49 0 -104 20.5t-109 45.5t-103 45.5t-85 20.5q-18 0 -35.5 -4.5t-31.5 -16.5t-25 -33t-16 -54
l-81 -10z" />
    <glyph glyph-name="uni0304" unicode="&#x304;" horiz-adv-x="0" 
d="M-856 1463h710l-19 -110h-709z" />
    <glyph glyph-name="uni0306" unicode="&#x306;" horiz-adv-x="0" 
d="M-144 1592q-8 -54 -37 -107t-75 -95t-106 -68.5t-130 -26.5t-122.5 26.5t-86.5 68.5t-48.5 95t-6.5 107l68 10q-2 -16 7 -45.5t34 -59t67 -51t106 -21.5q61 0 109.5 21.5t82 51t52 59t20.5 45.5z" />
    <glyph glyph-name="uni0307" unicode="&#x307;" horiz-adv-x="0" 
d="M-450 1410q0 26 5.5 49.5t15 41.5t22 28.5t27.5 10.5q26 0 49.5 -5.5t41.5 -15t28.5 -22.5t10.5 -27q0 -27 -5.5 -51t-15 -41.5t-22.5 -27.5t-27 -10q-27 0 -51 5.5t-41.5 15t-27.5 22t-10 27.5z" />
    <glyph glyph-name="uni0308" unicode="&#x308;" horiz-adv-x="0" 
d="M-759 1371q0 25 5 47.5t14 39.5t21 27t26 10q25 0 47.5 -5.5t39.5 -14.5t27 -21t10 -26q0 -52 -19.5 -87.5t-47.5 -35.5q-52 0 -87.5 19t-35.5 47zM-333 1371q0 25 5 47.5t14 39.5t21 27t26 10q25 0 47.5 -5.5t39.5 -14.5t27 -21t10 -26q0 -52 -19.5 -87.5t-47.5 -35.5
q-52 0 -87.5 19t-35.5 47z" />
    <glyph glyph-name="hookabovecomb" unicode="&#x309;" horiz-adv-x="0" 
d="M-350 1378q-21 -13 -34.5 -22t-21.5 -16t-11 -13t-4 -12q-2 -8 -1.5 -16t1.5 -14q1 -8 3 -14l-81 -27q-9 15 -15 31q-5 14 -9.5 29t-2.5 29q4 25 21.5 48t62.5 53q28 18 47 32t31 26t17.5 23.5t7.5 26.5q3 22 -11 38t-49 16q-19 0 -35.5 -3t-29.5 -6q-15 -4 -28 -9
l-35 -91l-73 5l18 123q25 15 58 27q28 11 66 19.5t85 8.5q82 0 125 -34t34 -96q-8 -55 -43.5 -91t-92.5 -71z" />
    <glyph glyph-name="uni030A" unicode="&#x30a;" horiz-adv-x="0" 
d="M-618 1436q8 59 31 103t56 73t73 43.5t82 14.5q38 0 71 -10t55.5 -30.5t33 -52.5t4.5 -77q-9 -62 -31 -106.5t-54.5 -73t-72.5 -42t-83 -13.5q-39 0 -72.5 10t-56 31t-32.5 53.5t-4 76.5zM-508 1468q-10 -66 13 -103t62 -37q16 0 30 2.5t25 6.5q12 4 23 10q7 13 13 31
q5 15 11 38t11 52q11 66 -10 103t-66 37q-13 0 -24.5 -3t-21.5 -7q-11 -4 -22 -9q-9 -11 -17 -29q-7 -15 -14.5 -37.5t-12.5 -54.5z" />
    <glyph glyph-name="uni030B" unicode="&#x30b;" horiz-adv-x="0" 
d="M-965 1307l254 363l181 -10l-10 -66l-356 -329l-74 10zM-587 1307l254 363l181 -10l-10 -66l-356 -329l-74 10z" />
    <glyph glyph-name="uni030C" unicode="&#x30c;" horiz-adv-x="0" 
d="M-769 1660l97 10l141 -262l238 262l93 -10l-4 -32l-286 -373l-131 10l-152 363z" />
    <glyph glyph-name="uni030F" unicode="&#x30f;" horiz-adv-x="1028" 
d="M873 1275l-89 -10l-244 329l10 66l176 10l152 -363zM483 1275l-89 -10l-244 329l10 66l176 10l152 -363z" />
    <glyph glyph-name="uni031B" unicode="&#x31b;" horiz-adv-x="0" 
d="M-257 1432q40 -60 51.5 -114t5.5 -99q-8 -59 -36 -107.5t-82.5 -92t-141 -83t-211.5 -78.5l14 102q76 30 128 55t84.5 50.5t48.5 53.5t21 64q5 35 -1 65t-16 52q-11 26 -27 45l4 30z" />
    <glyph glyph-name="dotbelowcomb" unicode="&#x323;" horiz-adv-x="0" 
d="M-450 -318q0 26 5.5 49.5t15 41.5t22 28.5t27.5 10.5q26 0 49.5 -5.5t41.5 -15t28.5 -22.5t10.5 -27q0 -27 -5.5 -51t-15 -41.5t-22.5 -27.5t-27 -10q-27 0 -51 5.5t-41.5 15t-27.5 22t-10 27.5z" />
    <glyph glyph-name="uni0324" unicode="&#x324;" horiz-adv-x="0" 
d="M-759 -312q0 25 5 47.5t14 39.5t21 27t26 10q25 0 47.5 -5.5t39.5 -14.5t27 -21t10 -26q0 -52 -19.5 -87.5t-47.5 -35.5q-52 0 -87.5 19t-35.5 47zM-333 -312q0 25 5 47.5t14 39.5t21 27t26 10q25 0 47.5 -5.5t39.5 -14.5t27 -21t10 -26q0 -52 -19.5 -87.5t-47.5 -35.5
q-52 0 -87.5 19t-35.5 47z" />
    <glyph glyph-name="uni0326" unicode="&#x326;" horiz-adv-x="0" 
d="M-411 -151h166l-5 -42l-111 -341h-103z" />
    <glyph glyph-name="uni0327" unicode="&#x327;" horiz-adv-x="0" 
d="M-301 37l-68 -135q40 -11 73.5 -25t56 -35t32.5 -51t4 -72q-5 -38 -24.5 -70t-52 -55.5t-76.5 -37t-99 -13.5q-40 0 -73 7t-58 16q-29 11 -53 24l23 63q25 -11 52 -20q23 -8 52.5 -14t60.5 -6q20 0 36 2t27 4q12 3 22 7q5 12 9 26q4 12 7.5 27t5.5 32q5 54 -25.5 85
t-99.5 51l-36 52l72 138h132z" />
    <glyph glyph-name="uni0328" unicode="&#x328;" horiz-adv-x="0" 
d="M-197 0q-45 -28 -92.5 -63.5t-88 -76t-69 -84.5t-33.5 -89q-4 -34 13 -49t48 -15q29 0 58 12.5t53 27.5q28 18 55 40l-8 -73q-28 -25 -63 -44q-30 -17 -70.5 -30t-88.5 -13q-37 0 -65.5 7t-46.5 23.5t-25 43.5t-1 68q10 62 47.5 123.5t94.5 118.5t129.5 108t152.5 92
v-127z" />
    <glyph glyph-name="uni032E" unicode="&#x32e;" horiz-adv-x="0" 
d="M-144 -188q-8 -54 -37 -107t-75 -95t-106 -68.5t-130 -26.5t-122.5 26.5t-86.5 68.5t-48.5 95t-6.5 107l68 10q-2 -16 7 -45.5t34 -59t67 -51t106 -21.5q61 0 109.5 21.5t82 51t52 59t20.5 45.5z" />
    <glyph glyph-name="uni0331" unicode="&#x331;" horiz-adv-x="0" 
d="M-854 -194h710l-18 -110h-710z" />
    <glyph glyph-name="uni03BC" unicode="&#x3bc;" horiz-adv-x="1262" 
d="M249 -435l-183 -22l196 1437l-141 20l17 85l231 22l81 -78l-93 -675q-11 -79 -9.5 -131t14 -82.5t36 -42.5t57.5 -12q57 0 111 28.5t102.5 71t89.5 92t73 92.5l84 610l-141 20l17 85l231 22l81 -78l-128 -924l140 -20l-17 -85q-21 -7 -44 -11q-20 -5 -43.5 -8t-46.5 -3
q-95 0 -133 62t-18 201q-17 -20 -41 -47.5t-53.5 -56.5t-64.5 -57.5t-74 -51t-82 -36.5t-88 -14q-29 0 -53.5 7t-43 19t-30.5 26.5t-17 29.5l-11 -4z" />
    <glyph glyph-name="pi" unicode="&#x3c0;" horiz-adv-x="1492" 
d="M259 -22l-8 70q33 40 84 116.5t106.5 187t108 254t88.5 319.5q-18 1 -35 1.5t-31 0.5q-43 0 -79 -4.5t-67 -19t-57.5 -41t-51.5 -71.5l-72 17q24 69 55.5 124.5t75 94.5t101.5 59.5t135 20.5q39 0 88.5 -2.5t104 -6t112 -7.5t111.5 -7.5t103 -6t87 -2.5q35 0 60 1.5
t42 3.5q19 2 33 5l48 72l75 -22q-12 -40 -30.5 -82.5t-51.5 -77.5t-83.5 -57.5t-126.5 -22.5h-8l-101 -725l181 -34l-39 -136q-16 -7 -34 -11q-15 -5 -35 -8t-40 -3q-50 0 -92 15.5t-70 45.5t-40.5 74t-4.5 102l96 686q-62 4 -122 8t-117 9q-32 -173 -72 -319.5
t-82.5 -262.5t-84.5 -201t-76 -135z" />
    <glyph glyph-name="uni1E00" unicode="&#x1e00;" 
d="M1019 105l112 -20l-17 -85h-417l-8 85l141 20l-64 321h-476l-157 -321l142 -20l-17 -85h-374l-8 85l111 20l622 1248h149zM621 1104l-283 -579h408l-115 579h-10zM219 -405q8 59 31 103t56 73t73 43.5t82 14.5q38 0 71 -10t55.5 -30.5t33 -52.5t4.5 -77
q-9 -62 -31 -106.5t-54.5 -73t-72.5 -42t-83 -13.5q-39 0 -72.5 10t-56 31t-32.5 53.5t-4 76.5zM329 -373q-10 -66 13 -103t62 -37q16 0 30 2.5t25 6.5q12 4 23 10q7 13 13 31q5 15 11 38t11 52q11 66 -10 103t-66 37q-13 0 -24.5 -3t-21.5 -7q-11 -4 -22 -9q-9 -11 -17 -29
q-7 -15 -14.5 -37.5t-12.5 -54.5z" />
    <glyph glyph-name="uni1E01" unicode="&#x1e01;" horiz-adv-x="1158" 
d="M1013 0l-230 -22l-81 78l26 190q-78 -122 -179 -195t-206 -73q-165 0 -222 95t-29 300l26 188q37 252 177.5 399t342.5 147q81 0 179.5 -20.5t199.5 -57.5l-129 -924l142 -20zM284 461q-27 -192 -3 -283.5t123 -91.5q84 0 175 81t167 206l85 617q-46 16 -99 24.5
t-100 8.5q-55 0 -108.5 -14t-94.5 -36q-40 -66 -72.5 -159.5t-53.5 -221.5zM248 -405q8 59 31 103t56 73t73 43.5t82 14.5q38 0 71 -10t55.5 -30.5t33 -52.5t4.5 -77q-9 -62 -31 -106.5t-54.5 -73t-72.5 -42t-83 -13.5q-39 0 -72.5 10t-56 31t-32.5 53.5t-4 76.5zM358 -373
q-10 -66 13 -103t62 -37q16 0 30 2.5t25 6.5q12 4 23 10q7 13 13 31q5 15 11 38t11 52q11 66 -10 103t-66 37q-13 0 -24.5 -3t-21.5 -7q-11 -4 -22 -9q-9 -11 -17 -29q-7 -15 -14.5 -37.5t-12.5 -54.5z" />
    <glyph glyph-name="Ddotaccent" unicode="&#x1e0a;" horiz-adv-x="1335" 
d="M16 0l-8 85l141 20l161 1143l-141 20l17 85h546q300 0 431 -153t90 -458l-12 -88q-44 -310 -218.5 -482t-441.5 -172h-565zM554 99q74 0 148.5 16t135.5 43q68 69 127 187.5t82 276.5l13 94q35 259 -63.5 398.5t-322.5 139.5h-173l-163 -1155h216zM636 1599q4 27 14.5 51
t26 42t33.5 28.5t37 10.5q27 0 50 -7.5t39 -20t24 -30t5 -36.5q-4 -26 -14.5 -50t-26 -42t-33.5 -28.5t-37 -10.5q-27 0 -50 7.5t-39 20t-24 29.5t-5 36z" />
    <glyph glyph-name="uni1E0C" unicode="&#x1e0c;" horiz-adv-x="1335" 
d="M16 0l-8 85l141 20l161 1143l-141 20l17 85h546q300 0 431 -153t90 -458l-12 -88q-44 -310 -218.5 -482t-441.5 -172h-565zM554 99q74 0 148.5 16t135.5 43q68 69 127 187.5t82 276.5l13 94q35 259 -63.5 398.5t-322.5 139.5h-173l-163 -1155h216zM376 -318
q0 26 5.5 49.5t15 41.5t22 28.5t27.5 10.5q26 0 49.5 -5.5t41.5 -15t28.5 -22.5t10.5 -27q0 -27 -5.5 -51t-15 -41.5t-22.5 -27.5t-27 -10q-27 0 -51 5.5t-41.5 15t-27.5 22t-10 27.5z" />
    <glyph glyph-name="uni1E0D" unicode="&#x1e0d;" 
d="M770 1540l230 22l81 -78l-193 -1379l142 -20l-17 -85l-230 -22l-81 78l26 190q-80 -122 -179.5 -195t-202.5 -73q-169 0 -225.5 96.5t-28.5 298.5l26 188q37 257 176 401.5t344 144.5q49 0 101.5 -7t105.5 -19l49 354l-141 20zM284 461q-30 -213 -0.5 -294t120.5 -81
q84 0 175.5 81.5t166.5 206.5l86 616q-38 14 -92.5 23.5t-107.5 9.5q-54 0 -108 -14t-95 -36q-40 -65 -75.5 -169t-50.5 -212zM359 -318q0 26 5.5 49.5t15 41.5t22 28.5t27.5 10.5q26 0 49.5 -5.5t41.5 -15t28.5 -22.5t10.5 -27q0 -27 -5.5 -51t-15 -41.5t-22.5 -27.5
t-27 -10q-27 0 -51 5.5t-41.5 15t-27.5 22t-10 27.5z" />
    <glyph glyph-name="uni1E0E" unicode="&#x1e0e;" horiz-adv-x="1335" 
d="M16 0l-8 85l141 20l161 1143l-141 20l17 85h546q300 0 431 -153t90 -458l-12 -88q-44 -310 -218.5 -482t-441.5 -172h-565zM554 99q74 0 148.5 16t135.5 43q68 69 127 187.5t82 276.5l13 94q35 259 -63.5 398.5t-322.5 139.5h-173l-163 -1155h216zM159 -194h710l-18 -110
h-710z" />
    <glyph glyph-name="uni1E0F" unicode="&#x1e0f;" 
d="M770 1540l230 22l81 -78l-193 -1379l142 -20l-17 -85l-230 -22l-81 78l26 190q-80 -122 -179.5 -195t-202.5 -73q-169 0 -225.5 96.5t-28.5 298.5l26 188q37 257 176 401.5t344 144.5q49 0 101.5 -7t105.5 -19l49 354l-141 20zM284 461q-30 -213 -0.5 -294t120.5 -81
q84 0 175.5 81.5t166.5 206.5l86 616q-38 14 -92.5 23.5t-107.5 9.5q-54 0 -108 -14t-95 -36q-40 -65 -75.5 -169t-50.5 -212zM142 -194h710l-18 -110h-710z" />
    <glyph glyph-name="uni1E20" unicode="&#x1e20;" horiz-adv-x="1275" 
d="M752 646h447l8 -85l-141 -20l-61 -436q-104 -59 -224.5 -93t-232.5 -34q-263 0 -388 135t-89 392l13 89q55 378 240 579.5t482 201.5q100 0 191.5 -14.5t163.5 -42.5l-17 -270h-88l-45 201q-53 13 -117.5 20t-128.5 7q-81 0 -163.5 -24t-149.5 -64q-59 -98 -101.5 -223
t-64.5 -282l-18 -133q-29 -227 78.5 -350t269.5 -123q48 0 100 9.5t100 25.5l60 429l-141 20zM458 1660h771l-20 -120h-770z" />
    <glyph glyph-name="uni1E21" unicode="&#x1e21;" horiz-adv-x="1114" 
d="M39 -247q119 -44 236.5 -70.5t197.5 -26.5q90 52 151.5 165t82.5 268l21 156q-83 -125 -181.5 -196t-199.5 -71q-174 0 -228 100t-26 295l26 188q35 246 174.5 396t345.5 150q85 0 187 -22t192 -56l-126 -900q-40 -288 -183.5 -437t-359.5 -149q-93 0 -186.5 21
t-156.5 49zM285 461q-30 -210 -1 -292.5t121 -82.5q80 0 170 76.5t171 209.5l86 618q-40 14 -94 23.5t-105 9.5q-56 0 -110 -14t-93 -36q-43 -69 -77 -173t-49 -208zM356 1463h711l-18 -110h-710z" />
    <glyph glyph-name="uni1E24" unicode="&#x1e24;" horiz-adv-x="1451" 
d="M182 1353h447l8 -85l-141 -20l-68 -480h624l68 480l-141 20l17 85h447l8 -85l-141 -20l-161 -1143l141 -20l-17 -85h-447l-8 85l141 20l79 564h-624l-79 -564l141 -20l-17 -85h-447l-8 85l141 20l161 1143l-141 20zM518 -318q0 26 5.5 49.5t15 41.5t22 28.5t27.5 10.5
q26 0 49.5 -5.5t41.5 -15t28.5 -22.5t10.5 -27q0 -27 -5.5 -51t-15 -41.5t-22.5 -27.5t-27 -10q-27 0 -51 5.5t-41.5 15t-27.5 22t-10 27.5z" />
    <glyph glyph-name="uni1E25" unicode="&#x1e25;" horiz-adv-x="1263" 
d="M1106 0l-230 -22l-82 78l93 675q20 143 0 205.5t-94 62.5q-88 0 -187.5 -75t-193.5 -210l-102 -736l-178 22l200 1435l-141 20l17 85l230 22l81 -78l-90 -646q90 123 204 196t228 73q134 0 186.5 -70t31.5 -218l-98 -714l142 -20zM448 -318q0 26 5.5 49.5t15 41.5
t22 28.5t27.5 10.5q26 0 49.5 -5.5t41.5 -15t28.5 -22.5t10.5 -27q0 -27 -5.5 -51t-15 -41.5t-22.5 -27.5t-27 -10q-27 0 -51 5.5t-41.5 15t-27.5 22t-10 27.5z" />
    <glyph glyph-name="uni1E2A" unicode="&#x1e2a;" horiz-adv-x="1451" 
d="M182 1353h447l8 -85l-141 -20l-68 -480h624l68 480l-141 20l17 85h447l8 -85l-141 -20l-161 -1143l141 -20l-17 -85h-447l-8 85l141 20l79 564h-624l-79 -564l141 -20l-17 -85h-447l-8 85l141 20l161 1143l-141 20zM917 -188q-8 -54 -37 -107t-75 -95t-106 -68.5
t-130 -26.5t-122.5 26.5t-86.5 68.5t-48.5 95t-6.5 107l68 10q-2 -16 7 -45.5t34 -59t67 -51t106 -21.5q61 0 109.5 21.5t82 51t52 59t20.5 45.5z" />
    <glyph glyph-name="uni1E2B" unicode="&#x1e2b;" horiz-adv-x="1263" 
d="M1106 0l-230 -22l-82 78l93 675q20 143 0 205.5t-94 62.5q-88 0 -187.5 -75t-193.5 -210l-102 -736l-178 22l200 1435l-141 20l17 85l230 22l81 -78l-90 -646q90 123 204 196t228 73q134 0 186.5 -70t31.5 -218l-98 -714l142 -20zM847 -188q-8 -54 -37 -107t-75 -95
t-106 -68.5t-130 -26.5t-122.5 26.5t-86.5 68.5t-48.5 95t-6.5 107l68 10q-2 -16 7 -45.5t34 -59t67 -51t106 -21.5q61 0 109.5 21.5t82 51t52 59t20.5 45.5z" />
    <glyph glyph-name="uni1E36" unicode="&#x1e36;" horiz-adv-x="976" 
d="M820 0h-806l-8 85l141 20l161 1143l-141 20l17 85h477l8 -85l-171 -20l-162 -1149h361l110 213l81 -12zM283 -318q0 26 5.5 49.5t15 41.5t22 28.5t27.5 10.5q26 0 49.5 -5.5t41.5 -15t28.5 -22.5t10.5 -27q0 -27 -5.5 -51t-15 -41.5t-22.5 -27.5t-27 -10q-27 0 -51 5.5
t-41.5 15t-27.5 22t-10 27.5z" />
    <glyph glyph-name="uni1E37" unicode="&#x1e37;" horiz-adv-x="620" 
d="M210 1540l231 22l81 -78l-193 -1379l141 -20l-17 -85l-230 -22l-81 78l192 1379l-141 20zM121 -318q0 26 5.5 49.5t15 41.5t22 28.5t27.5 10.5q26 0 49.5 -5.5t41.5 -15t28.5 -22.5t10.5 -27q0 -27 -5.5 -51t-15 -41.5t-22.5 -27.5t-27 -10q-27 0 -51 5.5t-41.5 15
t-27.5 22t-10 27.5z" />
    <glyph glyph-name="uni1E38" unicode="&#x1e38;" horiz-adv-x="976" 
d="M820 0h-806l-8 85l141 20l161 1143l-141 20l17 85h477l8 -85l-171 -20l-162 -1149h361l110 213l81 -12zM283 -318q0 26 5.5 49.5t15 41.5t22 28.5t27.5 10.5q26 0 49.5 -5.5t41.5 -15t28.5 -22.5t10.5 -27q0 -27 -5.5 -51t-15 -41.5t-22.5 -27.5t-27 -10q-27 0 -51 5.5
t-41.5 15t-27.5 22t-10 27.5zM77 1660h771l-20 -120h-770z" />
    <glyph glyph-name="uni1E39" unicode="&#x1e39;" horiz-adv-x="620" 
d="M210 1540l231 22l81 -78l-193 -1379l141 -20l-17 -85l-230 -22l-81 78l192 1379l-141 20zM121 -318q0 26 5.5 49.5t15 41.5t22 28.5t27.5 10.5q26 0 49.5 -5.5t41.5 -15t28.5 -22.5t10.5 -27q0 -27 -5.5 -51t-15 -41.5t-22.5 -27.5t-27 -10q-27 0 -51 5.5t-41.5 15
t-27.5 22t-10 27.5zM79 1870h771l-20 -120h-770z" />
    <glyph glyph-name="uni1E3A" unicode="&#x1e3a;" horiz-adv-x="976" 
d="M820 0h-806l-8 85l141 20l161 1143l-141 20l17 85h477l8 -85l-171 -20l-162 -1149h361l110 213l81 -12zM66 -194h710l-18 -110h-710z" />
    <glyph glyph-name="uni1E3B" unicode="&#x1e3b;" horiz-adv-x="620" 
d="M210 1540l231 22l81 -78l-193 -1379l141 -20l-17 -85l-230 -22l-81 78l192 1379l-141 20zM-96 -194h710l-18 -110h-710z" />
    <glyph glyph-name="uni1E3E" unicode="&#x1e3e;" horiz-adv-x="1868" 
d="M409 0h-397l-8 85l141 20l161 1143l-141 20l17 85h429l269 -1042h16l545 1042h419l8 -85l-141 -20l-161 -1143l141 -20l-17 -85h-447l-8 85l141 20l154 1095h-16l-637 -1200h-105l-317 1200h-16l-154 -1095l141 -20zM918 1503l337 281l191 -10l-9 -66l-430 -248l-94 11z
" />
    <glyph glyph-name="uni1E3F" unicode="&#x1e3f;" horiz-adv-x="1933" 
d="M1123 0l-230 -22l-81 78l93 675q21 146 0 207t-94 61q-84 0 -183.5 -72t-197.5 -213l-103 -736l-176 22l135 980l-141 20l17 85l231 22l81 -78l-27 -190q87 119 201.5 193.5t230.5 74.5q137 0 186.5 -70.5t33.5 -199.5q94 128 207.5 199t225.5 71q136 0 187.5 -71.5
t30.5 -216.5l-98 -714l141 -20l-17 -85l-230 -22l-81 78l93 675q20 141 1 204.5t-95 63.5q-93 0 -195 -81t-187 -205l-83 -608l141 -20zM1044 1307l254 363l181 -10l-10 -66l-356 -329l-74 10z" />
    <glyph glyph-name="uni1E42" unicode="&#x1e42;" horiz-adv-x="1868" 
d="M409 0h-397l-8 85l141 20l161 1143l-141 20l17 85h429l269 -1042h16l545 1042h419l8 -85l-141 -20l-161 -1143l141 -20l-17 -85h-447l-8 85l141 20l154 1095h-16l-637 -1200h-105l-317 1200h-16l-154 -1095l141 -20zM680 -318q0 26 5.5 49.5t15 41.5t22 28.5t27.5 10.5
q26 0 49.5 -5.5t41.5 -15t28.5 -22.5t10.5 -27q0 -27 -5.5 -51t-15 -41.5t-22.5 -27.5t-27 -10q-27 0 -51 5.5t-41.5 15t-27.5 22t-10 27.5z" />
    <glyph glyph-name="uni1E43" unicode="&#x1e43;" horiz-adv-x="1933" 
d="M1123 0l-230 -22l-81 78l93 675q21 146 0 207t-94 61q-84 0 -183.5 -72t-197.5 -213l-103 -736l-176 22l135 980l-141 20l17 85l231 22l81 -78l-27 -190q87 119 201.5 193.5t230.5 74.5q137 0 186.5 -70.5t33.5 -199.5q94 128 207.5 199t225.5 71q136 0 187.5 -71.5
t30.5 -216.5l-98 -714l141 -20l-17 -85l-230 -22l-81 78l93 675q20 141 1 204.5t-95 63.5q-93 0 -195 -81t-187 -205l-83 -608l141 -20zM782 -318q0 26 5.5 49.5t15 41.5t22 28.5t27.5 10.5q26 0 49.5 -5.5t41.5 -15t28.5 -22.5t10.5 -27q0 -27 -5.5 -51t-15 -41.5
t-22.5 -27.5t-27 -10q-27 0 -51 5.5t-41.5 15t-27.5 22t-10 27.5z" />
    <glyph glyph-name="uni1E44" unicode="&#x1e44;" horiz-adv-x="1524" 
d="M1140 1353h398l8 -85l-141 -20l-176 -1248h-287l-484 1218h-16l-157 -1113l141 -20l-17 -85h-397l-8 85l141 20l161 1143l-141 20l17 85h426l484 -1217h16l156 1112l-141 20zM832 1599q4 27 14.5 51t26 42t33.5 28.5t37 10.5q27 0 50 -7.5t39 -20t24 -30t5 -36.5
q-4 -26 -14.5 -50t-26 -42t-33.5 -28.5t-37 -10.5q-27 0 -50 7.5t-39 20t-24 29.5t-5 36z" />
    <glyph glyph-name="uni1E45" unicode="&#x1e45;" horiz-adv-x="1279" 
d="M1123 0l-230 -22l-81 78l93 675q20 147 0 207.5t-94 60.5q-88 0 -187.5 -75t-193.5 -210l-103 -736l-176 22l135 980l-141 20l17 85l231 22l81 -78l-27 -190q95 127 208.5 197.5t223.5 70.5q135 0 186.5 -70t31.5 -218l-98 -714l141 -20zM711 1410q0 26 5.5 49.5t15 41.5
t22 28.5t27.5 10.5q26 0 49.5 -5.5t41.5 -15t28.5 -22.5t10.5 -27q0 -27 -5.5 -51t-15 -41.5t-22.5 -27.5t-27 -10q-27 0 -51 5.5t-41.5 15t-27.5 22t-10 27.5z" />
    <glyph glyph-name="uni1E46" unicode="&#x1e46;" horiz-adv-x="1524" 
d="M1140 1353h398l8 -85l-141 -20l-176 -1248h-287l-484 1218h-16l-157 -1113l141 -20l-17 -85h-397l-8 85l141 20l161 1143l-141 20l17 85h426l484 -1217h16l156 1112l-141 20zM519 -318q0 26 5.5 49.5t15 41.5t22 28.5t27.5 10.5q26 0 49.5 -5.5t41.5 -15t28.5 -22.5
t10.5 -27q0 -27 -5.5 -51t-15 -41.5t-22.5 -27.5t-27 -10q-27 0 -51 5.5t-41.5 15t-27.5 22t-10 27.5z" />
    <glyph glyph-name="uni1E47" unicode="&#x1e47;" horiz-adv-x="1279" 
d="M1123 0l-230 -22l-81 78l93 675q20 147 0 207.5t-94 60.5q-88 0 -187.5 -75t-193.5 -210l-103 -736l-176 22l135 980l-141 20l17 85l231 22l81 -78l-27 -190q95 127 208.5 197.5t223.5 70.5q135 0 186.5 -70t31.5 -218l-98 -714l141 -20zM464 -318q0 26 5.5 49.5t15 41.5
t22 28.5t27.5 10.5q26 0 49.5 -5.5t41.5 -15t28.5 -22.5t10.5 -27q0 -27 -5.5 -51t-15 -41.5t-22.5 -27.5t-27 -10q-27 0 -51 5.5t-41.5 15t-27.5 22t-10 27.5z" />
    <glyph glyph-name="uni1E48" unicode="&#x1e48;" horiz-adv-x="1524" 
d="M1140 1353h398l8 -85l-141 -20l-176 -1248h-287l-484 1218h-16l-157 -1113l141 -20l-17 -85h-397l-8 85l141 20l161 1143l-141 20l17 85h426l484 -1217h16l156 1112l-141 20zM302 -194h710l-18 -110h-710z" />
    <glyph glyph-name="uni1E49" unicode="&#x1e49;" horiz-adv-x="1279" 
d="M1123 0l-230 -22l-81 78l93 675q20 147 0 207.5t-94 60.5q-88 0 -187.5 -75t-193.5 -210l-103 -736l-176 22l135 980l-141 20l17 85l231 22l81 -78l-27 -190q95 127 208.5 197.5t223.5 70.5q135 0 186.5 -70t31.5 -218l-98 -714l141 -20zM247 -194h710l-18 -110h-710z
" />
    <glyph glyph-name="rdotaccent" unicode="&#x1e59;" horiz-adv-x="925" 
d="M176 1085l231 22l81 -78l-29 -209q63 136 147.5 211.5t176.5 75.5q42 0 82.5 -14.5t69.5 -37.5l-56 -237l-106 -12v173q-7 5 -20 7.5t-28 2.5q-60 0 -135.5 -86.5t-154.5 -251.5l-76 -546l142 -20l-17 -85h-438l-8 85l140 20l122 875l-141 20zM541 1410q0 26 5.5 49.5
t15 41.5t22 28.5t27.5 10.5q26 0 49.5 -5.5t41.5 -15t28.5 -22.5t10.5 -27q0 -27 -5.5 -51t-15 -41.5t-22.5 -27.5t-27 -10q-27 0 -51 5.5t-41.5 15t-27.5 22t-10 27.5z" />
    <glyph glyph-name="uni1E5A" unicode="&#x1e5a;" horiz-adv-x="1201" 
d="M463 0h-447l-8 85l141 20l161 1143l-141 20l17 85h498q204 0 303 -88t75 -262q-18 -125 -91.5 -219t-178.5 -137l-8 -19l217 -523l122 -20l-17 -85h-259l-255 616h-181l-72 -511l141 -20zM550 715q67 0 133.5 13.5t113.5 35.5q24 42 42 97t25 108q20 146 -41 215.5
t-226 69.5h-96l-76 -539h125zM410 -318q0 26 5.5 49.5t15 41.5t22 28.5t27.5 10.5q26 0 49.5 -5.5t41.5 -15t28.5 -22.5t10.5 -27q0 -27 -5.5 -51t-15 -41.5t-22.5 -27.5t-27 -10q-27 0 -51 5.5t-41.5 15t-27.5 22t-10 27.5z" />
    <glyph glyph-name="uni1E5B" unicode="&#x1e5b;" horiz-adv-x="925" 
d="M176 1085l231 22l81 -78l-29 -209q63 136 147.5 211.5t176.5 75.5q42 0 82.5 -14.5t69.5 -37.5l-56 -237l-106 -12v173q-7 5 -20 7.5t-28 2.5q-60 0 -135.5 -86.5t-154.5 -251.5l-76 -546l142 -20l-17 -85h-438l-8 85l140 20l122 875l-141 20zM123 -318q0 26 5.5 49.5
t15 41.5t22 28.5t27.5 10.5q26 0 49.5 -5.5t41.5 -15t28.5 -22.5t10.5 -27q0 -27 -5.5 -51t-15 -41.5t-22.5 -27.5t-27 -10q-27 0 -51 5.5t-41.5 15t-27.5 22t-10 27.5z" />
    <glyph glyph-name="uni1E5C" unicode="&#x1e5c;" horiz-adv-x="1201" 
d="M463 0h-447l-8 85l141 20l161 1143l-141 20l17 85h498q204 0 303 -88t75 -262q-18 -125 -91.5 -219t-178.5 -137l-8 -19l217 -523l122 -20l-17 -85h-259l-255 616h-181l-72 -511l141 -20zM550 715q67 0 133.5 13.5t113.5 35.5q24 42 42 97t25 108q20 146 -41 215.5
t-226 69.5h-96l-76 -539h125zM410 -318q0 26 5.5 49.5t15 41.5t22 28.5t27.5 10.5q26 0 49.5 -5.5t41.5 -15t28.5 -22.5t10.5 -27q0 -27 -5.5 -51t-15 -41.5t-22.5 -27.5t-27 -10q-27 0 -51 5.5t-41.5 15t-27.5 22t-10 27.5zM275 1660h771l-20 -120h-770z" />
    <glyph glyph-name="uni1E5D" unicode="&#x1e5d;" horiz-adv-x="925" 
d="M176 1085l231 22l81 -78l-29 -209q63 136 147.5 211.5t176.5 75.5q42 0 82.5 -14.5t69.5 -37.5l-56 -237l-106 -12v173q-7 5 -20 7.5t-28 2.5q-60 0 -135.5 -86.5t-154.5 -251.5l-76 -546l142 -20l-17 -85h-438l-8 85l140 20l122 875l-141 20zM123 -318q0 26 5.5 49.5
t15 41.5t22 28.5t27.5 10.5q26 0 49.5 -5.5t41.5 -15t28.5 -22.5t10.5 -27q0 -27 -5.5 -51t-15 -41.5t-22.5 -27.5t-27 -10q-27 0 -51 5.5t-41.5 15t-27.5 22t-10 27.5zM290 1463h710l-19 -110h-709z" />
    <glyph glyph-name="uni1E5E" unicode="&#x1e5e;" horiz-adv-x="1201" 
d="M463 0h-447l-8 85l141 20l161 1143l-141 20l17 85h498q204 0 303 -88t75 -262q-18 -125 -91.5 -219t-178.5 -137l-8 -19l217 -523l122 -20l-17 -85h-259l-255 616h-181l-72 -511l141 -20zM550 715q67 0 133.5 13.5t113.5 35.5q24 42 42 97t25 108q20 146 -41 215.5
t-226 69.5h-96l-76 -539h125zM193 -194h710l-18 -110h-710z" />
    <glyph glyph-name="uni1E5F" unicode="&#x1e5f;" horiz-adv-x="925" 
d="M176 1085l231 22l81 -78l-29 -209q63 136 147.5 211.5t176.5 75.5q42 0 82.5 -14.5t69.5 -37.5l-56 -237l-106 -12v173q-7 5 -20 7.5t-28 2.5q-60 0 -135.5 -86.5t-154.5 -251.5l-76 -546l142 -20l-17 -85h-438l-8 85l140 20l122 875l-141 20zM-94 -194h710l-18 -110
h-710z" />
    <glyph glyph-name="uni1E60" unicode="&#x1e60;" horiz-adv-x="1047" 
d="M623 762q173 -112 246.5 -203.5t55.5 -213.5q-23 -165 -165.5 -266t-358.5 -101q-109 0 -206 16.5t-163 46.5l16 259h100l45 -199q45 -12 98 -18t113 -6q68 0 134.5 10.5t118.5 27.5q20 28 40.5 75t27.5 91q13 83 -37 157t-227 190q-207 132 -266 213.5t-44 192.5
q22 155 162 248t358 93q93 0 179.5 -14t144.5 -38l-17 -270h-88l-45 201q-36 9 -90 15.5t-108 6.5q-65 0 -129 -10.5t-114 -27.5q-23 -40 -36.5 -77.5t-19.5 -74.5q-11 -76 42.5 -141.5t232.5 -182.5zM605 1599q4 27 14.5 51t26 42t33.5 28.5t37 10.5q27 0 50 -7.5t39 -20
t24 -30t5 -36.5q-4 -26 -14.5 -50t-26 -42t-33.5 -28.5t-37 -10.5q-27 0 -50 7.5t-39 20t-24 29.5t-5 36z" />
    <glyph glyph-name="uni1E61" unicode="&#x1e61;" horiz-adv-x="923" 
d="M540 632q177 -108 229 -184.5t38 -176.5q-20 -139 -140.5 -216t-298.5 -77q-83 0 -159 19.5t-127 50.5l24 240h82l31 -197q33 -11 79 -17t96 -6q48 0 95 8.5t78 19.5q18 21 32.5 52t20.5 72q10 70 -29 126.5t-203 159.5q-155 96 -201 164.5t-33 157.5q19 122 129 200.5
t286 78.5q80 0 154 -18t124 -50l-25 -241h-81l-33 199q-28 9 -70 14.5t-85 5.5q-44 0 -88 -8.5t-71 -19.5q-21 -22 -34.5 -49t-18.5 -58q-12 -76 28.5 -123.5t170.5 -126.5zM522 1410q0 26 5.5 49.5t15 41.5t22 28.5t27.5 10.5q26 0 49.5 -5.5t41.5 -15t28.5 -22.5t10.5 -27
q0 -27 -5.5 -51t-15 -41.5t-22.5 -27.5t-27 -10q-27 0 -51 5.5t-41.5 15t-27.5 22t-10 27.5z" />
    <glyph glyph-name="uni1E62" unicode="&#x1e62;" horiz-adv-x="1047" 
d="M623 762q173 -112 246.5 -203.5t55.5 -213.5q-23 -165 -165.5 -266t-358.5 -101q-109 0 -206 16.5t-163 46.5l16 259h100l45 -199q45 -12 98 -18t113 -6q68 0 134.5 10.5t118.5 27.5q20 28 40.5 75t27.5 91q13 83 -37 157t-227 190q-207 132 -266 213.5t-44 192.5
q22 155 162 248t358 93q93 0 179.5 -14t144.5 -38l-17 -270h-88l-45 201q-36 9 -90 15.5t-108 6.5q-65 0 -129 -10.5t-114 -27.5q-23 -40 -36.5 -77.5t-19.5 -74.5q-11 -76 42.5 -141.5t232.5 -182.5zM297 -318q0 26 5.5 49.5t15 41.5t22 28.5t27.5 10.5q26 0 49.5 -5.5
t41.5 -15t28.5 -22.5t10.5 -27q0 -27 -5.5 -51t-15 -41.5t-22.5 -27.5t-27 -10q-27 0 -51 5.5t-41.5 15t-27.5 22t-10 27.5z" />
    <glyph glyph-name="uni1E63" unicode="&#x1e63;" horiz-adv-x="923" 
d="M540 632q177 -108 229 -184.5t38 -176.5q-20 -139 -140.5 -216t-298.5 -77q-83 0 -159 19.5t-127 50.5l24 240h82l31 -197q33 -11 79 -17t96 -6q48 0 95 8.5t78 19.5q18 21 32.5 52t20.5 72q10 70 -29 126.5t-203 159.5q-155 96 -201 164.5t-33 157.5q19 122 129 200.5
t286 78.5q80 0 154 -18t124 -50l-25 -241h-81l-33 199q-28 9 -70 14.5t-85 5.5q-44 0 -88 -8.5t-71 -19.5q-21 -22 -34.5 -49t-18.5 -58q-12 -76 28.5 -123.5t170.5 -126.5zM269 -318q0 26 5.5 49.5t15 41.5t22 28.5t27.5 10.5q26 0 49.5 -5.5t41.5 -15t28.5 -22.5t10.5 -27
q0 -27 -5.5 -51t-15 -41.5t-22.5 -27.5t-27 -10q-27 0 -51 5.5t-41.5 15t-27.5 22t-10 27.5z" />
    <glyph glyph-name="uni1E6C" unicode="&#x1e6c;" horiz-adv-x="1038" 
d="M506 1254h-305l-75 -191h-88l56 290h1032l-27 -290h-79l-30 191h-294l-162 -1149l141 -20l-17 -85h-447l-8 85l141 20zM278 -318q0 26 5.5 49.5t15 41.5t22 28.5t27.5 10.5q26 0 49.5 -5.5t41.5 -15t28.5 -22.5t10.5 -27q0 -27 -5.5 -51t-15 -41.5t-22.5 -27.5t-27 -10
q-27 0 -51 5.5t-41.5 15t-27.5 22t-10 27.5z" />
    <glyph glyph-name="uni1E6D" unicode="&#x1e6d;" horiz-adv-x="765" 
d="M99 1085h176l29 207l193 83l-41 -290h307l-11 -84h-308l-91 -653q-19 -137 8 -208.5t105 -71.5q42 0 96.5 21.5t96.5 48.5v-86q-55 -34 -120.5 -54t-132.5 -20q-155 0 -207.5 89t-27.5 267l92 667h-175zM235 -318q0 26 5.5 49.5t15 41.5t22 28.5t27.5 10.5
q26 0 49.5 -5.5t41.5 -15t28.5 -22.5t10.5 -27q0 -27 -5.5 -51t-15 -41.5t-22.5 -27.5t-27 -10q-27 0 -51 5.5t-41.5 15t-27.5 22t-10 27.5z" />
    <glyph glyph-name="uni1E6E" unicode="&#x1e6e;" horiz-adv-x="1038" 
d="M506 1254h-305l-75 -191h-88l56 290h1032l-27 -290h-79l-30 191h-294l-162 -1149l141 -20l-17 -85h-447l-8 85l141 20zM61 -194h710l-18 -110h-710z" />
    <glyph glyph-name="uni1E6F" unicode="&#x1e6f;" horiz-adv-x="765" 
d="M99 1085h176l29 207l193 83l-41 -290h307l-11 -84h-308l-91 -653q-19 -137 8 -208.5t105 -71.5q42 0 96.5 21.5t96.5 48.5v-86q-55 -34 -120.5 -54t-132.5 -20q-155 0 -207.5 89t-27.5 267l92 667h-175zM18 -194h710l-18 -110h-710z" />
    <glyph glyph-name="Wgrave" unicode="&#x1e80;" horiz-adv-x="2028" 
d="M57 1353h417l8 -85l-141 -20l200 -1016h16l500 1121h191l176 -1121h16l454 1016l-141 20l17 85h374l8 -85l-111 -20l-569 -1248h-191l-177 1107h-16l-493 -1107h-192l-253 1248l-110 20zM1261 1471l-96 -11l-340 248l9 66l193 10l239 -281z" />
    <glyph glyph-name="wgrave" unicode="&#x1e81;" horiz-adv-x="1565" 
d="M48 1085l204 22l81 -78l115 -827l384 905l105 -22l133 -950q67 100 123 210t98.5 220t70 216.5t38.5 198.5l-141 20l17 85l190 22l81 -78q0 -83 -19.5 -174t-53 -185t-78.5 -187.5t-95.5 -182.5t-104 -171t-104.5 -151l-174 22l-109 776l-329 -798l-174 22l-138 980
l-137 20zM962 1275l-89 -10l-244 329l10 66l176 10l152 -363z" />
    <glyph glyph-name="Wacute" unicode="&#x1e82;" horiz-adv-x="2028" 
d="M57 1353h417l8 -85l-141 -20l200 -1016h16l500 1121h191l176 -1121h16l454 1016l-141 20l17 85h374l8 -85l-111 -20l-569 -1248h-191l-177 1107h-16l-493 -1107h-192l-253 1248l-110 20zM1051 1503l337 281l191 -10l-9 -66l-430 -248l-94 11z" />
    <glyph glyph-name="wacute" unicode="&#x1e83;" horiz-adv-x="1565" 
d="M48 1085l204 22l81 -78l115 -827l384 905l105 -22l133 -950q67 100 123 210t98.5 220t70 216.5t38.5 198.5l-141 20l17 85l190 22l81 -78q0 -83 -19.5 -174t-53 -185t-78.5 -187.5t-95.5 -182.5t-104 -171t-104.5 -151l-174 22l-109 776l-329 -798l-174 22l-138 980
l-137 20zM865 1307l254 363l181 -10l-10 -66l-356 -329l-74 10z" />
    <glyph glyph-name="Wdieresis" unicode="&#x1e84;" horiz-adv-x="2028" 
d="M57 1353h417l8 -85l-141 -20l200 -1016h16l500 1121h191l176 -1121h16l454 1016l-141 20l17 85h374l8 -85l-111 -20l-569 -1248h-191l-177 1107h-16l-493 -1107h-192l-253 1248l-110 20zM862 1571q0 26 5.5 49.5t14.5 41.5t21.5 28.5t27.5 10.5q26 0 49.5 -5.5
t41.5 -15.5t28.5 -22.5t10.5 -27.5q0 -27 -5.5 -50.5t-15 -41t-22 -27.5t-27.5 -10q-27 0 -51 5.5t-41 15t-27 22t-10 27.5zM1298 1571q0 26 5.5 49.5t14.5 41.5t21.5 28.5t27.5 10.5q27 0 50.5 -5.5t41 -15.5t28 -22.5t10.5 -27.5q0 -27 -5.5 -50.5t-15 -41t-22 -27.5
t-27.5 -10q-27 0 -50.5 5.5t-41 15t-27.5 22t-10 27.5z" />
    <glyph glyph-name="wdieresis" unicode="&#x1e85;" horiz-adv-x="1565" 
d="M48 1085l204 22l81 -78l115 -827l384 905l105 -22l133 -950q67 100 123 210t98.5 220t70 216.5t38.5 198.5l-141 20l17 85l190 22l81 -78q0 -83 -19.5 -174t-53 -185t-78.5 -187.5t-95.5 -182.5t-104 -171t-104.5 -151l-174 22l-109 776l-329 -798l-174 22l-138 980
l-137 20zM600 1371q0 25 5 47.5t14 39.5t21 27t26 10q25 0 47.5 -5.5t39.5 -14.5t27 -21t10 -26q0 -52 -19.5 -87.5t-47.5 -35.5q-52 0 -87.5 19t-35.5 47zM1026 1371q0 25 5 47.5t14 39.5t21 27t26 10q25 0 47.5 -5.5t39.5 -14.5t27 -21t10 -26q0 -52 -19.5 -87.5
t-47.5 -35.5q-52 0 -87.5 19t-35.5 47z" />
    <glyph glyph-name="Wdotaccent" unicode="&#x1e86;" horiz-adv-x="2028" 
d="M57 1353h417l8 -85l-141 -20l200 -1016h16l500 1121h191l176 -1121h16l454 1016l-141 20l17 85h374l8 -85l-111 -20l-569 -1248h-191l-177 1107h-16l-493 -1107h-192l-253 1248l-110 20zM1107 1599q4 27 14.5 51t26 42t33.5 28.5t37 10.5q27 0 50 -7.5t39 -20t24 -30
t5 -36.5q-4 -26 -14.5 -50t-26 -42t-33.5 -28.5t-37 -10.5q-27 0 -50 7.5t-39 20t-24 29.5t-5 36z" />
    <glyph glyph-name="wdotaccent" unicode="&#x1e87;" horiz-adv-x="1565" 
d="M48 1085l204 22l81 -78l115 -827l384 905l105 -22l133 -950q67 100 123 210t98.5 220t70 216.5t38.5 198.5l-141 20l17 85l190 22l81 -78q0 -83 -19.5 -174t-53 -185t-78.5 -187.5t-95.5 -182.5t-104 -171t-104.5 -151l-174 22l-109 776l-329 -798l-174 22l-138 980
l-137 20zM830 1410q0 26 5.5 49.5t15 41.5t22 28.5t27.5 10.5q26 0 49.5 -5.5t41.5 -15t28.5 -22.5t10.5 -27q0 -27 -5.5 -51t-15 -41.5t-22.5 -27.5t-27 -10q-27 0 -51 5.5t-41.5 15t-27.5 22t-10 27.5z" />
    <glyph glyph-name="uni1E8E" unicode="&#x1e8e;" horiz-adv-x="1086" 
d="M21 1353h401l8 -85l-111 -16l262 -530h16l394 529l-116 17l17 85h356l8 -85l-111 -20l-504 -672l-66 -471l141 -20l-17 -85h-447l-8 85l141 20l66 473l-335 670l-112 20zM607 1599q4 27 14.5 51t26 42t33.5 28.5t37 10.5q27 0 50 -7.5t39 -20t24 -30t5 -36.5
q-4 -26 -14.5 -50t-26 -42t-33.5 -28.5t-37 -10.5q-27 0 -50 7.5t-39 20t-24 29.5t-5 36z" />
    <glyph glyph-name="uni1E8F" unicode="&#x1e8f;" horiz-adv-x="1204" 
d="M141 1085l231 22l81 -78l-93 -675q-19 -136 0 -202t94 -66q88 1 185.5 73t193.5 210l85 611l-141 20l17 85l231 22l81 -78l-126 -900q-41 -287 -183.5 -436.5t-359.5 -149.5q-89 0 -180 19.5t-163 50.5l33 140q108 -40 228 -68.5t206 -28.5q84 47 148 159.5t86 273.5
l21 156q-93 -127 -205.5 -197t-224.5 -70q-133 0 -186 69.5t-32 218.5l97 714l-141 20zM620 1410q0 26 5.5 49.5t15 41.5t22 28.5t27.5 10.5q26 0 49.5 -5.5t41.5 -15t28.5 -22.5t10.5 -27q0 -27 -5.5 -51t-15 -41.5t-22.5 -27.5t-27 -10q-27 0 -51 5.5t-41.5 15t-27.5 22
t-10 27.5z" />
    <glyph glyph-name="Zcircumflex" unicode="&#x1e90;" horiz-adv-x="1142" 
d="M1110 1353v-94l-868 -1146l3 -14h577l99 213l90 -12l-67 -300h-930v95l867 1145l-3 14h-536l-99 -213l-91 12l68 300h890zM1016 1470l-106 -10l-196 198l-273 -198l-93 10l5 32l323 292l132 -10l213 -282z" />
    <glyph glyph-name="zcircumflex" unicode="&#x1e91;" horiz-adv-x="953" 
d="M732 1005h-419l-82 -174l-103 26l50 228h767l-10 -83l-709 -922h428l82 174l103 -26l-50 -228h-767l11 95zM868 1275l-97 -10l-149 262l-230 -262l-93 10l4 32l286 373l131 -10l152 -363z" />
    <glyph glyph-name="uni1E92" unicode="&#x1e92;" horiz-adv-x="1142" 
d="M1110 1353v-94l-868 -1146l3 -14h577l99 213l90 -12l-67 -300h-930v95l867 1145l-3 14h-536l-99 -213l-91 12l68 300h890zM349 -318q0 26 5.5 49.5t15 41.5t22 28.5t27.5 10.5q26 0 49.5 -5.5t41.5 -15t28.5 -22.5t10.5 -27q0 -27 -5.5 -51t-15 -41.5t-22.5 -27.5
t-27 -10q-27 0 -51 5.5t-41.5 15t-27.5 22t-10 27.5z" />
    <glyph glyph-name="uni1E93" unicode="&#x1e93;" horiz-adv-x="953" 
d="M732 1005h-419l-82 -174l-103 26l50 228h767l-10 -83l-709 -922h428l82 174l103 -26l-50 -228h-767l11 95zM290 -318q0 26 5.5 49.5t15 41.5t22 28.5t27.5 10.5q26 0 49.5 -5.5t41.5 -15t28.5 -22.5t10.5 -27q0 -27 -5.5 -51t-15 -41.5t-22.5 -27.5t-27 -10
q-27 0 -51 5.5t-41.5 15t-27.5 22t-10 27.5z" />
    <glyph glyph-name="uni1E97" unicode="&#x1e97;" horiz-adv-x="765" 
d="M99 1085h176l29 207l193 83l-41 -290h307l-11 -84h-308l-91 -653q-19 -137 8 -208.5t105 -71.5q42 0 96.5 21.5t96.5 48.5v-86q-55 -34 -120.5 -54t-132.5 -20q-155 0 -207.5 89t-27.5 267l92 667h-175zM136 1571q0 26 5.5 49.5t14.5 41.5t21.5 28.5t27.5 10.5
q26 0 49.5 -5.5t41.5 -15.5t28.5 -22.5t10.5 -27.5q0 -27 -5.5 -50.5t-15 -41t-22 -27.5t-27.5 -10q-27 0 -51 5.5t-41 15t-27 22t-10 27.5zM572 1571q0 26 5.5 49.5t14.5 41.5t21.5 28.5t27.5 10.5q27 0 50.5 -5.5t41 -15.5t28 -22.5t10.5 -27.5q0 -27 -5.5 -50.5t-15 -41
t-22 -27.5t-27.5 -10q-27 0 -50.5 5.5t-41 15t-27.5 22t-10 27.5z" />
    <glyph glyph-name="wring" unicode="&#x1e98;" horiz-adv-x="1565" 
d="M48 1085l204 22l81 -78l115 -827l384 905l105 -22l133 -950q67 100 123 210t98.5 220t70 216.5t38.5 198.5l-141 20l17 85l190 22l81 -78q0 -83 -19.5 -174t-53 -185t-78.5 -187.5t-95.5 -182.5t-104 -171t-104.5 -151l-174 22l-109 776l-329 -798l-174 22l-138 980
l-137 20zM726 1436q8 59 31 103t56 73t73 43.5t82 14.5q38 0 71 -10t55.5 -30.5t33 -52.5t4.5 -77q-9 -62 -31 -106.5t-54.5 -73t-72.5 -42t-83 -13.5q-39 0 -72.5 10t-56 31t-32.5 53.5t-4 76.5zM836 1468q-10 -66 13 -103t62 -37q16 0 30 2.5t25 6.5q12 4 23 10
q7 13 13 31q5 15 11 38t11 52q11 66 -10 103t-66 37q-13 0 -24.5 -3t-21.5 -7q-11 -4 -22 -9q-9 -11 -17 -29q-7 -15 -14.5 -37.5t-12.5 -54.5z" />
    <glyph glyph-name="yring" unicode="&#x1e99;" horiz-adv-x="1204" 
d="M141 1085l231 22l81 -78l-93 -675q-19 -136 0 -202t94 -66q88 1 185.5 73t193.5 210l85 611l-141 20l17 85l231 22l81 -78l-126 -900q-41 -287 -183.5 -436.5t-359.5 -149.5q-89 0 -180 19.5t-163 50.5l33 140q108 -40 228 -68.5t206 -28.5q84 47 148 159.5t86 273.5
l21 156q-93 -127 -205.5 -197t-224.5 -70q-133 0 -186 69.5t-32 218.5l97 714l-141 20zM516 1436q8 59 31 103t56 73t73 43.5t82 14.5q38 0 71 -10t55.5 -30.5t33 -52.5t4.5 -77q-9 -62 -31 -106.5t-54.5 -73t-72.5 -42t-83 -13.5q-39 0 -72.5 10t-56 31t-32.5 53.5t-4 76.5
zM626 1468q-10 -66 13 -103t62 -37q16 0 30 2.5t25 6.5q12 4 23 10q7 13 13 31q5 15 11 38t11 52q11 66 -10 103t-66 37q-13 0 -24.5 -3t-21.5 -7q-11 -4 -22 -9q-9 -11 -17 -29q-7 -15 -14.5 -37.5t-12.5 -54.5z" />
    <glyph glyph-name="uni1E9E" unicode="&#x1e9e;" horiz-adv-x="1362" 
d="M1251 1259l-388 -446l80 -51q73 -47 133 -93.5t100.5 -97t59 -106.5t9.5 -120q-11 -80 -46.5 -147.5t-94 -116.5t-139.5 -76t-184 -27q-80 0 -139.5 9.5t-99.5 21.5q-47 14 -80 32l16 259h90l55 -199q17 -7 42 -12q20 -5 50.5 -8.5t68.5 -3.5q41 0 76 5.5t61 13.5
q31 8 56 19q16 23 29 50q11 23 22.5 53t16.5 63q7 47 -8 91t-49.5 87t-87 84.5t-119.5 84.5l-116 74l7 98l405 454h-580l-177 -1254h-308l-8 85l141 20l161 1143l-141 20l17 85h1082z" />
    <glyph glyph-name="uni1EA0" unicode="&#x1ea0;" 
d="M1019 105l112 -20l-17 -85h-417l-8 85l141 20l-64 321h-476l-157 -321l142 -20l-17 -85h-374l-8 85l111 20l622 1248h149zM621 1104l-283 -579h408l-115 579h-10zM377 -318q0 26 5.5 49.5t15 41.5t22 28.5t27.5 10.5q26 0 49.5 -5.5t41.5 -15t28.5 -22.5t10.5 -27
q0 -27 -5.5 -51t-15 -41.5t-22.5 -27.5t-27 -10q-27 0 -51 5.5t-41.5 15t-27.5 22t-10 27.5z" />
    <glyph glyph-name="uni1EA1" unicode="&#x1ea1;" horiz-adv-x="1158" 
d="M1013 0l-230 -22l-81 78l26 190q-78 -122 -179 -195t-206 -73q-165 0 -222 95t-29 300l26 188q37 252 177.5 399t342.5 147q81 0 179.5 -20.5t199.5 -57.5l-129 -924l142 -20zM284 461q-27 -192 -3 -283.5t123 -91.5q84 0 175 81t167 206l85 617q-46 16 -99 24.5
t-100 8.5q-55 0 -108.5 -14t-94.5 -36q-40 -66 -72.5 -159.5t-53.5 -221.5zM369 -318q0 26 5.5 49.5t15 41.5t22 28.5t27.5 10.5q26 0 49.5 -5.5t41.5 -15t28.5 -22.5t10.5 -27q0 -27 -5.5 -51t-15 -41.5t-22.5 -27.5t-27 -10q-27 0 -51 5.5t-41.5 15t-27.5 22t-10 27.5z
" />
    <glyph glyph-name="uni1EA2" unicode="&#x1ea2;" 
d="M1019 105l112 -20l-17 -85h-417l-8 85l141 20l-64 321h-476l-157 -321l142 -20l-17 -85h-374l-8 85l111 20l622 1248h149zM621 1104l-283 -579h408l-115 579h-10zM792 1573q-21 -13 -34.5 -22t-21.5 -16t-11 -13t-4 -12q-2 -8 -1.5 -16t1.5 -14q1 -8 3 -14l-81 -27
q-9 15 -15 31q-5 14 -9.5 29t-2.5 29q4 25 21.5 48t62.5 53q28 18 47 32t31 26t17.5 23.5t7.5 26.5q3 22 -11 38t-49 16q-19 0 -35.5 -3t-29.5 -6q-15 -4 -28 -9l-35 -91l-73 5l18 123q25 15 58 27q28 11 66 19.5t85 8.5q82 0 125 -34t34 -96q-8 -55 -43.5 -91t-92.5 -71z
" />
    <glyph glyph-name="uni1EA3" unicode="&#x1ea3;" horiz-adv-x="1158" 
d="M1013 0l-230 -22l-81 78l26 190q-78 -122 -179 -195t-206 -73q-165 0 -222 95t-29 300l26 188q37 252 177.5 399t342.5 147q81 0 179.5 -20.5t199.5 -57.5l-129 -924l142 -20zM284 461q-27 -192 -3 -283.5t123 -91.5q84 0 175 81t167 206l85 617q-46 16 -99 24.5
t-100 8.5q-55 0 -108.5 -14t-94.5 -36q-40 -66 -72.5 -159.5t-53.5 -221.5zM781 1378q-21 -13 -34.5 -22t-21.5 -16t-11 -13t-4 -12q-2 -8 -1.5 -16t1.5 -14q1 -8 3 -14l-81 -27q-9 15 -15 31q-5 14 -9.5 29t-2.5 29q4 25 21.5 48t62.5 53q28 18 47 32t31 26t17.5 23.5
t7.5 26.5q3 22 -11 38t-49 16q-19 0 -35.5 -3t-29.5 -6q-15 -4 -28 -9l-35 -91l-73 5l18 123q25 15 58 27q28 11 66 19.5t85 8.5q82 0 125 -34t34 -96q-8 -55 -43.5 -91t-92.5 -71z" />
    <glyph glyph-name="uni1EA4" unicode="&#x1ea4;" 
d="M1019 105l112 -20l-17 -85h-417l-8 85l141 20l-64 321h-476l-157 -321l142 -20l-17 -85h-374l-8 85l111 20l622 1248h149zM621 1104l-283 -579h408l-115 579h-10zM1035 1470l-106 -10l-196 198l-273 -198l-93 10l5 32l323 292l132 -10l213 -282zM954 1734l238 182
l141 -10l-9 -66l-291 -149l-84 11z" />
    <glyph glyph-name="uni1EA5" unicode="&#x1ea5;" horiz-adv-x="1158" 
d="M1013 0l-230 -22l-81 78l26 190q-78 -122 -179 -195t-206 -73q-165 0 -222 95t-29 300l26 188q37 252 177.5 399t342.5 147q81 0 179.5 -20.5t199.5 -57.5l-129 -924l142 -20zM284 461q-27 -192 -3 -283.5t123 -91.5q84 0 175 81t167 206l85 617q-46 16 -99 24.5
t-100 8.5q-55 0 -108.5 -14t-94.5 -36q-40 -66 -72.5 -159.5t-53.5 -221.5zM986 1275l-97 -10l-149 262l-230 -262l-93 10l4 32l286 373l131 -10l152 -363zM958 1572l176 237l141 -10l-10 -66l-248 -203l-64 10z" />
    <glyph glyph-name="uni1EA6" unicode="&#x1ea6;" 
d="M1019 105l112 -20l-17 -85h-417l-8 85l141 20l-64 321h-476l-157 -321l142 -20l-17 -85h-374l-8 85l111 20l622 1248h149zM621 1104l-283 -579h408l-115 579h-10zM1035 1470l-106 -10l-196 198l-273 -198l-93 10l5 32l323 292l132 -10l213 -282zM533 1702l-86 -11
l-236 149l9 66l143 10l175 -182z" />
    <glyph glyph-name="uni1EA7" unicode="&#x1ea7;" horiz-adv-x="1158" 
d="M1013 0l-230 -22l-81 78l26 190q-78 -122 -179 -195t-206 -73q-165 0 -222 95t-29 300l26 188q37 252 177.5 399t342.5 147q81 0 179.5 -20.5t199.5 -57.5l-129 -924l142 -20zM284 461q-27 -192 -3 -283.5t123 -91.5q84 0 175 81t167 206l85 617q-46 16 -99 24.5
t-100 8.5q-55 0 -108.5 -14t-94.5 -36q-40 -66 -72.5 -159.5t-53.5 -221.5zM986 1275l-97 -10l-149 262l-230 -262l-93 10l4 32l286 373l131 -10l152 -363zM540 1540l-79 -10l-171 203l10 66l126 10l119 -237z" />
    <glyph glyph-name="uni1EA8" unicode="&#x1ea8;" 
d="M1019 105l112 -20l-17 -85h-417l-8 85l141 20l-64 321h-476l-157 -321l142 -20l-17 -85h-374l-8 85l111 20l622 1248h149zM621 1104l-283 -579h408l-115 579h-10zM1035 1470l-106 -10l-196 198l-273 -198l-93 10l5 32l323 292l132 -10l213 -282zM1124 1809
q-21 -13 -34.5 -22t-21.5 -16t-11 -13t-4 -12q-2 -8 -1.5 -16t1.5 -14q1 -8 3 -14l-81 -27q-9 15 -15 31q-5 14 -9.5 29t-2.5 29q4 25 21.5 48t62.5 53q28 18 47 32t31 26t17.5 23.5t7.5 26.5q3 22 -11 38t-49 16q-19 0 -35.5 -3t-29.5 -6q-15 -4 -28 -9l-35 -91l-73 5
l18 123q25 15 58 27q28 11 66 19.5t85 8.5q82 0 125 -34t34 -96q-8 -55 -43.5 -91t-92.5 -71z" />
    <glyph glyph-name="uni1EA9" unicode="&#x1ea9;" horiz-adv-x="1158" 
d="M1013 0l-230 -22l-81 78l26 190q-78 -122 -179 -195t-206 -73q-165 0 -222 95t-29 300l26 188q37 252 177.5 399t342.5 147q81 0 179.5 -20.5t199.5 -57.5l-129 -924l142 -20zM284 461q-27 -192 -3 -283.5t123 -91.5q84 0 175 81t167 206l85 617q-46 16 -99 24.5
t-100 8.5q-55 0 -108.5 -14t-94.5 -36q-40 -66 -72.5 -159.5t-53.5 -221.5zM986 1275l-97 -10l-149 262l-230 -262l-93 10l4 32l286 373l131 -10l152 -363zM1126 1647q-21 -13 -34.5 -22t-21.5 -16t-11 -13t-4 -12q-2 -8 -1.5 -16t1.5 -14q1 -8 3 -14l-81 -27q-9 15 -15 31
q-5 14 -9.5 29t-2.5 29q4 25 21.5 48t62.5 53q28 18 47 32t31 26t17.5 23.5t7.5 26.5q3 22 -11 38t-49 16q-19 0 -35.5 -3t-29.5 -6q-15 -4 -28 -9l-35 -91l-73 5l18 123q25 15 58 27q28 11 66 19.5t85 8.5q82 0 125 -34t34 -96q-8 -55 -43.5 -91t-92.5 -71z" />
    <glyph glyph-name="uni1EAA" unicode="&#x1eaa;" 
d="M1019 105l112 -20l-17 -85h-417l-8 85l141 20l-64 321h-476l-157 -321l142 -20l-17 -85h-374l-8 85l111 20l622 1248h149zM621 1104l-283 -579h408l-115 579h-10zM397 1929q8 54 28.5 94.5t50.5 68.5t66.5 42t76.5 14q65 0 123.5 -20.5t109.5 -45.5t94 -45.5t77 -20.5
q36 0 66.5 32t40.5 98l99 10l-7 -47q-8 -51 -27 -91.5t-47.5 -69t-64.5 -43.5t-78 -15q-57 0 -117 20.5t-115.5 45.5t-104 45.5t-83.5 20.5q-17 0 -33 -4.5t-29.5 -16.5t-23.5 -33t-15 -54l-91 -10zM1035 1470l-106 -10l-196 198l-273 -198l-93 10l5 32l323 292l132 -10
l213 -282z" />
    <glyph glyph-name="uni1EAB" unicode="&#x1eab;" horiz-adv-x="1158" 
d="M1013 0l-230 -22l-81 78l26 190q-78 -122 -179 -195t-206 -73q-165 0 -222 95t-29 300l26 188q37 252 177.5 399t342.5 147q81 0 179.5 -20.5t199.5 -57.5l-129 -924l142 -20zM284 461q-27 -192 -3 -283.5t123 -91.5q84 0 175 81t167 206l85 617q-46 16 -99 24.5
t-100 8.5q-55 0 -108.5 -14t-94.5 -36q-40 -66 -72.5 -159.5t-53.5 -221.5zM398 1820q16 108 82.5 163.5t169.5 55.5q54 0 106.5 -20.5t101.5 -45.5t92.5 -45.5t78.5 -20.5q41 0 71.5 32t41.5 98l89 10l-7 -47q-15 -102 -77 -160.5t-163 -58.5q-49 0 -104 20.5t-109 45.5
t-103 45.5t-85 20.5q-18 0 -35.5 -4.5t-31.5 -16.5t-25 -33t-16 -54l-81 -10zM986 1275l-97 -10l-149 262l-230 -262l-93 10l4 32l286 373l131 -10l152 -363z" />
    <glyph glyph-name="uni1EAC" unicode="&#x1eac;" 
d="M1019 105l112 -20l-17 -85h-417l-8 85l141 20l-64 321h-476l-157 -321l142 -20l-17 -85h-374l-8 85l111 20l622 1248h149zM621 1104l-283 -579h408l-115 579h-10zM377 -318q0 26 5.5 49.5t15 41.5t22 28.5t27.5 10.5q26 0 49.5 -5.5t41.5 -15t28.5 -22.5t10.5 -27
q0 -27 -5.5 -51t-15 -41.5t-22.5 -27.5t-27 -10q-27 0 -51 5.5t-41.5 15t-27.5 22t-10 27.5zM1035 1470l-106 -10l-196 198l-273 -198l-93 10l5 32l323 292l132 -10l213 -282z" />
    </font>
</defs>
</svg>
